  0
SECTION
  2
HEADER
  9
$ACADVER
  1
AC1018
  9
$ACADMAINTVER
 70
   104
  9
$DWGCODEPAGE
  3
ANSI_932
  9
$LASTSAVEDBY
  1
t-hayashi
  9
$INSBASE
 10
0.0
 20
0.0
 30
0.0
  9
$EXTMIN
 10
41.73521359871443
 20
3.182509633223155
 30
0.0
  9
$EXTMAX
 10
198.348651227717
 20
243.8948887185463
 30
0.0
  9
$LIMMIN
 10
0.0
 20
0.0
  9
$LIMMAX
 10
210.0
 20
297.0
  9
$ORTHOMODE
 70
     0
  9
$REGENMODE
 70
     1
  9
$FILLMODE
 70
     1
  9
$QTEXTMODE
 70
     0
  9
$MIRRTEXT
 70
     0
  9
$LTSCALE
 40
1.0
  9
$ATTMODE
 70
     1
  9
$TEXTSIZE
 40
3.0
  9
$TRACEWID
 40
1.0
  9
$TEXTSTYLE
  7
Standard
  9
$CLAYER
  8
sumpo
  9
$CELTYPE
  6
ByLayer
  9
$CECOLOR
 62
   256
  9
$CELTSCALE
 40
1.0
  9
$DISPSILH
 70
     0
  9
$DIMSCALE
 40
1.0
  9
$DIMASZ
 40
3.0
  9
$DIMEXO
 40
4.0
  9
$DIMDLI
 40
3.75
  9
$DIMRND
 40
0.0
  9
$DIMDLE
 40
0.0
  9
$DIMEXE
 40
2.0
  9
$DIMTP
 40
0.0
  9
$DIMTM
 40
0.0
  9
$DIMTXT
 40
3.0
  9
$DIMCEN
 40
2.5
  9
$DIMTSZ
 40
0.0
  9
$DIMTOL
 70
     0
  9
$DIMLIM
 70
     0
  9
$DIMTIH
 70
     0
  9
$DIMTOH
 70
     0
  9
$DIMSE1
 70
     0
  9
$DIMSE2
 70
     0
  9
$DIMTAD
 70
     1
  9
$DIMZIN
 70
     8
  9
$DIMBLK
  1
Open30
  9
$DIMASO
 70
     1
  9
$DIMSHO
 70
     1
  9
$DIMPOST
  1

  9
$DIMAPOST
  1

  9
$DIMALT
 70
     0
  9
$DIMALTD
 70
     3
  9
$DIMALTF
 40
0.03937007874016
  9
$DIMLFAC
 40
1.0
  9
$DIMTOFL
 70
     1
  9
$DIMTVP
 40
0.0
  9
$DIMTIX
 70
     0
  9
$DIMSOXD
 70
     0
  9
$DIMSAH
 70
     0
  9
$DIMBLK1
  1

  9
$DIMBLK2
  1

  9
$DIMSTYLE
  2
ISO-25-4mm
  9
$DIMCLRD
 70
   256
  9
$DIMCLRE
 70
   256
  9
$DIMCLRT
 70
     4
  9
$DIMTFAC
 40
1.0
  9
$DIMGAP
 40
1.0
  9
$DIMJUST
 70
     0
  9
$DIMSD1
 70
     0
  9
$DIMSD2
 70
     0
  9
$DIMTOLJ
 70
     0
  9
$DIMTZIN
 70
     8
  9
$DIMALTZ
 70
     0
  9
$DIMALTTZ
 70
     0
  9
$DIMUPT
 70
     0
  9
$DIMDEC
 70
     2
  9
$DIMTDEC
 70
     2
  9
$DIMALTU
 70
     2
  9
$DIMALTTD
 70
     3
  9
$DIMTXSTY
  7
Standard
  9
$DIMAUNIT
 70
     0
  9
$DIMADEC
 70
     0
  9
$DIMALTRND
 40
0.0
  9
$DIMAZIN
 70
     0
  9
$DIMDSEP
 70
    46
  9
$DIMATFIT
 70
     3
  9
$DIMFRAC
 70
     0
  9
$DIMLDRBLK
  1

  9
$DIMLUNIT
 70
     2
  9
$DIMLWD
 70
    -2
  9
$DIMLWE
 70
    -2
  9
$DIMTMOVE
 70
     0
  9
$LUNITS
 70
     2
  9
$LUPREC
 70
     4
  9
$SKETCHINC
 40
1.0
  9
$FILLETRAD
 40
1.5
  9
$AUNITS
 70
     0
  9
$AUPREC
 70
     0
  9
$MENU
  1
.
  9
$ELEVATION
 40
0.0
  9
$PELEVATION
 40
0.0
  9
$THICKNESS
 40
0.0
  9
$LIMCHECK
 70
     0
  9
$CHAMFERA
 40
0.0
  9
$CHAMFERB
 40
0.0
  9
$CHAMFERC
 40
0.0
  9
$CHAMFERD
 40
0.0
  9
$SKPOLY
 70
     0
  9
$TDCREATE
 40
2455497.994904688
  9
$TDUCREATE
 40
2455497.619904688
  9
$TDUPDATE
 40
2455618.805726632
  9
$TDUUPDATE
 40
2455618.430726632
  9
$TDINDWG
 40
1.2912332986
  9
$TDUSRTIMER
 40
1.2912332986
  9
$USRTIMER
 70
     1
  9
$ANGBASE
 50
0.0
  9
$ANGDIR
 70
     0
  9
$PDMODE
 70
     0
  9
$PDSIZE
 40
0.0
  9
$PLINEWID
 40
0.0
  9
$SPLFRAME
 70
     0
  9
$SPLINETYPE
 70
     6
  9
$SPLINESEGS
 70
     8
  9
$HANDSEED
  5
1F86
  9
$SURFTAB1
 70
     6
  9
$SURFTAB2
 70
     6
  9
$SURFTYPE
 70
     6
  9
$SURFU
 70
     6
  9
$SURFV
 70
     6
  9
$UCSBASE
  2

  9
$UCSNAME
  2

  9
$UCSORG
 10
0.0
 20
0.0
 30
0.0
  9
$UCSXDIR
 10
1.0
 20
0.0
 30
0.0
  9
$UCSYDIR
 10
0.0
 20
1.0
 30
0.0
  9
$UCSORTHOREF
  2

  9
$UCSORTHOVIEW
 70
     0
  9
$UCSORGTOP
 10
0.0
 20
0.0
 30
0.0
  9
$UCSORGBOTTOM
 10
0.0
 20
0.0
 30
0.0
  9
$UCSORGLEFT
 10
0.0
 20
0.0
 30
0.0
  9
$UCSORGRIGHT
 10
0.0
 20
0.0
 30
0.0
  9
$UCSORGFRONT
 10
0.0
 20
0.0
 30
0.0
  9
$UCSORGBACK
 10
0.0
 20
0.0
 30
0.0
  9
$PUCSBASE
  2

  9
$PUCSNAME
  2

  9
$PUCSORG
 10
0.0
 20
0.0
 30
0.0
  9
$PUCSXDIR
 10
1.0
 20
0.0
 30
0.0
  9
$PUCSYDIR
 10
0.0
 20
1.0
 30
0.0
  9
$PUCSORTHOREF
  2

  9
$PUCSORTHOVIEW
 70
     0
  9
$PUCSORGTOP
 10
0.0
 20
0.0
 30
0.0
  9
$PUCSORGBOTTOM
 10
0.0
 20
0.0
 30
0.0
  9
$PUCSORGLEFT
 10
0.0
 20
0.0
 30
0.0
  9
$PUCSORGRIGHT
 10
0.0
 20
0.0
 30
0.0
  9
$PUCSORGFRONT
 10
0.0
 20
0.0
 30
0.0
  9
$PUCSORGBACK
 10
0.0
 20
0.0
 30
0.0
  9
$USERI1
 70
     0
  9
$USERI2
 70
     0
  9
$USERI3
 70
     0
  9
$USERI4
 70
     0
  9
$USERI5
 70
     0
  9
$USERR1
 40
0.0
  9
$USERR2
 40
0.0
  9
$USERR3
 40
0.0
  9
$USERR4
 40
0.0
  9
$USERR5
 40
0.0
  9
$WORLDVIEW
 70
     1
  9
$SHADEDGE
 70
     3
  9
$SHADEDIF
 70
    70
  9
$TILEMODE
 70
     1
  9
$MAXACTVP
 70
    64
  9
$PINSBASE
 10
0.0
 20
0.0
 30
0.0
  9
$PLIMCHECK
 70
     0
  9
$PEXTMIN
 10
9.015664445261563
 20
12.15813129276887
 30
0.0
  9
$PEXTMAX
 10
193.4351008528131
 20
280.2690525345891
 30
0.0
  9
$PLIMMIN
 10
-4.180416584014892
 20
-5.831417560577392
  9
$PLIMMAX
 10
205.7929110527039
 20
291.1369051933288
  9
$UNITMODE
 70
     0
  9
$VISRETAIN
 70
     1
  9
$PLINEGEN
 70
     0
  9
$PSLTSCALE
 70
     1
  9
$TREEDEPTH
 70
  3020
  9
$CMLSTYLE
  2
Standard
  9
$CMLJUST
 70
     0
  9
$CMLSCALE
 40
20.0
  9
$PROXYGRAPHICS
 70
     1
  9
$MEASUREMENT
 70
     1
  9
$CELWEIGHT
370
    -1
  9
$ENDCAPS
280
     0
  9
$JOINSTYLE
280
     0
  9
$LWDISPLAY
290
     0
  9
$INSUNITS
 70
     4
  9
$HYPERLINKBASE
  1

  9
$STYLESHEET
  1

  9
$XEDIT
290
     1
  9
$CEPSNTYPE
380
     0
  9
$PSTYLEMODE
290
     1
  9
$FINGERPRINTGUID
  2
{03A8F9F0-C856-470B-BDF9-D9C40928B69F}
  9
$VERSIONGUID
  2
{A8A92D7C-7978-43BE-8F37-525D3B73DB32}
  9
$EXTNAMES
290
     1
  9
$PSVPSCALE
 40
0.0
  9
$OLESTARTUP
290
     0
  9
$SORTENTS
280
   127
  9
$INDEXCTL
280
     0
  9
$HIDETEXT
280
     1
  9
$XCLIPFRAME
290
     0
  9
$HALOGAP
280
     0
  9
$OBSCOLOR
 70
   257
  9
$OBSLTYPE
280
     0
  9
$INTERSECTIONDISPLAY
280
     0
  9
$INTERSECTIONCOLOR
 70
   257
  9
$DIMASSOC
280
     2
  9
$PROJECTNAME
  1

  0
ENDSEC
  0
SECTION
  2
CLASSES
  0
CLASS
  1
ACDBDICTIONARYWDFLT
  2
AcDbDictionaryWithDefault
  3
ObjectDBX Classes
 90
        0
 91
        1
280
     0
281
     0
  0
CLASS
  1
MATERIAL
  2
AcDbMaterial
  3
ObjectDBX Classes
 90
     1153
 91
        3
280
     0
281
     0
  0
CLASS
  1
DIMASSOC
  2
AcDbDimAssoc
  3
"AcDbDimAssoc|Product Desc:     AcDim ARX App For Dimension|Company:          Autodesk, Inc.|WEB Address:      www.autodesk.com"
 90
        0
 91
        5
280
     0
281
     0
  0
CLASS
  1
VISUALSTYLE
  2
AcDbVisualStyle
  3
ObjectDBX Classes
 90
     4095
 91
       16
280
     0
281
     0
  0
CLASS
  1
TABLESTYLE
  2
AcDbTableStyle
  3
ObjectDBX Classes
 90
     4095
 91
        1
280
     0
281
     0
  0
CLASS
  1
SCALE
  2
AcDbScale
  3
ObjectDBX Classes
 90
     1153
 91
       33
280
     0
281
     0
  0
CLASS
  1
MLEADERSTYLE
  2
AcDbMLeaderStyle
  3
ACDB_MLEADERSTYLE_CLASS
 90
     4095
 91
        1
280
     0
281
     0
  0
CLASS
  1
DICTIONARYVAR
  2
AcDbDictionaryVar
  3
ObjectDBX Classes
 90
        0
 91
        3
280
     0
281
     0
  0
CLASS
  1
CELLSTYLEMAP
  2
AcDbCellStyleMap
  3
ObjectDBX Classes
 90
     1152
 91
        1
280
     0
281
     0
  0
ENDSEC
  0
SECTION
  2
TABLES
  0
TABLE
  2
VPORT
  5
8
330
0
100
AcDbSymbolTable
 70
     1
  0
VPORT
  5
1F15
330
8
100
AcDbSymbolTableRecord
100
AcDbViewportTableRecord
  2
*Active
 70
     0
 10
0.0
 20
0.0
 11
1.0
 21
1.0
 12
208.9981977202744
 22
148.5
 13
0.0
 23
0.0
 14
10.0
 24
10.0
 15
10.0
 25
10.0
 16
0.0
 26
0.0
 36
1.0
 17
0.0
 27
0.0
 37
0.0
 40
299.376
 41
2.304913294797688
 42
50.0
 43
0.0
 44
0.0
 50
0.0
 51
0.0
 71
     0
 72
  1000
 73
     1
 74
     3
 75
     0
 76
     0
 77
     0
 78
     0
281
     0
 65
     1
110
0.0
120
0.0
130
0.0
111
1.0
121
0.0
131
0.0
112
0.0
122
1.0
132
0.0
 79
     0
146
0.0
  0
ENDTAB
  0
TABLE
  2
LTYPE
  5
5
330
0
100
AcDbSymbolTable
 70
     1
  0
LTYPE
  5
14
330
5
100
AcDbSymbolTableRecord
100
AcDbLinetypeTableRecord
  2
ByBlock
 70
     0
  3

 72
    65
 73
     0
 40
0.0
  0
LTYPE
  5
15
330
5
100
AcDbSymbolTableRecord
100
AcDbLinetypeTableRecord
  2
ByLayer
 70
     0
  3

 72
    65
 73
     0
 40
0.0
  0
LTYPE
  5
16
330
5
100
AcDbSymbolTableRecord
100
AcDbLinetypeTableRecord
  2
Continuous
 70
     0
  3
Solid line
 72
    65
 73
     0
 40
0.0
  0
ENDTAB
  0
TABLE
  2
LAYER
  5
2
102
{ACAD_XDICTIONARY
360
5C
102
}
330
0
100
AcDbSymbolTable
 70
    11
  0
LAYER
  5
10
102
{ACAD_XDICTIONARY
360
1F67
102
}
330
2
100
AcDbSymbolTableRecord
100
AcDbLayerTableRecord
  2
0
 70
     0
 62
     7
  6
Continuous
370
    -3
390
F
  0
LAYER
  5
2D
102
{ACAD_XDICTIONARY
360
1F69
102
}
330
2
100
AcDbSymbolTableRecord
100
AcDbLayerTableRecord
  2
gaikei
 70
     0
 62
     7
  6
Continuous
370
    -3
390
F
  0
LAYER
  5
2E
102
{ACAD_XDICTIONARY
360
1F6B
102
}
330
2
100
AcDbSymbolTableRecord
100
AcDbLayerTableRecord
  2
sumpo
 70
     0
 62
     4
  6
Continuous
370
    -3
390
F
  0
LAYER
  5
2F
102
{ACAD_XDICTIONARY
360
1F6D
102
}
330
2
100
AcDbSymbolTableRecord
100
AcDbLayerTableRecord
  2
fuzoku
 70
     0
 62
     3
  6
Continuous
370
    -3
390
F
  0
LAYER
  5
30
102
{ACAD_XDICTIONARY
360
1F6F
102
}
330
2
100
AcDbSymbolTableRecord
100
AcDbLayerTableRecord
  2
moji
 70
     0
 62
     2
  6
Continuous
370
    -3
390
F
  0
LAYER
  5
48
102
{ACAD_XDICTIONARY
360
1F71
102
}
330
2
100
AcDbSymbolTableRecord
100
AcDbLayerTableRecord
  2
hojo
 70
     0
 62
     6
  6
Continuous
370
    -3
390
F
  0
LAYER
  5
8F4
330
2
100
AcDbSymbolTableRecord
100
AcDbLayerTableRecord
  2
Defpoints
 70
     0
 62
     7
  6
Continuous
290
     0
370
    -3
390
F
  0
LAYER
  5
B26
102
{ACAD_XDICTIONARY
360
1F73
102
}
330
2
100
AcDbSymbolTableRecord
100
AcDbLayerTableRecord
  2
shiyouwaku
 70
     0
 62
     7
  6
Continuous
370
    -3
390
F
  0
LAYER
  5
B29
102
{ACAD_XDICTIONARY
360
1F75
102
}
330
2
100
AcDbSymbolTableRecord
100
AcDbLayerTableRecord
  2
zubanwaku
 70
     0
 62
     7
  6
Continuous
370
    -3
390
F
  0
LAYER
  5
B2A
102
{ACAD_XDICTIONARY
360
1F77
102
}
330
2
100
AcDbSymbolTableRecord
100
AcDbLayerTableRecord
  2
zubanmoji
 70
     0
 62
     3
  6
Continuous
370
    -3
390
F
  0
LAYER
  5
1832
102
{ACAD_XDICTIONARY
360
1F79
102
}
330
2
100
AcDbSymbolTableRecord
100
AcDbLayerTableRecord
  2
hacchi
 70
     0
 62
     6
  6
Continuous
370
    -3
390
F
  0
ENDTAB
  0
TABLE
  2
STYLE
  5
3
330
0
100
AcDbSymbolTable
 70
     2
  0
STYLE
  5
11
330
3
100
AcDbSymbolTableRecord
100
AcDbTextStyleTableRecord
  2
Standard
 70
     0
 40
0.0
 41
1.0
 50
0.0
 71
     0
 42
3.0
  3
romans.shx
  4
extfont.shx
  0
STYLE
  5
425
330
3
100
AcDbSymbolTableRecord
100
AcDbTextStyleTableRecord
  2
KKZ-Y
 70
     0
 40
0.0
 41
1.0
 50
0.0
 71
     0
 42
10.0
  3
TXT
  4
EXTFONT
  0
ENDTAB
  0
TABLE
  2
VIEW
  5
6
330
0
100
AcDbSymbolTable
 70
     0
  0
ENDTAB
  0
TABLE
  2
UCS
  5
7
330
0
100
AcDbSymbolTable
 70
     0
  0
ENDTAB
  0
TABLE
  2
APPID
  5
9
330
0
100
AcDbSymbolTable
 70
     6
  0
APPID
  5
12
330
9
100
AcDbSymbolTableRecord
100
AcDbRegAppTableRecord
  2
ACAD
 70
     0
  0
APPID
  5
51
330
9
100
AcDbSymbolTableRecord
100
AcDbRegAppTableRecord
  2
AcadAnnotative
 70
     0
  0
APPID
  5
52
330
9
100
AcDbSymbolTableRecord
100
AcDbRegAppTableRecord
  2
ACAD_DSTYLE_DIMJAG
 70
     0
  0
APPID
  5
53
330
9
100
AcDbSymbolTableRecord
100
AcDbRegAppTableRecord
  2
ACAD_DSTYLE_DIMTALN
 70
     0
  0
APPID
  5
54
330
9
100
AcDbSymbolTableRecord
100
AcDbRegAppTableRecord
  2
ACAD_PSEXT
 70
     0
  0
APPID
  5
1F5E
330
9
100
AcDbSymbolTableRecord
100
AcDbRegAppTableRecord
  2
ACAD_MLEADERVER
 70
     0
  0
ENDTAB
  0
TABLE
  2
DIMSTYLE
  5
A
330
0
100
AcDbSymbolTable
 70
     4
100
AcDbDimStyleTable
 71
     4
340
1439
340
29
340
4F
340
50
  0
DIMSTYLE
105
29
330
A
100
AcDbSymbolTableRecord
100
AcDbDimStyleTableRecord
  2
ISO-25
 70
     0
 41
8.0
 42
10.0
 43
3.75
 44
10.0
 73
     0
 74
     0
 77
     1
 78
     8
140
8.0
141
2.5
143
0.03937007874016
147
4.0
171
     3
172
     1
176
   256
177
   256
178
     4
271
     2
272
     2
274
     3
283
     0
284
     8
340
11
341
8EC
342
8EC
  0
DIMSTYLE
105
4F
330
A
100
AcDbSymbolTableRecord
100
AcDbDimStyleTableRecord
  2
Standard
 70
     0
340
11
  0
DIMSTYLE
105
50
330
A
100
AcDbSymbolTableRecord
100
AcDbDimStyleTableRecord
  2
Annotative
 70
     0
 40
0.0
340
11
1001
AcadAnnotative
1000
AnnotativeData
1002
{
1070
     1
1070
     1
1002
}
1001
ACAD_DSTYLE_DIMJAG
1070
   388
1040
1.5
1001
ACAD_DSTYLE_DIMTALN
1070
   392
1070
     0
  0
DIMSTYLE
105
1439
102
{ACAD_REACTORS
330
1DF7
330
1E0F
330
1E43
330
1E5F
330
1E77
102
}
330
A
100
AcDbSymbolTableRecord
100
AcDbDimStyleTableRecord
  2
ISO-25-4mm
 70
     0
 41
3.0
 42
4.0
 43
3.75
 44
2.0
 73
     0
 74
     0
 77
     1
 78
     8
140
3.0
141
2.5
143
0.03937007874016
147
1.0
171
     3
172
     1
176
   256
177
   256
178
     4
271
     2
272
     2
274
     3
283
     0
284
     8
340
11
342
8EC
  0
ENDTAB
  0
TABLE
  2
BLOCK_RECORD
  5
1
330
0
100
AcDbSymbolTable
 70
    14
  0
BLOCK_RECORD
  5
21
330
1
100
AcDbSymbolTableRecord
100
AcDbBlockTableRecord
  2
*Model_Space
340
24
  0
BLOCK_RECORD
  5
17A6
330
1
100
AcDbSymbolTableRecord
100
AcDbBlockTableRecord
  2
*Paper_Space
340
17A7
  0
BLOCK_RECORD
  5
8EC
330
1
100
AcDbSymbolTableRecord
100
AcDbBlockTableRecord
  2
_Open30
340
0
102
{BLKREFS
331
1D4A
331
1D4B
331
1D53
331
1D54
331
1D5C
331
1D5D
331
1D65
331
1D66
331
1D70
331
1D71
331
1D79
331
1D7A
331
1D82
331
1D83
331
1D8B
331
1D8C
331
1EE3
331
1EE4
331
1EEC
331
1EED
331
1EF7
331
1EF8
331
1F00
331
1F01
331
1F09
331
1F0A
102
}
  0
BLOCK_RECORD
  5
1DF8
330
1
100
AcDbSymbolTableRecord
100
AcDbBlockTableRecord
  2
*D9
340
0
  0
BLOCK_RECORD
  5
1E10
330
1
100
AcDbSymbolTableRecord
100
AcDbBlockTableRecord
  2
*D10
340
0
  0
BLOCK_RECORD
  5
1E44
330
1
100
AcDbSymbolTableRecord
100
AcDbBlockTableRecord
  2
*D11
340
0
  0
BLOCK_RECORD
  5
1E60
330
1
100
AcDbSymbolTableRecord
100
AcDbBlockTableRecord
  2
*D12
340
0
  0
BLOCK_RECORD
  5
1E78
330
1
100
AcDbSymbolTableRecord
100
AcDbBlockTableRecord
  2
*D13
340
0
  0
ENDTAB
  0
ENDSEC
  0
SECTION
  2
BLOCKS
  0
BLOCK
  5
22
330
21
100
AcDbEntity
  8
0
100
AcDbBlockBegin
  2
*Model_Space
 70
     0
 10
0.0
 20
0.0
 30
0.0
  3
*Model_Space
  1

  0
ENDBLK
  5
23
330
21
100
AcDbEntity
  8
0
100
AcDbBlockEnd
  0
BLOCK
  5
17A8
330
17A6
100
AcDbEntity
 67
     1
  8
0
100
AcDbBlockBegin
  2
*Paper_Space
 70
     0
 10
0.0
 20
0.0
 30
0.0
  3
*Paper_Space
  1

  0
ENDBLK
  5
17A9
330
17A6
100
AcDbEntity
 67
     1
  8
0
100
AcDbBlockEnd
  0
BLOCK
  5
8F0
330
8EC
100
AcDbEntity
  8
0
100
AcDbBlockBegin
  2
_Open30
 70
     0
 10
0.0
 20
0.0
 30
0.0
  3
_Open30
  1

  0
LINE
  5
8ED
330
8EC
100
AcDbEntity
  8
0
  6
ByBlock
 62
     0
370
    -2
100
AcDbLine
 10
-1.0
 20
0.26794919
 30
0.0
 11
0.0
 21
0.0
 31
0.0
  0
LINE
  5
8EE
330
8EC
100
AcDbEntity
  8
0
  6
ByBlock
 62
     0
370
    -2
100
AcDbLine
 10
0.0
 20
0.0
 30
0.0
 11
-1.0
 21
-0.26794919
 31
0.0
  0
LINE
  5
8EF
330
8EC
100
AcDbEntity
  8
0
  6
ByBlock
 62
     0
370
    -2
100
AcDbLine
 10
0.0
 20
0.0
 30
0.0
 11
-1.0
 21
0.0
 31
0.0
  0
ENDBLK
  5
8F1
330
8EC
100
AcDbEntity
  8
0
100
AcDbBlockEnd
  0
BLOCK
  5
1E02
330
1DF8
100
AcDbEntity
  8
0
100
AcDbBlockBegin
  2
*D9
 70
     1
 10
0.0
 20
0.0
 30
0.0
  3
*D9
  1

  0
LINE
  5
1F06
330
1DF8
100
AcDbEntity
  8
sumpo
370
    -2
100
AcDbLine
 10
59.71549422956969
 20
229.4645915342473
 30
0.0
 11
59.71549422956969
 21
241.8948887185463
 31
0.0
  0
LINE
  5
1F07
330
1DF8
100
AcDbEntity
  8
sumpo
370
    -2
100
AcDbLine
 10
98.71549422956968
 20
229.4645915342473
 30
0.0
 11
98.71549422956968
 21
241.8948887185463
 31
0.0
  0
LINE
  5
1F08
330
1DF8
100
AcDbEntity
  8
sumpo
370
    -2
100
AcDbLine
 10
62.71549422956969
 20
239.8948887185463
 30
0.0
 11
95.71549422956968
 21
239.8948887185463
 31
0.0
  0
INSERT
  5
1F09
330
1DF8
100
AcDbEntity
  8
sumpo
370
    -2
100
AcDbBlockReference
  2
_Open30
 10
59.71549422956969
 20
239.8948887185463
 30
0.0
 41
3.0
 42
3.0
 43
3.0
 50
180.0
  0
INSERT
  5
1F0A
330
1DF8
100
AcDbEntity
  8
sumpo
370
    -2
100
AcDbBlockReference
  2
_Open30
 10
98.71549422956968
 20
239.8948887185463
 30
0.0
 41
3.0
 42
3.0
 43
3.0
  0
MTEXT
  5
1F0B
330
1DF8
100
AcDbEntity
  8
sumpo
 62
     4
100
AcDbMText
 10
79.21549422956968
 20
242.3948887185463
 30
0.0
 40
3.0
 41
0.0
 71
     5
 72
     1
  1
19.0
 73
     1
 44
1.0
  0
POINT
  5
1F0C
330
1DF8
100
AcDbEntity
  8
Defpoints
 62
     0
100
AcDbPoint
 10
59.71549422956969
 20
225.4645915342473
 30
0.0
  0
POINT
  5
1F0D
330
1DF8
100
AcDbEntity
  8
Defpoints
 62
     0
100
AcDbPoint
 10
98.71549422956968
 20
225.4645915342473
 30
0.0
  0
POINT
  5
1F0E
330
1DF8
100
AcDbEntity
  8
Defpoints
 62
     0
100
AcDbPoint
 10
98.71549422956968
 20
239.8948887185463
 30
0.0
  0
ENDBLK
  5
1E03
330
1DF8
100
AcDbEntity
  8
0
100
AcDbBlockEnd
  0
BLOCK
  5
1E1A
330
1E10
100
AcDbEntity
  8
0
100
AcDbBlockBegin
  2
*D10
 70
     1
 10
0.0
 20
0.0
 30
0.0
  3
*D10
  1

  0
LINE
  5
1EFD
330
1E10
100
AcDbEntity
  8
sumpo
370
    -2
100
AcDbLine
 10
56.71549422956969
 20
226.4645915342473
 30
0.0
 11
43.73521359871448
 21
226.4645915342473
 31
0.0
  0
LINE
  5
1EFE
330
1E10
100
AcDbEntity
  8
sumpo
370
    -2
100
AcDbLine
 10
56.71549422956969
 20
184.4645915342473
 30
0.0
 11
43.73521359871447
 21
184.4645915342473
 31
0.0
  0
LINE
  5
1EFF
330
1E10
100
AcDbEntity
  8
sumpo
370
    -2
100
AcDbLine
 10
45.73521359871448
 20
223.4645915342473
 30
0.0
 11
45.73521359871447
 21
187.4645915342473
 31
0.0
  0
INSERT
  5
1F00
330
1E10
100
AcDbEntity
  8
sumpo
370
    -2
100
AcDbBlockReference
  2
_Open30
 10
45.73521359871448
 20
226.4645915342473
 30
0.0
 41
3.0
 42
3.0
 43
3.0
 50
90.0
  0
INSERT
  5
1F01
330
1E10
100
AcDbEntity
  8
sumpo
370
    -2
100
AcDbBlockReference
  2
_Open30
 10
45.73521359871447
 20
184.4645915342473
 30
0.0
 41
3.0
 42
3.0
 43
3.0
 50
270.0
  0
MTEXT
  5
1F02
330
1E10
100
AcDbEntity
  8
sumpo
 62
     4
100
AcDbMText
 10
43.23521359871445
 20
205.4645915342474
 30
0.0
 40
3.0
 41
0.0
 71
     5
 72
     1
  1
20.7
 11
0.0000000000000001
 21
1.0
 31
0.0
 73
     1
 44
1.0
  0
POINT
  5
1F03
330
1E10
100
AcDbEntity
  8
Defpoints
 62
     0
100
AcDbPoint
 10
60.71549422956969
 20
226.4645915342473
 30
0.0
  0
POINT
  5
1F04
330
1E10
100
AcDbEntity
  8
Defpoints
 62
     0
100
AcDbPoint
 10
60.71549422956969
 20
184.4645915342473
 30
0.0
  0
POINT
  5
1F05
330
1E10
100
AcDbEntity
  8
Defpoints
 62
     0
100
AcDbPoint
 10
45.73521359871447
 20
184.4645915342473
 30
0.0
  0
ENDBLK
  5
1E1B
330
1E10
100
AcDbEntity
  8
0
100
AcDbBlockEnd
  0
BLOCK
  5
1E50
330
1E44
100
AcDbEntity
  8
0
100
AcDbBlockBegin
  2
*D11
 70
     1
 10
0.0
 20
0.0
 30
0.0
  3
*D11
  1

  0
LINE
  5
1EF2
330
1E44
100
AcDbEntity
  8
sumpo
370
    -2
100
AcDbLine
 10
137.1923221678908
 20
230.4645915342473
 30
0.0
 11
137.1923221678908
 21
241.8948887185463
 31
0.0
  0
LINE
  5
1EF3
330
1E44
100
AcDbEntity
  8
sumpo
370
    -2
100
AcDbLine
 10
130.6923221678907
 20
214.9645915342473
 30
0.0
 11
130.6923221678907
 21
241.8948887185463
 31
0.0
  0
LINE
  5
1EF4
330
1E44
100
AcDbEntity
  8
sumpo
370
    -2
100
AcDbLine
 10
140.1923221678908
 20
239.8948887185463
 30
0.0
 11
143.1923221678907
 21
239.8948887185463
 31
0.0
  0
LINE
  5
1EF5
330
1E44
100
AcDbEntity
  8
sumpo
370
    -2
100
AcDbLine
 10
127.6923221678908
 20
239.8948887185463
 30
0.0
 11
116.4066078821765
 21
239.8948887185463
 31
0.0
  0
LINE
  5
1EF6
330
1E44
100
AcDbEntity
  8
sumpo
370
    -2
100
AcDbLine
 10
137.1923221678908
 20
239.8948887185463
 30
0.0
 11
130.6923221678907
 21
239.8948887185463
 31
0.0
  0
INSERT
  5
1EF7
330
1E44
100
AcDbEntity
  8
sumpo
370
    -2
100
AcDbBlockReference
  2
_Open30
 10
137.1923221678908
 20
239.8948887185463
 30
0.0
 41
3.0
 42
3.0
 43
3.0
 50
180.0
  0
INSERT
  5
1EF8
330
1E44
100
AcDbEntity
  8
sumpo
370
    -2
100
AcDbBlockReference
  2
_Open30
 10
130.6923221678907
 20
239.8948887185463
 30
0.0
 41
3.0
 42
3.0
 43
3.0
  0
MTEXT
  5
1EF9
330
1E44
100
AcDbEntity
  8
sumpo
 62
     4
100
AcDbMText
 10
120.5494650250336
 20
242.3948887185463
 30
0.0
 40
3.0
 41
0.0
 71
     5
 72
     1
  1
3.2
 73
     1
 44
1.0
  0
POINT
  5
1EFA
330
1E44
100
AcDbEntity
  8
Defpoints
 62
     0
100
AcDbPoint
 10
137.1923221678908
 20
226.4645915342473
 30
0.0
  0
POINT
  5
1EFB
330
1E44
100
AcDbEntity
  8
Defpoints
 62
     0
100
AcDbPoint
 10
130.6923221678907
 20
210.9645915342473
 30
0.0
  0
POINT
  5
1EFC
330
1E44
100
AcDbEntity
  8
Defpoints
 62
     0
100
AcDbPoint
 10
130.6923221678907
 20
239.8948887185463
 30
0.0
  0
ENDBLK
  5
1E51
330
1E44
100
AcDbEntity
  8
0
100
AcDbBlockEnd
  0
BLOCK
  5
1E6A
330
1E60
100
AcDbEntity
  8
0
100
AcDbBlockBegin
  2
*D12
 70
     1
 10
0.0
 20
0.0
 30
0.0
  3
*D12
  1

  0
LINE
  5
1EE9
330
1E60
100
AcDbEntity
  8
sumpo
370
    -2
100
AcDbLine
 10
141.1923221678907
 20
211.4645915342473
 30
0.0
 11
154.1923205922608
 21
211.4645915342473
 31
0.0
  0
LINE
  5
1EEA
330
1E60
100
AcDbEntity
  8
sumpo
370
    -2
100
AcDbLine
 10
141.1923221678907
 20
199.4645915342473
 30
0.0
 11
154.1923205922608
 21
199.4645915342473
 31
0.0
  0
LINE
  5
1EEB
330
1E60
100
AcDbEntity
  8
sumpo
370
    -2
100
AcDbLine
 10
152.1923205922608
 20
208.4645915342473
 30
0.0
 11
152.1923205922608
 21
202.4645915342473
 31
0.0
  0
INSERT
  5
1EEC
330
1E60
100
AcDbEntity
  8
sumpo
370
    -2
100
AcDbBlockReference
  2
_Open30
 10
152.1923205922608
 20
211.4645915342473
 30
0.0
 41
3.0
 42
3.0
 43
3.0
 50
90.0
  0
INSERT
  5
1EED
330
1E60
100
AcDbEntity
  8
sumpo
370
    -2
100
AcDbBlockReference
  2
_Open30
 10
152.1923205922608
 20
199.4645915342473
 30
0.0
 41
3.0
 42
3.0
 43
3.0
 50
270.0
  0
MTEXT
  5
1EEE
330
1E60
100
AcDbEntity
  8
sumpo
 62
     4
100
AcDbMText
 10
149.6923205922607
 20
205.4645915342473
 30
0.0
 40
3.0
 41
0.0
 71
     5
 72
     1
  1
6.0
 11
0.0000000000000001
 21
1.0
 31
0.0
 73
     1
 44
1.0
  0
POINT
  5
1EEF
330
1E60
100
AcDbEntity
  8
Defpoints
 62
     0
100
AcDbPoint
 10
137.1923221678908
 20
211.4645915342473
 30
0.0
  0
POINT
  5
1EF0
330
1E60
100
AcDbEntity
  8
Defpoints
 62
     0
100
AcDbPoint
 10
137.1923221678908
 20
199.4645915342473
 30
0.0
  0
POINT
  5
1EF1
330
1E60
100
AcDbEntity
  8
Defpoints
 62
     0
100
AcDbPoint
 10
152.1923205922608
 20
199.4645915342473
 30
0.0
  0
ENDBLK
  5
1E6B
330
1E60
100
AcDbEntity
  8
0
100
AcDbBlockEnd
  0
BLOCK
  5
1E84
330
1E78
100
AcDbEntity
  8
0
100
AcDbBlockBegin
  2
*D13
 70
     1
 10
0.0
 20
0.0
 30
0.0
  3
*D13
  1

  0
LINE
  5
1EDE
330
1E78
100
AcDbEntity
  8
sumpo
370
    -2
100
AcDbLine
 10
137.1923221678908
 20
207.4645915342473
 30
0.0
 11
137.1923221678908
 21
203.4645915342473
 31
0.0
  0
LINE
  5
1EDF
330
1E78
100
AcDbEntity
  8
sumpo
370
    -2
100
AcDbLine
 10
131.6923221678907
 20
206.9645915342473
 30
0.0
 11
131.6923221678907
 21
203.4645915342473
 31
0.0
  0
LINE
  5
1EE0
330
1E78
100
AcDbEntity
  8
sumpo
370
    -2
100
AcDbLine
 10
140.1923221678908
 20
205.4645915342473
 30
0.0
 11
143.1923221678907
 21
205.4645915342473
 31
0.0
  0
LINE
  5
1EE1
330
1E78
100
AcDbEntity
  8
sumpo
370
    -2
100
AcDbLine
 10
128.6923221678907
 20
205.4645915342473
 30
0.0
 11
117.5494650250336
 21
205.4645915342473
 31
0.0
  0
LINE
  5
1EE2
330
1E78
100
AcDbEntity
  8
sumpo
370
    -2
100
AcDbLine
 10
137.1923221678908
 20
205.4645915342473
 30
0.0
 11
131.6923221678907
 21
205.4645915342473
 31
0.0
  0
INSERT
  5
1EE3
330
1E78
100
AcDbEntity
  8
sumpo
370
    -2
100
AcDbBlockReference
  2
_Open30
 10
137.1923221678908
 20
205.4645915342473
 30
0.0
 41
3.0
 42
3.0
 43
3.0
 50
180.0
  0
INSERT
  5
1EE4
330
1E78
100
AcDbEntity
  8
sumpo
370
    -2
100
AcDbBlockReference
  2
_Open30
 10
131.6923221678907
 20
205.4645915342473
 30
0.0
 41
3.0
 42
3.0
 43
3.0
  0
MTEXT
  5
1EE5
330
1E78
100
AcDbEntity
  8
sumpo
 62
     4
100
AcDbMText
 10
121.6208935964622
 20
207.9645915342473
 30
0.0
 40
3.0
 41
0.0
 71
     5
 72
     1
  1
2.9
 73
     1
 44
1.0
  0
POINT
  5
1EE6
330
1E78
100
AcDbEntity
  8
Defpoints
 62
     0
100
AcDbPoint
 10
137.1923221678908
 20
211.4645915342473
 30
0.0
  0
POINT
  5
1EE7
330
1E78
100
AcDbEntity
  8
Defpoints
 62
     0
100
AcDbPoint
 10
131.6923221678907
 20
210.9645915342473
 30
0.0
  0
POINT
  5
1EE8
330
1E78
100
AcDbEntity
  8
Defpoints
 62
     0
100
AcDbPoint
 10
131.6923221678907
 20
205.4645915342473
 30
0.0
  0
ENDBLK
  5
1E85
330
1E78
100
AcDbEntity
  8
0
100
AcDbBlockEnd
  0
ENDSEC
  0
SECTION
  2
ENTITIES
  0
TEXT
  5
12A3
330
21
100
AcDbEntity
  8
zubanmoji
100
AcDbText
 10
387.5794558289331
 20
727.3666329742143
 30
0.0
 40
8.0
  1
 
100
AcDbText
  0
TEXT
  5
12A5
330
21
100
AcDbEntity
  8
zubanmoji
100
AcDbText
 10
396.3118100227534
 20
658.3374339419963
 30
0.0
 40
5.0
  1

100
AcDbText
  0
LINE
  5
168E
330
21
100
AcDbEntity
  8
shiyouwaku
100
AcDbLine
 10
52.73774482787462
 20
121.0949248751046
 30
0.0
 11
52.73774482787462
 21
86.09492487510468
 31
0.0
  0
LINE
  5
1690
330
21
100
AcDbEntity
  8
shiyouwaku
100
AcDbLine
 10
82.73774482787462
 20
121.0949248751046
 30
0.0
 11
82.73774482787462
 21
86.09492487510468
 31
0.0
  0
LINE
  5
1694
330
21
100
AcDbEntity
  8
shiyouwaku
100
AcDbLine
 10
52.73774482787462
 20
106.0949248751047
 30
0.0
 11
167.7377448278746
 21
106.0949248751046
 31
0.0
  0
LINE
  5
1696
330
21
100
AcDbEntity
  8
shiyouwaku
100
AcDbLine
 10
52.73774482787462
 20
96.09492487510467
 30
0.0
 11
167.7377448278746
 21
96.09492487510461
 31
0.0
  0
TEXT
  5
169E
330
21
100
AcDbEntity
  8
moji
100
AcDbText
 10
60.93774482787463
 20
102.0949248751046
 30
0.0
 40
3.0
  1
材　　質
 72
     4
 11
67.73774482787462
 21
103.5949248751046
 31
0.0
100
AcDbText
  0
TEXT
  5
16AC
330
21
100
AcDbEntity
  8
moji
100
AcDbText
 10
41.36920042624114
 20
68.81130088156844
 30
0.0
 40
3.0
  1

 72
     4
 11
41.36920042624114
 21
68.81130088156844
 31
0.0
100
AcDbText
  0
TEXT
  5
175C
330
21
100
AcDbEntity
  8
zubanmoji
100
AcDbText
 10
109.601032180098
 20
5.182509633223158
 30
0.0
 40
2.0
  1
TATSUTA ELECTRIC WIRE & CABLE CO., LTD. 
 72
     1
 11
141.848651227717
 21
6.182509633223158
 31
0.0
100
AcDbText
 73
     2
  0
TEXT
  5
175F
330
21
100
AcDbEntity
  8
zubanmoji
100
AcDbText
 10
187.5629369420027
 20
22.68250963322316
 30
0.0
 40
3.0
  1
mm
 72
     1
 11
191.848651227717
 21
24.18250963322317
 31
0.0
100
AcDbText
 73
     2
  0
TEXT
  5
1760
330
21
100
AcDbEntity
  8
zubanmoji
100
AcDbText
 10
176.148651227717
 20
22.68250963322316
 30
0.0
 40
3.0
  1
単位
 72
     1
 11
179.3486512277169
 21
24.18250963322317
 31
0.0
100
AcDbText
 73
     2
  0
TEXT
  5
1761
330
21
100
AcDbEntity
  8
zubanmoji
100
AcDbText
 10
99.64865122771698
 20
28.68250963322316
 30
0.0
 40
3.0
  1
フラット型（編組タイプ）漏水センサ固定用
 72
     1
 11
135.348651227717
 21
30.18250963322316
 31
0.0
100
AcDbText
 73
     2
  0
TEXT
  5
1762
330
21
100
AcDbEntity
  8
zubanmoji
100
AcDbText
 10
88.14865122771699
 20
22.68250963322316
 30
0.0
 40
3.0
  1
型式
 72
     1
 11
91.34865122771699
 21
24.18250963322316
 31
0.0
100
AcDbText
 73
     2
  0
TEXT
  5
1765
330
21
100
AcDbEntity
  8
zubanmoji
100
AcDbText
 10
130.248651227717
 20
34.68250963322316
 30
0.0
 40
3.0
  1
漏水センサ用止め金具
 72
     1
 11
147.848651227717
 21
36.18250963322316
 31
0.0
100
AcDbText
 73
     2
  0
TEXT
  5
1766
330
21
100
AcDbEntity
  8
zubanmoji
100
AcDbText
 10
88.14865122771699
 20
34.68250963322315
 30
0.0
 40
3.0
  1
名称
 72
     1
 11
91.34865122771699
 21
36.18250963322316
 31
0.0
100
AcDbText
 73
     2
  0
LINE
  5
1767
330
21
100
AcDbEntity
  8
zubanwaku
100
AcDbLine
 10
198.348651227717
 20
39.18250963322316
 30
0.0
 11
198.348651227717
 21
3.182509633223155
 31
0.0
  0
LINE
  5
1768
330
21
100
AcDbEntity
  8
zubanwaku
100
AcDbLine
 10
185.348651227717
 20
33.18250963322316
 30
0.0
 11
185.348651227717
 21
15.18250963322316
 31
0.0
  0
LINE
  5
1769
330
21
100
AcDbEntity
  8
zubanwaku
100
AcDbLine
 10
173.3486512277169
 20
33.18250963322316
 30
0.0
 11
173.348651227717
 21
15.18250963322316
 31
0.0
  0
LINE
  5
176A
330
21
100
AcDbEntity
  8
zubanwaku
100
AcDbLine
 10
97.34865122771701
 20
39.18250963322316
 30
0.0
 11
97.34865122771701
 21
9.182509633223157
 31
0.0
  0
LINE
  5
176C
330
21
100
AcDbEntity
  8
zubanwaku
100
AcDbLine
 10
85.348651227717
 20
3.182509633223155
 30
0.0
 11
198.348651227717
 21
3.182509633223155
 31
0.0
  0
LINE
  5
176D
330
21
100
AcDbEntity
  8
zubanwaku
100
AcDbLine
 10
85.348651227717
 20
15.18250963322315
 30
0.0
 11
198.348651227717
 21
15.18250963322316
 31
0.0
  0
LINE
  5
176E
330
21
100
AcDbEntity
  8
zubanwaku
100
AcDbLine
 10
85.348651227717
 20
33.18250963322316
 30
0.0
 11
198.348651227717
 21
33.18250963322316
 31
0.0
  0
LINE
  5
176F
330
21
100
AcDbEntity
  8
zubanwaku
100
AcDbLine
 10
85.348651227717
 20
39.18250963322316
 30
0.0
 11
198.348651227717
 21
39.18250963322316
 31
0.0
  0
LINE
  5
1770
330
21
100
AcDbEntity
  8
zubanwaku
100
AcDbLine
 10
85.348651227717
 20
39.18250963322316
 30
0.0
 11
85.34865122771702
 21
3.182509633223155
 31
0.0
  0
TEXT
  5
199B
330
21
100
AcDbEntity
  8
moji
100
AcDbText
 10
60.83774482787462
 20
97.09492487510466
 30
0.0
 40
3.0
  1
固定方法
 72
     4
 11
67.73774482787462
 21
98.59492487510465
 31
0.0
100
AcDbText
  0
LINE
  5
199D
330
21
100
AcDbEntity
  8
zubanwaku
100
AcDbLine
 10
85.348651227717
 20
9.182509633223155
 30
0.0
 11
198.348651227717
 21
9.182509633223162
 31
0.0
  0
TEXT
  5
199E
330
21
100
AcDbEntity
  8
zubanmoji
100
AcDbText
 10
88.04865122771699
 20
10.68250963322315
 30
0.0
 40
3.0
  1
図番
 72
     1
 11
91.34865122771699
 21
12.18250963322315
 31
0.0
100
AcDbText
 73
     2
  0
TEXT
  5
199F
330
21
100
AcDbEntity
  8
zubanmoji
100
AcDbText
 10
128.0629369420027
 20
10.68250963322316
 30
0.0
 40
3.0
  1
TS-KS-W1600-2
 72
     1
 11
147.848651227717
 21
12.18250963322316
 31
0.0
100
AcDbText
 73
     2
  0
TEXT
  5
1AF6
330
21
100
AcDbEntity
  8
moji
100
AcDbText
 10
60.93774482787463
 20
89.59492487510468
 30
0.0
 40
3.0
  1
外　　形
 72
     4
 11
67.73774482787462
 21
91.09492487510468
 31
0.0
100
AcDbText
  0
TEXT
  5
1B9B
330
21
100
AcDbEntity
  8
zubanmoji
100
AcDbText
 10
162.848651227717
 20
16.68250963322316
 30
0.0
 40
3.0
  1

 72
     1
 11
162.848651227717
 21
18.18250963322316
 31
0.0
100
AcDbText
 73
     2
  0
TEXT
  5
1CBA
330
21
100
AcDbEntity
  8
moji
100
AcDbText
 10
116.6407496620118
 20
168.6544108288763
 30
0.0
 40
3.0
  1
（単位：mm、精度±0.5mm）
100
AcDbText
  0
TEXT
  5
1CBF
330
21
100
AcDbEntity
  8
moji
100
AcDbText
 10
61.03774482787462
 20
112.0949248751046
 30
0.0
 40
3.0
  1
品　　名
 72
     4
 11
67.73774482787462
 21
113.5949248751046
 31
0.0
100
AcDbText
  0
LINE
  5
1CC1
330
21
100
AcDbEntity
  8
shiyouwaku
100
AcDbLine
 10
52.73774482787462
 20
101.0949248751046
 30
0.0
 11
167.7377448278746
 21
101.0949248751046
 31
0.0
  0
LINE
  5
1CDE
330
21
100
AcDbEntity
  8
shiyouwaku
100
AcDbLine
 10
167.7377448278746
 20
121.0949248751046
 30
0.0
 11
167.7377448278746
 21
86.09492487510465
 31
0.0
  0
TEXT
  5
1DA9
330
21
100
AcDbEntity
  8
zubanmoji
100
AcDbText
 10
105.148651227717
 20
22.68250963322316
 30
0.0
 40
3.0
  1
ステンレス製サドルタイプステッカー
 72
     1
 11
135.3486512277169
 21
24.18250963322316
 31
0.0
100
AcDbText
 73
     2
  0
TEXT
  5
1DAF
330
21
100
AcDbEntity
  8
zubanmoji
100
AcDbText
 10
126.2772226562884
 20
16.68250963322316
 30
0.0
 40
3.0
  1
SP-1SF
 72
     1
 11
135.3486512277169
 21
18.18250963322316
 31
0.0
100
AcDbText
 73
     2
  0
LINE
  5
1DB2
330
21
100
AcDbEntity
  8
gaikei
100
AcDbLine
 10
60.71549422956969
 20
184.4645915342473
 30
0.0
 11
97.71549422956969
 21
184.4645915342473
 31
0.0
  0
LINE
  5
1DB3
330
21
100
AcDbEntity
  8
gaikei
100
AcDbLine
 10
98.71549422956968
 20
185.4645915342473
 30
0.0
 11
98.71549422956968
 21
198.4645915342473
 31
0.0
  0
LINE
  5
1DB4
330
21
100
AcDbEntity
  8
gaikei
100
AcDbLine
 10
97.71549422956969
 20
226.4645915342473
 30
0.0
 11
60.71549422956969
 21
226.4645915342473
 31
0.0
  0
LINE
  5
1DB5
330
21
100
AcDbEntity
  8
gaikei
100
AcDbLine
 10
59.71549422956969
 20
225.4645915342473
 30
0.0
 11
59.71549422956968
 21
212.4645915342473
 31
0.0
  0
LINE
  5
1DB6
330
21
100
AcDbEntity
  8
gaikei
100
AcDbLine
 10
60.71549422956969
 20
199.4645915342474
 30
0.0
 11
73.71549422956966
 21
199.4645915342474
 31
0.0
  0
LINE
  5
1DB7
330
21
100
AcDbEntity
  8
gaikei
100
AcDbLine
 10
97.71549422956969
 20
211.4645915342474
 30
0.0
 11
84.71549422956968
 21
211.4645915342473
 31
0.0
  0
LINE
  5
1DB8
102
{ACAD_REACTORS
330
1E0E
102
}
330
21
100
AcDbEntity
  8
gaikei
100
AcDbLine
 10
98.71549422956968
 20
212.4645915342473
 30
0.0
 11
98.71549422956968
 21
225.4645915342473
 31
0.0
  0
LINE
  5
1DB9
330
21
100
AcDbEntity
  8
gaikei
100
AcDbLine
 10
59.7154942295697
 20
198.4645915342474
 30
0.0
 11
59.71549422956969
 21
185.4645915342473
 31
0.0
  0
LINE
  5
1DBB
330
21
100
AcDbEntity
  8
gaikei
100
AcDbLine
 10
84.71549422956968
 20
212.4645915342473
 30
0.0
 11
84.71549422956966
 21
198.4645915342474
 31
0.0
  0
LINE
  5
1DBC
330
21
100
AcDbEntity
  8
gaikei
100
AcDbLine
 10
73.71549422956968
 20
212.4645915342473
 30
0.0
 11
73.71549422956966
 21
198.4645915342474
 31
0.0
  0
LINE
  5
1DBD
330
21
100
AcDbEntity
  8
gaikei
100
AcDbLine
 10
84.71549422956968
 20
212.4645915342473
 30
0.0
 11
73.71549422956968
 21
212.4645915342473
 31
0.0
  0
LINE
  5
1DBE
330
21
100
AcDbEntity
  8
gaikei
100
AcDbLine
 10
73.71549422956966
 20
198.4645915342474
 30
0.0
 11
84.71549422956966
 21
198.4645915342474
 31
0.0
  0
LINE
  5
1DBF
330
21
100
AcDbEntity
  8
gaikei
100
AcDbLine
 10
73.71549422956968
 20
211.4645915342473
 30
0.0
 11
60.71549422956969
 21
211.4645915342473
 31
0.0
  0
LINE
  5
1DC0
330
21
100
AcDbEntity
  8
gaikei
100
AcDbLine
 10
84.71549422956966
 20
199.4645915342474
 30
0.0
 11
97.71549422956969
 21
199.4645915342473
 31
0.0
  0
ARC
  5
1DC1
330
21
100
AcDbEntity
  8
gaikei
100
AcDbCircle
 10
97.71549422956969
 20
198.4645915342473
 30
0.0
 40
1.0
100
AcDbArc
 50
0.0
 51
89.99999999999976
  0
ARC
  5
1DC2
330
21
100
AcDbEntity
  8
gaikei
100
AcDbCircle
 10
97.71549422956969
 20
185.4645915342473
 30
0.0
 40
1.0
100
AcDbArc
 50
270.0
 51
0.0
  0
ARC
  5
1DC3
102
{ACAD_REACTORS
330
1E26
102
}
330
21
100
AcDbEntity
  8
gaikei
100
AcDbCircle
 10
60.71549422956969
 20
185.4645915342473
 30
0.0
 40
1.0
100
AcDbArc
 50
180.0
 51
270.0
  0
ARC
  5
1DC4
330
21
100
AcDbEntity
  8
gaikei
100
AcDbCircle
 10
60.71549422956969
 20
198.4645915342474
 30
0.0
 40
1.0
100
AcDbArc
 50
90.00000000000012
 51
180.0
  0
ARC
  5
1DC5
330
21
100
AcDbEntity
  8
gaikei
100
AcDbCircle
 10
60.71549422956969
 20
212.4645915342473
 30
0.0
 40
1.0
100
AcDbArc
 50
180.0
 51
270.0
  0
ARC
  5
1DC6
102
{ACAD_REACTORS
330
1E0E
330
1E26
102
}
330
21
100
AcDbEntity
  8
gaikei
100
AcDbCircle
 10
60.71549422956969
 20
225.4645915342473
 30
0.0
 40
1.0
100
AcDbArc
 50
90.0
 51
180.0
  0
ARC
  5
1DC7
102
{ACAD_REACTORS
330
1E0E
102
}
330
21
100
AcDbEntity
  8
gaikei
100
AcDbCircle
 10
97.71549422956969
 20
225.4645915342473
 30
0.0
 40
1.0
100
AcDbArc
 50
0.0
 51
90.00000000000005
  0
ARC
  5
1DC8
330
21
100
AcDbEntity
  8
gaikei
100
AcDbCircle
 10
97.71549422956969
 20
212.4645915342473
 30
0.0
 40
1.0
100
AcDbArc
 50
270.0000000000001
 51
0.0
  0
LINE
  5
1DC9
330
21
100
AcDbEntity
  8
gaikei
100
AcDbLine
 10
135.1923221678908
 20
226.4645915342473
 30
0.0
 11
137.1923221678908
 21
226.4645915342473
 31
0.0
  0
LINE
  5
1DCA
330
21
100
AcDbEntity
  8
gaikei
100
AcDbLine
 10
135.1923221678908
 20
184.4645915342473
 30
0.0
 11
137.1923221678908
 21
184.4645915342473
 31
0.0
  0
LINE
  5
1DCB
102
{ACAD_REACTORS
330
1E5E
102
}
330
21
100
AcDbEntity
  8
gaikei
100
AcDbLine
 10
137.1923221678908
 20
226.4645915342473
 30
0.0
 11
137.1923221678908
 21
211.4645915342473
 31
0.0
  0
LINE
  5
1DCC
102
{ACAD_REACTORS
330
1E5E
102
}
330
21
100
AcDbEntity
  8
gaikei
100
AcDbLine
 10
130.6923221678907
 20
210.9645915342473
 30
0.0
 11
130.6923221678907
 21
199.9645915342473
 31
0.0
  0
LINE
  5
1DCD
330
21
100
AcDbEntity
  8
gaikei
100
AcDbLine
 10
136.1923221678908
 20
226.4645915342473
 30
0.0
 11
136.1923221678908
 21
211.4645915342473
 31
0.0
  0
LINE
  5
1DCE
330
21
100
AcDbEntity
  8
gaikei
100
AcDbLine
 10
135.1923221678908
 20
226.4645915342473
 30
0.0
 11
135.1923221678908
 21
211.4645915342473
 31
0.0
  0
LINE
  5
1DD0
102
{ACAD_REACTORS
330
1E76
330
1E92
102
}
330
21
100
AcDbEntity
  8
gaikei
100
AcDbLine
 10
132.1923221678908
 20
211.4645915342473
 30
0.0
 11
137.1923221678908
 21
211.4645915342473
 31
0.0
  0
LINE
  5
1DD1
330
21
100
AcDbEntity
  8
gaikei
100
AcDbLine
 10
132.1923221678908
 20
199.4645915342473
 30
0.0
 11
137.1923221678908
 21
199.4645915342473
 31
0.0
  0
LINE
  5
1DD2
330
21
100
AcDbEntity
  8
gaikei
100
AcDbLine
 10
131.6923221678907
 20
210.9645915342473
 30
0.0
 11
131.6923221678907
 21
199.9645915342473
 31
0.0
  0
LINE
  5
1DD3
330
21
100
AcDbEntity
  8
gaikei
100
AcDbLine
 10
132.1923221678908
 20
212.4645915342473
 30
0.0
 11
135.1923221678908
 21
212.4645915342474
 31
0.0
  0
LINE
  5
1DD4
330
21
100
AcDbEntity
  8
gaikei
100
AcDbLine
 10
132.1923221678908
 20
198.4645915342473
 30
0.0
 11
135.1923221678908
 21
198.4645915342473
 31
0.0
  0
ARC
  5
1DD6
102
{ACAD_REACTORS
330
1E5E
102
}
330
21
100
AcDbEntity
  8
gaikei
100
AcDbCircle
 10
132.1923221678908
 20
210.9645915342473
 30
0.0
 40
1.5
100
AcDbArc
 50
90.0
 51
180.0
  0
ARC
  5
1DD7
330
21
100
AcDbEntity
  8
gaikei
100
AcDbCircle
 10
132.1923221678908
 20
199.9645915342473
 30
0.0
 40
1.5
100
AcDbArc
 50
180.0
 51
270.0
  0
ARC
  5
1DDA
102
{ACAD_REACTORS
330
1E92
102
}
330
21
100
AcDbEntity
  8
gaikei
100
AcDbCircle
 10
132.1923221678908
 20
210.9645915342473
 30
0.0
 40
0.5
100
AcDbArc
 50
90.0
 51
180.0
  0
ARC
  5
1DDB
330
21
100
AcDbEntity
  8
gaikei
100
AcDbCircle
 10
132.1923221678908
 20
199.9645915342473
 30
0.0
 40
0.5
100
AcDbArc
 50
180.0
 51
270.0
  0
LINE
  5
1DDC
102
{ACAD_REACTORS
330
1E76
102
}
330
21
100
AcDbEntity
  8
gaikei
100
AcDbLine
 10
137.1923221678908
 20
199.4645915342473
 30
0.0
 11
137.1923221678908
 21
184.4645915342473
 31
0.0
  0
LINE
  5
1DDD
330
21
100
AcDbEntity
  8
gaikei
100
AcDbLine
 10
136.1923221678908
 20
199.4645915342473
 30
0.0
 11
136.1923221678908
 21
184.4645915342473
 31
0.0
  0
LINE
  5
1DDE
330
21
100
AcDbEntity
  8
gaikei
100
AcDbLine
 10
135.1923221678908
 20
199.4645915342473
 30
0.0
 11
135.1923221678908
 21
184.4645915342473
 31
0.0
  0
DIMENSION
  5
1DF7
102
{ACAD_XDICTIONARY
360
1E04
102
}
102
{ACAD_REACTORS
330
1E0E
102
}
330
21
100
AcDbEntity
  8
sumpo
100
AcDbDimension
  2
*D9
 10
98.71549422956968
 20
239.8948887185463
 30
0.0
 11
79.21549422956968
 21
242.3948887185463
 31
0.0
 70
    32
  1
19.0
 71
     5
 42
39.0
  3
ISO-25-4mm
100
AcDbAlignedDimension
 13
59.71549422956969
 23
225.4645915342473
 33
0.0
 14
98.71549422956968
 24
225.4645915342473
 34
0.0
100
AcDbRotatedDimension
  0
DIMENSION
  5
1E0F
102
{ACAD_XDICTIONARY
360
1E1C
102
}
102
{ACAD_REACTORS
330
1E26
102
}
330
21
100
AcDbEntity
  8
sumpo
100
AcDbDimension
  2
*D10
 10
45.73521359871447
 20
184.4645915342473
 30
0.0
 11
43.23521359871445
 21
205.4645915342474
 31
0.0
 70
    32
  1
20.7
 71
     5
 42
41.99999999999997
  3
ISO-25-4mm
100
AcDbAlignedDimension
 13
60.71549422956969
 23
226.4645915342473
 33
0.0
 14
60.71549422956969
 24
184.4645915342473
 34
0.0
 50
90.0
100
AcDbRotatedDimension
  0
DIMENSION
  5
1E43
102
{ACAD_XDICTIONARY
360
1E52
102
}
102
{ACAD_REACTORS
330
1E5E
102
}
330
21
100
AcDbEntity
  8
sumpo
100
AcDbDimension
  2
*D11
 10
130.6923221678907
 20
239.8948887185463
 30
0.0
 11
120.5494650250336
 21
242.3948887185463
 31
0.0
 70
    32
  1
3.2
 71
     5
 42
6.5
  3
ISO-25-4mm
100
AcDbAlignedDimension
 13
137.1923221678908
 23
226.4645915342473
 33
0.0
 14
130.6923221678907
 24
210.9645915342473
 34
0.0
100
AcDbRotatedDimension
  0
DIMENSION
  5
1E5F
102
{ACAD_XDICTIONARY
360
1E6C
102
}
102
{ACAD_REACTORS
330
1E76
102
}
330
21
100
AcDbEntity
  8
sumpo
100
AcDbDimension
  2
*D12
 10
152.1923205922608
 20
199.4645915342473
 30
0.0
 11
149.6923205922607
 21
205.4645915342473
 31
0.0
 70
    32
  1
6.0
 71
     5
 42
12.0
  3
ISO-25-4mm
100
AcDbAlignedDimension
 13
137.1923221678908
 23
211.4645915342473
 33
0.0
 14
137.1923221678908
 24
199.4645915342473
 34
0.0
 50
90.0
100
AcDbRotatedDimension
  0
DIMENSION
  5
1E77
102
{ACAD_XDICTIONARY
360
1E86
102
}
102
{ACAD_REACTORS
330
1E92
102
}
330
21
100
AcDbEntity
  8
sumpo
100
AcDbDimension
  2
*D13
 10
131.6923221678907
 20
205.4645915342473
 30
0.0
 11
121.6208935964622
 21
207.9645915342473
 31
0.0
 70
    32
  1
2.9
 71
     5
 42
5.5
  3
ISO-25-4mm
100
AcDbAlignedDimension
 13
137.1923221678908
 23
211.4645915342473
 33
0.0
 14
131.6923221678907
 24
210.9645915342473
 34
0.0
100
AcDbRotatedDimension
  0
LINE
  5
1EC5
330
21
100
AcDbEntity
  8
shiyouwaku
100
AcDbLine
 10
52.73774482787462
 20
121.0949248751046
 30
0.0
 11
167.7377448278746
 21
121.0949248751046
 31
0.0
  0
TEXT
  5
1EC7
330
21
100
AcDbEntity
  8
moji
100
AcDbText
 10
84.47130889845745
 20
117.0949248751046
 30
0.0
 40
3.0
  1
フラット型（編組タイプ）漏水センサ固定用
 11
84.47130889845745
 21
117.0949248751046
 31
0.0
100
AcDbText
 73
     1
  0
TEXT
  5
1ECE
330
21
100
AcDbEntity
  8
moji
100
AcDbText
 10
84.47130889845745
 20
112.0949248751046
 30
0.0
 40
3.0
  1
ステンレス製サドルタイプステッカー
 11
84.47130889845745
 21
112.0949248751046
 31
0.0
100
AcDbText
 73
     1
  0
TEXT
  5
1ECF
330
21
100
AcDbEntity
  8
moji
100
AcDbText
 10
84.47130889845738
 20
107.0949248751046
 30
0.0
 40
3.0
  1
型番：SP-1SF
 11
84.47130889845738
 21
107.0949248751046
 31
0.0
100
AcDbText
 73
     1
  0
TEXT
  5
1ED0
330
21
100
AcDbEntity
  8
moji
100
AcDbText
 10
84.47130889845738
 20
102.0949248751046
 30
0.0
 40
3.0
  1
ステンレススチール　t = 0.3mm
 11
84.47130889845738
 21
102.0949248751046
 31
0.0
100
AcDbText
 73
     1
  0
TEXT
  5
1ED1
330
21
100
AcDbEntity
  8
moji
100
AcDbText
 10
84.47130889845745
 20
97.09492487510463
 30
0.0
 40
3.0
  1
粘着シール
 11
84.47130889845745
 21
97.09492487510463
 31
0.0
100
AcDbText
 73
     1
  0
TEXT
  5
1ED2
330
21
100
AcDbEntity
  8
moji
100
AcDbText
 10
84.47130889845745
 20
92.09492487510464
 30
0.0
 40
3.0
  1
19.0mm×20.7mm×3.2mm
 11
84.47130889845745
 21
92.09492487510464
 31
0.0
100
AcDbText
 73
     1
  0
TEXT
  5
1ED3
330
21
100
AcDbEntity
  8
moji
100
AcDbText
 10
84.47130889845738
 20
87.09492487510464
 30
0.0
 40
3.0
  1
±0.5mm（長さ×幅×高さ）
 11
84.47130889845738
 21
87.09492487510464
 31
0.0
100
AcDbText
 73
     1
  0
LINE
  5
1ED5
330
21
100
AcDbEntity
  8
shiyouwaku
100
AcDbLine
 10
52.73774482787462
 20
86.09492487510468
 30
0.0
 11
167.7377448278746
 21
86.09492487510465
 31
0.0
  0
VIEWPORT
  5
17AD
330
17A6
100
AcDbEntity
 67
     1
  8
0
100
AcDbViewport
 10
102.8175202987469
 20
148.291292415609
 30
0.0
 40
561.3263666264754
 41
348.6181165864263
 68
     1
 69
     1
 12
102.8175202987469
 22
148.291292415609
 13
0.0
 23
0.0
 14
10.0
 24
10.0
 15
10.0
 25
10.0
 16
0.0
 26
0.0
 36
1.0
 17
0.0
 27
0.0
 37
0.0
 42
50.0
 43
0.0
 44
0.0
 45
348.6181165864263
 50
0.0
 51
0.0
 72
  1000
 90
    32800
  1

281
     0
 71
     1
 74
     0
110
0.0
120
0.0
130
0.0
111
1.0
121
0.0
131
0.0
112
0.0
122
1.0
132
0.0
 79
     0
146
0.0
170
     0
  0
VIEWPORT
  5
17AF
330
17A6
100
AcDbEntity
 67
     1
  8
moji
100
AcDbViewport
 10
101.2253826490373
 20
146.2135919136789
 30
0.0
 40
184.4194364075515
 41
268.1109212418202
 68
     2
 69
     2
 12
107.6172238237136
 22
147.1243299939954
 13
0.0
 23
0.0
 14
10.0
 24
10.0
 15
10.0
 25
10.0
 16
0.0
 26
0.0
 36
1.0
 17
0.0
 27
0.0
 37
0.0
 42
50.0
 43
0.0
 44
0.0
 45
317.2777898680465
 50
0.0
 51
0.0
 72
  1000
 90
    32864
  1

281
     0
 71
     1
 74
     0
110
0.0
120
0.0
130
0.0
111
1.0
121
0.0
131
0.0
112
0.0
122
1.0
132
0.0
 79
     0
146
0.0
170
     0
  0
ENDSEC
  0
SECTION
  2
OBJECTS
  0
DICTIONARY
  5
C
330
0
100
AcDbDictionary
281
     1
  3
ACAD_COLOR
350
1C
  3
ACAD_GROUP
350
D
  3
ACAD_LAYOUT
350
1A
  3
ACAD_MATERIAL
350
1B
  3
ACAD_MLEADERSTYLE
350
1F5C
  3
ACAD_MLINESTYLE
350
17
  3
ACAD_PLOTSETTINGS
350
19
  3
ACAD_PLOTSTYLENAME
350
E
  3
ACAD_SCALELIST
350
1F3A
  3
ACAD_TABLESTYLE
350
1F38
  3
ACAD_VISUALSTYLE
350
1F27
  3
AcadDim
350
1A06
  3
ACDB_RECOMPOSE_DATA
350
1F81
  3
AcDbVariableDictionary
350
1F7B
  0
DICTIONARY
  5
5C
330
2
100
AcDbDictionary
280
     1
281
     1
  3
ACAD_LAYERFILTERS
360
89B
  3
ACAD_LAYERSTATES
360
5D
  0
DICTIONARY
  5
1F67
330
10
100
AcDbDictionary
280
     1
281
     1
  3
ADSK_XREC_LAYER_RECONCILED
360
1F68
  0
DICTIONARY
  5
1F69
330
2D
100
AcDbDictionary
280
     1
281
     1
  3
ADSK_XREC_LAYER_RECONCILED
360
1F6A
  0
DICTIONARY
  5
1F6B
330
2E
100
AcDbDictionary
280
     1
281
     1
  3
ADSK_XREC_LAYER_RECONCILED
360
1F6C
  0
DICTIONARY
  5
1F6D
330
2F
100
AcDbDictionary
280
     1
281
     1
  3
ADSK_XREC_LAYER_RECONCILED
360
1F6E
  0
DICTIONARY
  5
1F6F
330
30
100
AcDbDictionary
280
     1
281
     1
  3
ADSK_XREC_LAYER_RECONCILED
360
1F70
  0
DICTIONARY
  5
1F71
330
48
100
AcDbDictionary
280
     1
281
     1
  3
ADSK_XREC_LAYER_RECONCILED
360
1F72
  0
DICTIONARY
  5
1F73
330
B26
100
AcDbDictionary
280
     1
281
     1
  3
ADSK_XREC_LAYER_RECONCILED
360
1F74
  0
DICTIONARY
  5
1F75
330
B29
100
AcDbDictionary
280
     1
281
     1
  3
ADSK_XREC_LAYER_RECONCILED
360
1F76
  0
DICTIONARY
  5
1F77
330
B2A
100
AcDbDictionary
280
     1
281
     1
  3
ADSK_XREC_LAYER_RECONCILED
360
1F78
  0
DICTIONARY
  5
1F79
330
1832
100
AcDbDictionary
280
     1
281
     1
  3
ADSK_XREC_LAYER_RECONCILED
360
1F7A
  0
DICTIONARY
  5
1E04
330
1DF7
100
AcDbDictionary
280
     1
281
     1
  3
ACAD_DIMASSOC
360
1E0E
  0
DICTIONARY
  5
1E1C
330
1E0F
100
AcDbDictionary
280
     1
281
     1
  3
ACAD_DIMASSOC
360
1E26
  0
DICTIONARY
  5
1E52
330
1E43
100
AcDbDictionary
280
     1
281
     1
  3
ACAD_DIMASSOC
360
1E5E
  0
DICTIONARY
  5
1E6C
330
1E5F
100
AcDbDictionary
280
     1
281
     1
  3
ACAD_DIMASSOC
360
1E76
  0
DICTIONARY
  5
1E86
330
1E77
100
AcDbDictionary
280
     1
281
     1
  3
ACAD_DIMASSOC
360
1E92
  0
DICTIONARY
  5
1C
102
{ACAD_REACTORS
330
C
102
}
330
C
100
AcDbDictionary
281
     1
  0
DICTIONARY
  5
D
102
{ACAD_REACTORS
330
C
102
}
330
C
100
AcDbDictionary
281
     1
  3
*A1
350
AE8
  0
DICTIONARY
  5
1A
102
{ACAD_REACTORS
330
C
102
}
330
C
100
AcDbDictionary
281
     1
  3
Model
350
24
  3
レイアウト1
350
17A7
  0
DICTIONARY
  5
1B
102
{ACAD_REACTORS
330
C
102
}
330
C
100
AcDbDictionary
281
     1
  3
ByBlock
350
1F1F
  3
ByLayer
350
1F17
  3
Global
350
55
  0
DICTIONARY
  5
1F5C
102
{ACAD_REACTORS
330
C
102
}
330
C
100
AcDbDictionary
281
     1
  3
Standard
350
1F5D
  0
DICTIONARY
  5
17
102
{ACAD_REACTORS
330
C
102
}
330
C
100
AcDbDictionary
281
     1
  3
Standard
350
18
  0
DICTIONARY
  5
19
102
{ACAD_REACTORS
330
C
102
}
330
C
100
AcDbDictionary
281
     1
  0
ACDBDICTIONARYWDFLT
  5
E
102
{ACAD_REACTORS
330
C
102
}
330
C
100
AcDbDictionary
281
     1
  3
Normal
350
F
100
AcDbDictionaryWithDefault
340
F
  0
DICTIONARY
  5
1F3A
102
{ACAD_REACTORS
330
C
102
}
330
C
100
AcDbDictionary
281
     1
  3
A0
350
1F3B
  3
A1
350
1F3C
  3
A2
350
1F3D
  3
A3
350
1F3E
  3
A4
350
1F3F
  3
A5
350
1F40
  3
A6
350
1F41
  3
A7
350
1F42
  3
A8
350
1F43
  3
A9
350
1F44
  3
B0
350
1F45
  3
B1
350
1F46
  3
B2
350
1F47
  3
B3
350
1F48
  3
B4
350
1F49
  3
B5
350
1F4A
  3
B6
350
1F4B
  3
B7
350
1F4C
  3
B8
350
1F4D
  3
B9
350
1F4E
  3
C0
350
1F4F
  3
C1
350
1F50
  3
C2
350
1F51
  3
C3
350
1F52
  3
C4
350
1F53
  3
C5
350
1F54
  3
C6
350
1F55
  3
C7
350
1F56
  3
C8
350
1F57
  3
C9
350
1F58
  3
D0
350
1F59
  3
D1
350
1F5A
  3
D2
350
1F5B
  0
DICTIONARY
  5
1F38
102
{ACAD_REACTORS
330
C
102
}
330
C
100
AcDbDictionary
281
     1
  3
Standard
350
1F39
  0
DICTIONARY
  5
1F27
102
{ACAD_REACTORS
330
C
102
}
330
C
100
AcDbDictionary
281
     1
  3
2dWireframe
350
1F2D
  3
3D Hidden
350
1F2F
  3
3dWireframe
350
1F2E
  3
Basic
350
1F2C
  3
Brighten
350
1F33
  3
ColorChange
350
1F37
  3
Conceptual
350
1F30
  3
Dim
350
1F32
  3
Facepattern
350
1F36
  3
Flat
350
1F28
  3
FlatWithEdges
350
1F29
  3
Gouraud
350
1F2A
  3
GouraudWithEdges
350
1F2B
  3
Linepattern
350
1F35
  3
Realistic
350
1F31
  3
Thicken
350
1F34
  0
XRECORD
  5
1A06
102
{ACAD_REACTORS
330
C
102
}
330
C
100
AcDbXrecord
280
     1
 90
   990106
  3

 60
     0
 61
     0
 62
     1
 63
     3
 64
     0
 65
     0
 66
     0
 67
     3
 68
     1
 69
     0
 70
     0
 71
     0
 72
     0
 40
0.0
170
     0
340
0
  0
XRECORD
  5
1F81
102
{ACAD_REACTORS
330
C
102
}
330
C
100
AcDbXrecord
280
     1
 90
        1
330
1F39
  0
DICTIONARY
  5
1F7B
102
{ACAD_REACTORS
330
C
102
}
330
C
100
AcDbDictionary
281
     1
  3
CANNOSCALE
350
1F7E
  3
CMLEADERSTYLE
350
1F7D
  3
CTABLESTYLE
350
1F7C
  0
DICTIONARY
  5
89B
102
{ACAD_REACTORS
330
5C
102
}
330
5C
100
AcDbDictionary
281
     1
  0
DICTIONARY
  5
5D
102
{ACAD_REACTORS
330
5C
102
}
330
5C
100
AcDbDictionary
281
     1
  0
XRECORD
  5
1F68
102
{ACAD_REACTORS
330
1F67
102
}
330
1F67
100
AcDbXrecord
280
     1
290
     1
  0
XRECORD
  5
1F6A
102
{ACAD_REACTORS
330
1F69
102
}
330
1F69
100
AcDbXrecord
280
     1
290
     1
  0
XRECORD
  5
1F6C
102
{ACAD_REACTORS
330
1F6B
102
}
330
1F6B
100
AcDbXrecord
280
     1
290
     1
  0
XRECORD
  5
1F6E
102
{ACAD_REACTORS
330
1F6D
102
}
330
1F6D
100
AcDbXrecord
280
     1
290
     1
  0
XRECORD
  5
1F70
102
{ACAD_REACTORS
330
1F6F
102
}
330
1F6F
100
AcDbXrecord
280
     1
290
     1
  0
XRECORD
  5
1F72
102
{ACAD_REACTORS
330
1F71
102
}
330
1F71
100
AcDbXrecord
280
     1
290
     1
  0
XRECORD
  5
1F74
102
{ACAD_REACTORS
330
1F73
102
}
330
1F73
100
AcDbXrecord
280
     1
290
     1
  0
XRECORD
  5
1F76
102
{ACAD_REACTORS
330
1F75
102
}
330
1F75
100
AcDbXrecord
280
     1
290
     1
  0
XRECORD
  5
1F78
102
{ACAD_REACTORS
330
1F77
102
}
330
1F77
100
AcDbXrecord
280
     1
290
     1
  0
XRECORD
  5
1F7A
102
{ACAD_REACTORS
330
1F79
102
}
330
1F79
100
AcDbXrecord
280
     1
290
     1
  0
DIMASSOC
  5
1E0E
102
{ACAD_REACTORS
330
1E04
102
}
330
1E04
100
AcDbDimAssoc
330
1DF7
 90
        3
 70
     0
 71
     0
  1
AcDbOsnapPointRef
 72
     1
331
1DC6
 73
     2
 91
        0
 40
3.141592653589793
 10
0.0
 20
0.0
 30
2.000000000000000E+50
 75
     0
  1
AcDbOsnapPointRef
 72
     6
331
1DB8
 73
     2
 91
        0
 40
1.0
 10
0.0
 20
0.0
 30
0.0
332
1DC7
 74
     2
 92
        0
 75
     0
  0
DIMASSOC
  5
1E26
102
{ACAD_REACTORS
330
1E1C
102
}
330
1E1C
100
AcDbDimAssoc
330
1E0F
 90
        3
 70
     0
 71
     0
  1
AcDbOsnapPointRef
 72
    13
331
1DC6
 73
     2
 91
        0
 40
1.570796326794896
 10
0.0
 20
0.0
 30
2.000000000000000E+50
 75
     0
  1
AcDbOsnapPointRef
 72
     1
331
1DC3
 73
     2
 91
        0
 40
4.712388980384689
 10
0.0
 20
0.0
 30
2.000000000000000E+50
 75
     0
  0
DIMASSOC
  5
1E5E
102
{ACAD_REACTORS
330
1E52
102
}
330
1E52
100
AcDbDimAssoc
330
1E43
 90
        3
 70
     0
 71
     0
  1
AcDbOsnapPointRef
 72
    13
331
1DCB
 73
     2
 91
        0
 40
0.0
 10
0.0
 20
0.0
 30
2.000000000000000E+50
 75
     0
  1
AcDbOsnapPointRef
 72
     6
331
1DCC
 73
     2
 91
        0
 40
0.0
 10
0.0
 20
0.0
 30
0.0
332
1DD6
 74
     2
 92
        0
 75
     0
  0
DIMASSOC
  5
1E76
102
{ACAD_REACTORS
330
1E6C
102
}
330
1E6C
100
AcDbDimAssoc
330
1E5F
 90
        3
 70
     0
 71
     0
  1
AcDbOsnapPointRef
 72
     1
331
1DD0
 73
     2
 91
        0
 40
1.0
 10
0.0
 20
0.0
 30
2.000000000000000E+50
 75
     0
  1
AcDbOsnapPointRef
 72
    13
331
1DDC
 73
     2
 91
        0
 40
0.0
 10
0.0
 20
0.0
 30
2.000000000000000E+50
 75
     0
  0
DIMASSOC
  5
1E92
102
{ACAD_REACTORS
330
1E86
102
}
330
1E86
100
AcDbDimAssoc
330
1E77
 90
        3
 70
     0
 71
     0
  1
AcDbOsnapPointRef
 72
     1
331
1DD0
 73
     2
 91
        0
 40
1.0
 10
0.0
 20
0.0
 30
2.000000000000000E+50
 75
     0
  1
AcDbOsnapPointRef
 72
     1
331
1DDA
 73
     2
 91
        0
 40
3.141592653589793
 10
0.0
 20
0.0
 30
2.000000000000000E+50
 75
     0
  0
GROUP
  5
AE8
102
{ACAD_REACTORS
330
D
102
}
330
D
100
AcDbGroup
300

 70
     1
 71
     1
  0
LAYOUT
  5
24
102
{ACAD_REACTORS
330
1A
102
}
330
1A
100
AcDbPlotSettings
  1

  2
none_device
  4
Letter_(8.50_x_11.00_Inches)
  6

 40
6.349999904632568
 41
6.349999904632568
 42
6.350006103515625
 43
6.350006103515625
 44
215.8999938964844
 45
279.3999938964844
 46
0.0
 47
0.0
 48
0.0
 49
0.0
140
0.0
141
0.0
142
1.0
143
1.0
 70
 11952
 72
     1
 73
     1
 74
     0
  7

 75
     0
147
1.0
 76
     0
 77
     2
 78
   300
148
-83.36161879895561
149
0.0
100
AcDbLayout
  1
Model
 70
     1
 71
     0
 10
0.0
 20
0.0
 11
12.0
 21
9.0
 12
0.0
 22
0.0
 32
0.0
 14
0.0
 24
0.0
 34
0.0
 15
0.0
 25
0.0
 35
0.0
146
0.0
 13
0.0
 23
0.0
 33
0.0
 16
1.0
 26
0.0
 36
0.0
 17
0.0
 27
1.0
 37
0.0
 76
     0
330
21
331
1F15
  0
LAYOUT
  5
17A7
102
{ACAD_REACTORS
330
1A
102
}
330
1A
100
AcDbPlotSettings
  1

  2
Canon MP990 series Printer
  4
A4
  6

 40
4.180416584014892
 41
5.831417560577392
 42
4.180404663085937
 43
3.757080078125
 44
209.9733276367187
 45
296.9683227539062
 46
0.0
 47
0.0
 48
0.0
 49
0.0
140
0.0
141
0.0
142
1.0
143
1.0
 70
   688
 72
     1
 73
     0
 74
     5
  7

 75
    16
147
1.0
 76
     1
 77
     2
 78
   300
148
0.0
149
0.0
100
AcDbLayout
  1
レイアウト1
 70
     1
 71
     1
 10
-4.180416584014892
 20
-5.831417560577392
 11
205.7929110527039
 21
291.1369051933288
 12
0.0
 22
0.0
 32
0.0
 14
9.015664445261563
 24
12.15813129276887
 34
0.0
 15
193.4351008528131
 25
280.2690525345891
 35
0.0
146
0.0
 13
0.0
 23
0.0
 33
0.0
 16
1.0
 26
0.0
 36
0.0
 17
0.0
 27
1.0
 37
0.0
 76
     0
330
17A6
331
17AD
  0
MATERIAL
  5
1F1F
102
{ACAD_XDICTIONARY
360
1F20
102
}
102
{ACAD_REACTORS
330
1B
102
}
330
1B
100
AcDbMaterial
  1
ByBlock
 72
     0
 43
0.0008202099737533
 43
0.0
 43
0.0
 43
0.0
 43
0.0
 43
0.0008202099737533
 43
0.0
 43
0.0
 43
0.0
 43
0.0
 43
1.0
 43
0.0
 43
0.0
 43
0.0
 43
0.0
 43
1.0
 77
     0
 47
0.0008202099737533
 47
0.0
 47
0.0
 47
0.0
 47
0.0
 47
0.0008202099737533
 47
0.0
 47
0.0
 47
0.0
 47
0.0
 47
1.0
 47
0.0
 47
0.0
 47
0.0
 47
0.0
 47
1.0
171
     0
 49
0.0008202099737533
 49
0.0
 49
0.0
 49
0.0
 49
0.0
 49
0.0008202099737533
 49
0.0
 49
0.0
 49
0.0
 49
0.0
 49
1.0
 49
0.0
 49
0.0
 49
0.0
 49
0.0
 49
1.0
175
     0
142
0.0008202099737533
142
0.0
142
0.0
142
0.0
142
0.0
142
0.0008202099737533
142
0.0
142
0.0
142
0.0
142
0.0
142
1.0
142
0.0
142
0.0
142
0.0
142
0.0
142
1.0
179
     0
144
0.0008202099737533
144
0.0
144
0.0
144
0.0
144
0.0
144
0.0008202099737533
144
0.0
144
0.0
144
0.0
144
0.0
144
1.0
144
0.0
144
0.0
144
0.0
144
0.0
144
1.0
147
0.0008202099737533
147
0.0
147
0.0
147
0.0
147
0.0
147
0.0008202099737533
147
0.0
147
0.0
147
0.0
147
0.0
147
1.0
147
0.0
147
0.0
147
0.0
147
0.0
147
1.0
  0
MATERIAL
  5
1F17
102
{ACAD_XDICTIONARY
360
1F18
102
}
102
{ACAD_REACTORS
330
1B
102
}
330
1B
100
AcDbMaterial
  1
ByLayer
 72
     0
 43
0.0008202099737533
 43
0.0
 43
0.0
 43
0.0
 43
0.0
 43
0.0008202099737533
 43
0.0
 43
0.0
 43
0.0
 43
0.0
 43
1.0
 43
0.0
 43
0.0
 43
0.0
 43
0.0
 43
1.0
 77
     0
 47
0.0008202099737533
 47
0.0
 47
0.0
 47
0.0
 47
0.0
 47
0.0008202099737533
 47
0.0
 47
0.0
 47
0.0
 47
0.0
 47
1.0
 47
0.0
 47
0.0
 47
0.0
 47
0.0
 47
1.0
171
     0
 49
0.0008202099737533
 49
0.0
 49
0.0
 49
0.0
 49
0.0
 49
0.0008202099737533
 49
0.0
 49
0.0
 49
0.0
 49
0.0
 49
1.0
 49
0.0
 49
0.0
 49
0.0
 49
0.0
 49
1.0
175
     0
142
0.0008202099737533
142
0.0
142
0.0
142
0.0
142
0.0
142
0.0008202099737533
142
0.0
142
0.0
142
0.0
142
0.0
142
1.0
142
0.0
142
0.0
142
0.0
142
0.0
142
1.0
179
     0
144
0.0008202099737533
144
0.0
144
0.0
144
0.0
144
0.0
144
0.0008202099737533
144
0.0
144
0.0
144
0.0
144
0.0
144
1.0
144
0.0
144
0.0
144
0.0
144
0.0
144
1.0
147
0.0008202099737533
147
0.0
147
0.0
147
0.0
147
0.0
147
0.0008202099737533
147
0.0
147
0.0
147
0.0
147
0.0
147
1.0
147
0.0
147
0.0
147
0.0
147
0.0
147
1.0
  0
MATERIAL
  5
55
102
{ACAD_XDICTIONARY
360
56
102
}
102
{ACAD_REACTORS
330
1B
102
}
330
1B
100
AcDbMaterial
  1
Global
 43
0.0208000000566244
 43
0.0
 43
0.0
 43
0.0
 43
0.0
 43
0.0208000000566244
 43
0.0
 43
0.0
 43
0.0
 43
0.0
 43
1.0
 43
0.0
 43
0.0
 43
0.0
 43
0.0
 43
1.0
 49
0.0208000000566244
 49
0.0
 49
0.0
 49
0.0
 49
0.0
 49
0.0208000000566244
 49
0.0
 49
0.0
 49
0.0
 49
0.0
 49
1.0
 49
0.0
 49
0.0
 49
0.0
 49
0.0
 49
1.0
142
0.0208000000566244
142
0.0
142
0.0
142
0.0
142
0.0
142
0.0208000000566244
142
0.0
142
0.0
142
0.0
142
0.0
142
1.0
142
0.0
142
0.0
142
0.0
142
0.0
142
1.0
144
0.0208000000566244
144
0.0
144
0.0
144
0.0
144
0.0
144
0.0208000000566244
144
0.0
144
0.0
144
0.0
144
0.0
144
1.0
144
0.0
144
0.0
144
0.0
144
0.0
144
1.0
1001
ACAD
1070
    -1
1070
     3
1070
     0
1000

1071
        0
1070
     0
  0
MLEADERSTYLE
  5
1F5D
102
{ACAD_REACTORS
330
1F5C
102
}
330
1F5C
100
AcDbMLeaderStyle
170
     2
171
     1
172
     0
 90
        2
 40
0.0
 41
0.0
173
     1
 91
-1056964608
340
14
 92
       -2
290
     1
 42
2.0
291
     1
 43
0.36
  3
Standard
 44
4.0
300

342
11
174
     1
178
     6
175
     1
176
     0
 93
-1056964608
 45
4.0
292
     0
297
     0
 46
4.0
 94
-1056964608
 47
1.0
 49
1.0
140
1.0
293
     1
141
0.0
294
     1
177
     0
142
1.0
295
     0
296
     0
143
0.125
1001
ACAD_MLEADERVER
1070
     2
  0
MLINESTYLE
  5
18
102
{ACAD_REACTORS
330
17
102
}
330
17
100
AcDbMlineStyle
  2
STANDARD
 70
     0
  3

 62
   256
 51
90.0
 52
90.0
 71
     2
 49
0.5
 62
   256
  6
BYLAYER
 49
-0.5
 62
   256
  6
BYLAYER
  0
ACDBPLACEHOLDER
  5
F
102
{ACAD_REACTORS
330
E
102
}
330
E
  0
SCALE
  5
1F3B
102
{ACAD_REACTORS
330
1F3A
102
}
330
1F3A
100
AcDbScale
 70
     0
300
1:1
140
1.0
141
1.0
290
     1
  0
SCALE
  5
1F3C
102
{ACAD_REACTORS
330
1F3A
102
}
330
1F3A
100
AcDbScale
 70
     0
300
1:2
140
1.0
141
2.0
290
     0
  0
SCALE
  5
1F3D
102
{ACAD_REACTORS
330
1F3A
102
}
330
1F3A
100
AcDbScale
 70
     0
300
1:4
140
1.0
141
4.0
290
     0
  0
SCALE
  5
1F3E
102
{ACAD_REACTORS
330
1F3A
102
}
330
1F3A
100
AcDbScale
 70
     0
300
1:5
140
1.0
141
5.0
290
     0
  0
SCALE
  5
1F3F
102
{ACAD_REACTORS
330
1F3A
102
}
330
1F3A
100
AcDbScale
 70
     0
300
1:8
140
1.0
141
8.0
290
     0
  0
SCALE
  5
1F40
102
{ACAD_REACTORS
330
1F3A
102
}
330
1F3A
100
AcDbScale
 70
     0
300
1:10
140
1.0
141
10.0
290
     0
  0
SCALE
  5
1F41
102
{ACAD_REACTORS
330
1F3A
102
}
330
1F3A
100
AcDbScale
 70
     0
300
1:16
140
1.0
141
16.0
290
     0
  0
SCALE
  5
1F42
102
{ACAD_REACTORS
330
1F3A
102
}
330
1F3A
100
AcDbScale
 70
     0
300
1:20
140
1.0
141
20.0
290
     0
  0
SCALE
  5
1F43
102
{ACAD_REACTORS
330
1F3A
102
}
330
1F3A
100
AcDbScale
 70
     0
300
1:30
140
1.0
141
30.0
290
     0
  0
SCALE
  5
1F44
102
{ACAD_REACTORS
330
1F3A
102
}
330
1F3A
100
AcDbScale
 70
     0
300
1:40
140
1.0
141
40.0
290
     0
  0
SCALE
  5
1F45
102
{ACAD_REACTORS
330
1F3A
102
}
330
1F3A
100
AcDbScale
 70
     0
300
1:50
140
1.0
141
50.0
290
     0
  0
SCALE
  5
1F46
102
{ACAD_REACTORS
330
1F3A
102
}
330
1F3A
100
AcDbScale
 70
     0
300
1:100
140
1.0
141
100.0
290
     0
  0
SCALE
  5
1F47
102
{ACAD_REACTORS
330
1F3A
102
}
330
1F3A
100
AcDbScale
 70
     0
300
2:1
140
2.0
141
1.0
290
     0
  0
SCALE
  5
1F48
102
{ACAD_REACTORS
330
1F3A
102
}
330
1F3A
100
AcDbScale
 70
     0
300
4:1
140
4.0
141
1.0
290
     0
  0
SCALE
  5
1F49
102
{ACAD_REACTORS
330
1F3A
102
}
330
1F3A
100
AcDbScale
 70
     0
300
8:1
140
8.0
141
1.0
290
     0
  0
SCALE
  5
1F4A
102
{ACAD_REACTORS
330
1F3A
102
}
330
1F3A
100
AcDbScale
 70
     0
300
10:1
140
10.0
141
1.0
290
     0
  0
SCALE
  5
1F4B
102
{ACAD_REACTORS
330
1F3A
102
}
330
1F3A
100
AcDbScale
 70
     0
300
100:1
140
100.0
141
1.0
290
     0
  0
SCALE
  5
1F4C
102
{ACAD_REACTORS
330
1F3A
102
}
330
1F3A
100
AcDbScale
 70
     0
300
1/128" = 1'-0"
140
0.0078125
141
12.0
290
     0
  0
SCALE
  5
1F4D
102
{ACAD_REACTORS
330
1F3A
102
}
330
1F3A
100
AcDbScale
 70
     0
300
1/64" = 1'-0"
140
0.015625
141
12.0
290
     0
  0
SCALE
  5
1F4E
102
{ACAD_REACTORS
330
1F3A
102
}
330
1F3A
100
AcDbScale
 70
     0
300
1/32" = 1'-0"
140
0.03125
141
12.0
290
     0
  0
SCALE
  5
1F4F
102
{ACAD_REACTORS
330
1F3A
102
}
330
1F3A
100
AcDbScale
 70
     0
300
1/16" = 1'-0"
140
0.0625
141
12.0
290
     0
  0
SCALE
  5
1F50
102
{ACAD_REACTORS
330
1F3A
102
}
330
1F3A
100
AcDbScale
 70
     0
300
3/32" = 1'-0"
140
0.09375
141
12.0
290
     0
  0
SCALE
  5
1F51
102
{ACAD_REACTORS
330
1F3A
102
}
330
1F3A
100
AcDbScale
 70
     0
300
1/8" = 1'-0"
140
0.125
141
12.0
290
     0
  0
SCALE
  5
1F52
102
{ACAD_REACTORS
330
1F3A
102
}
330
1F3A
100
AcDbScale
 70
     0
300
3/16" = 1'-0"
140
0.1875
141
12.0
290
     0
  0
SCALE
  5
1F53
102
{ACAD_REACTORS
330
1F3A
102
}
330
1F3A
100
AcDbScale
 70
     0
300
1/4" = 1'-0"
140
0.25
141
12.0
290
     0
  0
SCALE
  5
1F54
102
{ACAD_REACTORS
330
1F3A
102
}
330
1F3A
100
AcDbScale
 70
     0
300
3/8" = 1'-0"
140
0.375
141
12.0
290
     0
  0
SCALE
  5
1F55
102
{ACAD_REACTORS
330
1F3A
102
}
330
1F3A
100
AcDbScale
 70
     0
300
1/2" = 1'-0"
140
0.5
141
12.0
290
     0
  0
SCALE
  5
1F56
102
{ACAD_REACTORS
330
1F3A
102
}
330
1F3A
100
AcDbScale
 70
     0
300
3/4" = 1'-0"
140
0.75
141
12.0
290
     0
  0
SCALE
  5
1F57
102
{ACAD_REACTORS
330
1F3A
102
}
330
1F3A
100
AcDbScale
 70
     0
300
1" = 1'-0"
140
1.0
141
12.0
290
     0
  0
SCALE
  5
1F58
102
{ACAD_REACTORS
330
1F3A
102
}
330
1F3A
100
AcDbScale
 70
     0
300
1-1/2" = 1'-0"
140
1.5
141
12.0
290
     0
  0
SCALE
  5
1F59
102
{ACAD_REACTORS
330
1F3A
102
}
330
1F3A
100
AcDbScale
 70
     0
300
3" = 1'-0"
140
3.0
141
12.0
290
     0
  0
SCALE
  5
1F5A
102
{ACAD_REACTORS
330
1F3A
102
}
330
1F3A
100
AcDbScale
 70
     0
300
6" = 1'-0"
140
6.0
141
12.0
290
     0
  0
SCALE
  5
1F5B
102
{ACAD_REACTORS
330
1F3A
102
}
330
1F3A
100
AcDbScale
 70
     0
300
1'-0" = 1'-0"
140
12.0
141
12.0
290
     0
  0
TABLESTYLE
  5
1F39
102
{ACAD_XDICTIONARY
360
1F7F
102
}
102
{ACAD_REACTORS
330
1F38
102
}
330
1F38
100
AcDbTableStyle
  3
Standard
 70
     0
 71
     0
 40
1.5
 41
1.5
280
     0
281
     0
  7
Standard
140
4.5
170
     2
 62
     0
 63
     7
283
     0
274
    -2
284
     1
 64
     0
275
    -2
285
     1
 65
     0
276
    -2
286
     1
 66
     0
277
    -2
287
     1
 67
     0
278
    -2
288
     1
 68
     0
279
    -2
289
     1
 69
     0
  7
Standard
140
6.0
170
     5
 62
     0
 63
     7
283
     0
274
    -2
284
     1
 64
     0
275
    -2
285
     1
 65
     0
276
    -2
286
     1
 66
     0
277
    -2
287
     1
 67
     0
278
    -2
288
     1
 68
     0
279
    -2
289
     1
 69
     0
  7
Standard
140
4.5
170
     5
 62
     0
 63
     7
283
     0
274
    -2
284
     1
 64
     0
275
    -2
285
     1
 65
     0
276
    -2
286
     1
 66
     0
277
    -2
287
     1
 67
     0
278
    -2
288
     1
 68
     0
279
    -2
289
     1
 69
     0
  0
VISUALSTYLE
  5
1F2D
102
{ACAD_REACTORS
330
1F27
102
}
330
1F27
100
AcDbVisualStyle
  2
2dWireframe
 70
     4
 71
     0
 72
     2
 73
     0
 90
        0
 40
-0.6
 41
-30.0
 62
     5
 63
     7
421
 16777215
 74
     1
 91
        4
 64
     7
 65
   257
 75
     1
175
     1
 42
1.0
 92
        0
 66
   257
 43
1.0
 76
     1
 77
     6
 78
     2
 67
     7
 79
     5
170
     0
171
     0
290
     0
174
     0
 93
        1
 44
0.0
173
     0
291
     0
 45
0.0
1001
ACAD
1000
AcDbSavedByObjectVersion
1070
     0
  0
VISUALSTYLE
  5
1F2F
102
{ACAD_REACTORS
330
1F27
102
}
330
1F27
100
AcDbVisualStyle
  2
3D Hidden
 70
     6
 71
     1
 72
     2
 73
     2
 90
        0
 40
-0.6
 41
-30.0
 62
     5
 63
     7
421
 16777215
 74
     2
 91
        2
 64
     7
 65
   257
 75
     2
175
     1
 42
40.0
 92
        0
 66
   257
 43
1.0
 76
     1
 77
     6
 78
     2
 67
     7
 79
     3
170
     0
171
     0
290
     0
174
     0
 93
        1
 44
0.0
173
     0
291
     0
 45
0.0
1001
ACAD
1000
AcDbSavedByObjectVersion
1070
     0
  0
VISUALSTYLE
  5
1F2E
102
{ACAD_REACTORS
330
1F27
102
}
330
1F27
100
AcDbVisualStyle
  2
3dWireframe
 70
     5
 71
     0
 72
     2
 73
     0
 90
        0
 40
-0.6
 41
-30.0
 62
     5
 63
     7
421
 16777215
 74
     1
 91
        4
 64
     7
 65
   257
 75
     1
175
     1
 42
1.0
 92
        0
 66
   257
 43
1.0
 76
     1
 77
     6
 78
     2
 67
     7
 79
     5
170
     0
171
     0
290
     0
174
     0
 93
        1
 44
0.0
173
     0
291
     0
 45
0.0
1001
ACAD
1000
AcDbSavedByObjectVersion
1070
     0
  0
VISUALSTYLE
  5
1F2C
102
{ACAD_REACTORS
330
1F27
102
}
330
1F27
100
AcDbVisualStyle
  2
Basic
 70
     7
 71
     1
 72
     0
 73
     1
 90
        0
 40
-0.6
 41
-30.0
 62
     5
 63
     7
421
 16777215
 74
     0
 91
        4
 64
     7
 65
   257
 75
     1
175
     1
 42
1.0
 92
        8
 66
     7
 43
1.0
 76
     1
 77
     6
 78
     2
 67
     7
 79
     5
170
     0
171
     0
290
     0
174
     0
 93
        1
 44
0.0
173
     0
291
     1
 45
0.0
1001
ACAD
1000
AcDbSavedByObjectVersion
1070
     0
  0
VISUALSTYLE
  5
1F33
102
{ACAD_REACTORS
330
1F27
102
}
330
1F27
100
AcDbVisualStyle
  2
Brighten
 70
    12
 71
     2
 72
     2
 73
     0
 90
        0
 40
-0.6
 41
-30.0
 62
     5
 63
     7
421
 16777215
 74
     1
 91
        4
 64
     7
 65
   257
 75
     1
175
     1
 42
1.0
 92
        8
 66
     7
 43
1.0
 76
     1
 77
     6
 78
     2
 67
     7
 79
     5
170
     0
171
     0
290
     0
174
     0
 93
        1
 44
50.0
173
     0
291
     1
 45
0.0
1001
ACAD
1000
AcDbSavedByObjectVersion
1070
     0
  0
VISUALSTYLE
  5
1F37
102
{ACAD_REACTORS
330
1F27
102
}
330
1F27
100
AcDbVisualStyle
  2
ColorChange
 70
    16
 71
     2
 72
     2
 73
     3
 90
        0
 40
-0.6
 41
-30.0
 62
     5
 63
     8
421
  8421504
 74
     1
 91
        4
 64
     7
 65
   257
 75
     1
175
     1
 42
1.0
 92
        8
 66
     8
424
  8421504
 43
1.0
 76
     1
 77
     6
 78
     2
 67
     7
 79
     5
170
     0
171
     0
290
     0
174
     0
 93
        1
 44
0.0
173
     0
291
     1
 45
0.0
1001
ACAD
1000
AcDbSavedByObjectVersion
1070
     0
  0
VISUALSTYLE
  5
1F30
102
{ACAD_REACTORS
330
1F27
102
}
330
1F27
100
AcDbVisualStyle
  2
Conceptual
 70
     9
 71
     3
 72
     2
 73
     0
 90
        0
 40
-0.6
 41
-30.0
 62
     5
 63
     7
421
 16777215
 74
     2
 91
        2
 64
     7
 65
   257
 75
     1
175
     1
 42
40.0
 92
        8
 66
     7
 43
1.0
 76
     1
 77
     6
 78
     2
 67
     7
 79
     3
170
     0
171
     0
290
     0
174
     0
 93
        1
 44
0.0
173
     0
291
     0
 45
0.0
1001
ACAD
1000
AcDbSavedByObjectVersion
1070
     0
  0
VISUALSTYLE
  5
1F32
102
{ACAD_REACTORS
330
1F27
102
}
330
1F27
100
AcDbVisualStyle
  2
Dim
 70
    11
 71
     2
 72
     2
 73
     0
 90
        0
 40
-0.6
 41
-30.0
 62
     5
 63
     7
421
 16777215
 74
     1
 91
        4
 64
     7
 65
   257
 75
     1
175
     1
 42
1.0
 92
        8
 66
     7
 43
1.0
 76
     1
 77
     6
 78
     2
 67
     7
 79
     5
170
     0
171
     0
290
     0
174
     0
 93
        1
 44
-50.0
173
     0
291
     1
 45
0.0
1001
ACAD
1000
AcDbSavedByObjectVersion
1070
     0
  0
VISUALSTYLE
  5
1F36
102
{ACAD_REACTORS
330
1F27
102
}
330
1F27
100
AcDbVisualStyle
  2
Facepattern
 70
    15
 71
     2
 72
     2
 73
     0
 90
        0
 40
-0.6
 41
-30.0
 62
     5
 63
     7
421
 16777215
 74
     1
 91
        4
 64
     7
 65
   257
 75
     1
175
     1
 42
1.0
 92
        8
 66
     7
 43
1.0
 76
     1
 77
     6
 78
     2
 67
     7
 79
     5
170
     0
171
     0
290
     0
174
     0
 93
        1
 44
0.0
173
     0
291
     1
 45
0.0
1001
ACAD
1000
AcDbSavedByObjectVersion
1070
     0
  0
VISUALSTYLE
  5
1F28
102
{ACAD_REACTORS
330
1F27
102
}
330
1F27
100
AcDbVisualStyle
  2
Flat
 70
     0
 71
     2
 72
     1
 73
     1
 90
        2
 40
-0.6
 41
30.0
 62
     5
 63
     7
421
 16777215
 74
     0
 91
        4
 64
     7
 65
   257
 75
     1
175
     1
 42
1.0
 92
        8
 66
     7
 43
1.0
 76
     1
 77
     6
 78
     2
 67
     7
 79
     5
170
     0
171
     0
290
     0
174
     0
 93
       13
 44
0.0
173
     0
291
     1
 45
0.0
1001
ACAD
1000
AcDbSavedByObjectVersion
1070
     0
  0
VISUALSTYLE
  5
1F29
102
{ACAD_REACTORS
330
1F27
102
}
330
1F27
100
AcDbVisualStyle
  2
FlatWithEdges
 70
     1
 71
     2
 72
     1
 73
     1
 90
        2
 40
-0.6
 41
30.0
 62
     5
 63
     7
421
 16777215
 74
     1
 91
        4
 64
     7
 65
   257
 75
     1
175
     1
 42
1.0
 92
        0
 66
   257
 43
1.0
 76
     1
 77
     6
 78
     2
 67
     7
 79
     5
170
     0
171
     0
290
     0
174
     0
 93
       13
 44
0.0
173
     0
291
     1
 45
0.0
1001
ACAD
1000
AcDbSavedByObjectVersion
1070
     0
  0
VISUALSTYLE
  5
1F2A
102
{ACAD_REACTORS
330
1F27
102
}
330
1F27
100
AcDbVisualStyle
  2
Gouraud
 70
     2
 71
     2
 72
     2
 73
     1
 90
        2
 40
-0.6
 41
30.0
 62
     5
 63
     7
421
 16777215
 74
     0
 91
        4
 64
     7
 65
   257
 75
     1
175
     1
 42
1.0
 92
        0
 66
     7
 43
1.0
 76
     1
 77
     6
 78
     2
 67
     7
 79
     5
170
     0
171
     0
290
     0
174
     0
 93
       13
 44
0.0
173
     0
291
     1
 45
0.0
1001
ACAD
1000
AcDbSavedByObjectVersion
1070
     0
  0
VISUALSTYLE
  5
1F2B
102
{ACAD_REACTORS
330
1F27
102
}
330
1F27
100
AcDbVisualStyle
  2
GouraudWithEdges
 70
     3
 71
     2
 72
     2
 73
     1
 90
        2
 40
-0.6
 41
30.0
 62
     5
 63
     7
421
 16777215
 74
     1
 91
        4
 64
     7
 65
   257
 75
     1
175
     1
 42
1.0
 92
        0
 66
   257
 43
1.0
 76
     1
 77
     6
 78
     2
 67
     7
 79
     5
170
     0
171
     0
290
     0
174
     0
 93
       13
 44
0.0
173
     0
291
     1
 45
0.0
1001
ACAD
1000
AcDbSavedByObjectVersion
1070
     0
  0
VISUALSTYLE
  5
1F35
102
{ACAD_REACTORS
330
1F27
102
}
330
1F27
100
AcDbVisualStyle
  2
Linepattern
 70
    14
 71
     2
 72
     2
 73
     0
 90
        0
 40
-0.6
 41
-30.0
 62
     5
 63
     7
421
 16777215
 74
     1
 91
        4
 64
     7
 65
   257
 75
     7
175
     7
 42
1.0
 92
        8
 66
     7
 43
1.0
 76
     1
 77
     6
 78
     2
 67
     7
 79
     5
170
     0
171
     0
290
     0
174
     0
 93
        1
 44
0.0
173
     0
291
     1
 45
0.0
1001
ACAD
1000
AcDbSavedByObjectVersion
1070
     0
  0
VISUALSTYLE
  5
1F31
102
{ACAD_REACTORS
330
1F27
102
}
330
1F27
100
AcDbVisualStyle
  2
Realistic
 70
     8
 71
     2
 72
     2
 73
     0
 90
        0
 40
-0.6
 41
-30.0
 62
     5
 63
     7
421
 16777215
 74
     1
 91
        0
 64
     7
 65
   257
 75
     1
175
     1
 42
1.0
 92
        8
 66
     8
424
  7895160
 43
1.0
 76
     1
 77
     6
 78
     2
 67
     7
 79
     5
170
     0
171
     0
290
     0
174
     0
 93
       13
 44
0.0
173
     0
291
     0
 45
0.0
1001
ACAD
1000
AcDbSavedByObjectVersion
1070
     0
  0
VISUALSTYLE
  5
1F34
102
{ACAD_REACTORS
330
1F27
102
}
330
1F27
100
AcDbVisualStyle
  2
Thicken
 70
    13
 71
     2
 72
     2
 73
     0
 90
        0
 40
-0.6
 41
-30.0
 62
     5
 63
     7
421
 16777215
 74
     1
 91
        4
 64
     7
 65
   257
 75
     1
175
     1
 42
1.0
 92
       12
 66
     7
 43
1.0
 76
     1
 77
     6
 78
     2
 67
     7
 79
     5
170
     0
171
     0
290
     0
174
     0
 93
        1
 44
0.0
173
     0
291
     1
 45
0.0
1001
ACAD
1000
AcDbSavedByObjectVersion
1070
     0
  0
DICTIONARYVAR
  5
1F7E
102
{ACAD_REACTORS
330
1F7B
102
}
330
1F7B
100
DictionaryVariables
280
     0
  1
1:1
  0
DICTIONARYVAR
  5
1F7D
102
{ACAD_REACTORS
330
1F7B
102
}
330
1F7B
100
DictionaryVariables
280
     0
  1
STANDARD
  0
DICTIONARYVAR
  5
1F7C
102
{ACAD_REACTORS
330
1F7B
102
}
330
1F7B
100
DictionaryVariables
280
     0
  1
STANDARD
  0
DICTIONARY
  5
1F20
330
1F1F
100
AcDbDictionary
280
     1
281
     1
  3
ACAD_XREC_ROUNDTRIP
360
1F84
  3
BUMPTILE
360
1F22
  3
DIFFUSETILE
360
1F21
  3
OPACITYTILE
360
1F25
  3
REFLECTIONTILE
360
1F24
  3
REFRACTIONTILE
360
1F26
  3
SPECULARTILE
360
1F23
  0
DICTIONARY
  5
1F18
330
1F17
100
AcDbDictionary
280
     1
281
     1
  3
ACAD_XREC_ROUNDTRIP
360
1F83
  3
BUMPTILE
360
1F1A
  3
DIFFUSETILE
360
1F19
  3
OPACITYTILE
360
1F1D
  3
REFLECTIONTILE
360
1F1C
  3
REFRACTIONTILE
360
1F1E
  3
SPECULARTILE
360
1F1B
  0
DICTIONARY
  5
56
330
55
100
AcDbDictionary
280
     1
281
     1
  3
ACAD_XREC_ROUNDTRIP
360
1F82
  3
BUMPTILE
360
58
  3
DIFFUSETILE
360
59
  3
OPACITYTILE
360
5A
  3
REFLECTIONTILE
360
5B
  0
DICTIONARY
  5
1F7F
330
1F39
100
AcDbDictionary
280
     1
281
     1
  3
ACAD_ROUNDTRIP_2008_TABLESTYLE_CELLSTYLEMAP
360
1F80
  3
ACAD_XREC_ROUNDTRIP
360
1F85
  0
XRECORD
  5
1F84
102
{ACAD_REACTORS
330
1F20
102
}
330
1F20
100
AcDbXrecord
280
     1
102
MATERIAL
148
0.0
149
0.0
149
0.0
 93
        0
 94
      127
282
     0
 72
     0
 77
     0
171
     0
175
     0
179
     0
273
     0
  0
XRECORD
  5
1F22
102
{ACAD_REACTORS
330
1F20
102
}
330
1F20
100
AcDbXrecord
280
     1
270
     1
271
     1
  0
XRECORD
  5
1F21
102
{ACAD_REACTORS
330
1F20
102
}
330
1F20
100
AcDbXrecord
280
     1
270
     1
271
     1
  0
XRECORD
  5
1F25
102
{ACAD_REACTORS
330
1F20
102
}
330
1F20
100
AcDbXrecord
280
     1
270
     1
271
     1
  0
XRECORD
  5
1F24
102
{ACAD_REACTORS
330
1F20
102
}
330
1F20
100
AcDbXrecord
280
     1
270
     1
271
     1
  0
XRECORD
  5
1F26
102
{ACAD_REACTORS
330
1F20
102
}
330
1F20
100
AcDbXrecord
280
     1
270
     1
271
     1
  0
XRECORD
  5
1F23
102
{ACAD_REACTORS
330
1F20
102
}
330
1F20
100
AcDbXrecord
280
     1
270
     1
271
     1
  0
XRECORD
  5
1F83
102
{ACAD_REACTORS
330
1F18
102
}
330
1F18
100
AcDbXrecord
280
     1
102
MATERIAL
148
0.0
149
0.0
149
0.0
 93
        0
 94
      127
282
     0
 72
     0
 77
     0
171
     0
175
     0
179
     0
273
     0
  0
XRECORD
  5
1F1A
102
{ACAD_REACTORS
330
1F18
102
}
330
1F18
100
AcDbXrecord
280
     1
270
     1
271
     1
  0
XRECORD
  5
1F19
102
{ACAD_REACTORS
330
1F18
102
}
330
1F18
100
AcDbXrecord
280
     1
270
     1
271
     1
  0
XRECORD
  5
1F1D
102
{ACAD_REACTORS
330
1F18
102
}
330
1F18
100
AcDbXrecord
280
     1
270
     1
271
     1
  0
XRECORD
  5
1F1C
102
{ACAD_REACTORS
330
1F18
102
}
330
1F18
100
AcDbXrecord
280
     1
270
     1
271
     1
  0
XRECORD
  5
1F1E
102
{ACAD_REACTORS
330
1F18
102
}
330
1F18
100
AcDbXrecord
280
     1
270
     1
271
     1
  0
XRECORD
  5
1F1B
102
{ACAD_REACTORS
330
1F18
102
}
330
1F18
100
AcDbXrecord
280
     1
270
     1
271
     1
  0
XRECORD
  5
1F82
102
{ACAD_REACTORS
330
56
102
}
330
56
100
AcDbXrecord
280
     1
102
MATERIAL
148
0.0
149
0.0
149
0.0
 93
        0
 94
       63
282
     0
 72
     1
 77
     1
171
     1
175
     1
179
     1
273
     0
  0
XRECORD
  5
58
102
{ACAD_REACTORS
330
56
102
}
330
56
100
AcDbXrecord
280
     1
270
     1
271
     1
  0
XRECORD
  5
59
102
{ACAD_REACTORS
330
56
102
}
330
56
100
AcDbXrecord
280
     1
270
     1
271
     1
  0
XRECORD
  5
5A
102
{ACAD_REACTORS
330
56
102
}
330
56
100
AcDbXrecord
280
     1
270
     1
271
     1
  0
XRECORD
  5
5B
102
{ACAD_REACTORS
330
56
102
}
330
56
100
AcDbXrecord
280
     1
270
     1
271
     1
  0
CELLSTYLEMAP
  5
1F80
102
{ACAD_REACTORS
330
1F7F
102
}
330
1F7F
100
AcDbCellStyleMap
 90
        3
300
CELLSTYLE
  1
TABLEFORMAT_BEGIN
 90
        5
170
     1
 91
        0
 92
    32768
 62
   257
 93
        1
300
CONTENTFORMAT
  1
CONTENTFORMAT_BEGIN
 90
        0
 91
        0
 92
      512
 93
        0
300

 40
0.0
140
1.0
 94
        5
 62
     0
340
11
144
6.0
309
CONTENTFORMAT_END
171
     1
301
MARGIN
  1
CELLMARGIN_BEGIN
 40
1.5
 40
1.5
 40
1.5
 40
1.5
 40
4.5
 40
4.5
309
CELLMARGIN_END
 94
        6
 95
        1
302
GRIDFORMAT
  1
GRIDFORMAT_BEGIN
 90
        0
 91
        1
 62
     0
 92
       -2
340
0
 93
        0
 40
1.125
309
GRIDFORMAT_END
 95
        2
302
GRIDFORMAT
  1
GRIDFORMAT_BEGIN
 90
        0
 91
        1
 62
     0
 92
       -2
340
0
 93
        0
 40
1.125
309
GRIDFORMAT_END
 95
        4
302
GRIDFORMAT
  1
GRIDFORMAT_BEGIN
 90
        0
 91
        1
 62
     0
 92
       -2
340
0
 93
        0
 40
1.125
309
GRIDFORMAT_END
 95
        8
302
GRIDFORMAT
  1
GRIDFORMAT_BEGIN
 90
        0
 91
        1
 62
     0
 92
       -2
340
0
 93
        0
 40
1.125
309
GRIDFORMAT_END
 95
       16
302
GRIDFORMAT
  1
GRIDFORMAT_BEGIN
 90
        0
 91
        1
 62
     0
 92
       -2
340
0
 93
        0
 40
1.125
309
GRIDFORMAT_END
 95
       32
302
GRIDFORMAT
  1
GRIDFORMAT_BEGIN
 90
        0
 91
        1
 62
     0
 92
       -2
340
0
 93
        0
 40
1.125
309
GRIDFORMAT_END
309
TABLEFORMAT_END
  1
CELLSTYLE_BEGIN
 90
        1
 91
        1
300
_TITLE
309
CELLSTYLE_END
300
CELLSTYLE
  1
TABLEFORMAT_BEGIN
 90
        5
170
     1
 91
        0
 92
        0
 62
   257
 93
        1
300
CONTENTFORMAT
  1
CONTENTFORMAT_BEGIN
 90
        0
 91
        0
 92
      512
 93
        0
300

 40
0.0
140
1.0
 94
        5
 62
     0
340
11
144
4.5
309
CONTENTFORMAT_END
171
     1
301
MARGIN
  1
CELLMARGIN_BEGIN
 40
1.5
 40
1.5
 40
1.5
 40
1.5
 40
4.5
 40
4.5
309
CELLMARGIN_END
 94
        6
 95
        1
302
GRIDFORMAT
  1
GRIDFORMAT_BEGIN
 90
        0
 91
        1
 62
     0
 92
       -2
340
0
 93
        0
 40
1.125
309
GRIDFORMAT_END
 95
        2
302
GRIDFORMAT
  1
GRIDFORMAT_BEGIN
 90
        0
 91
        1
 62
     0
 92
       -2
340
0
 93
        0
 40
1.125
309
GRIDFORMAT_END
 95
        4
302
GRIDFORMAT
  1
GRIDFORMAT_BEGIN
 90
        0
 91
        1
 62
     0
 92
       -2
340
0
 93
        0
 40
1.125
309
GRIDFORMAT_END
 95
        8
302
GRIDFORMAT
  1
GRIDFORMAT_BEGIN
 90
        0
 91
        1
 62
     0
 92
       -2
340
0
 93
        0
 40
1.125
309
GRIDFORMAT_END
 95
       16
302
GRIDFORMAT
  1
GRIDFORMAT_BEGIN
 90
        0
 91
        1
 62
     0
 92
       -2
340
0
 93
        0
 40
1.125
309
GRIDFORMAT_END
 95
       32
302
GRIDFORMAT
  1
GRIDFORMAT_BEGIN
 90
        0
 91
        1
 62
     0
 92
       -2
340
0
 93
        0
 40
1.125
309
GRIDFORMAT_END
309
TABLEFORMAT_END
  1
CELLSTYLE_BEGIN
 90
        2
 91
        1
300
_HEADER
309
CELLSTYLE_END
300
CELLSTYLE
  1
TABLEFORMAT_BEGIN
 90
        5
170
     1
 91
        0
 92
        0
 62
   257
 93
        1
300
CONTENTFORMAT
  1
CONTENTFORMAT_BEGIN
 90
        0
 91
        0
 92
      512
 93
        0
300

 40
0.0
140
1.0
 94
        2
 62
     0
340
11
144
4.5
309
CONTENTFORMAT_END
171
     1
301
MARGIN
  1
CELLMARGIN_BEGIN
 40
1.5
 40
1.5
 40
1.5
 40
1.5
 40
4.5
 40
4.5
309
CELLMARGIN_END
 94
        6
 95
        1
302
GRIDFORMAT
  1
GRIDFORMAT_BEGIN
 90
        0
 91
        1
 62
     0
 92
       -2
340
0
 93
        0
 40
1.125
309
GRIDFORMAT_END
 95
        2
302
GRIDFORMAT
  1
GRIDFORMAT_BEGIN
 90
        0
 91
        1
 62
     0
 92
       -2
340
0
 93
        0
 40
1.125
309
GRIDFORMAT_END
 95
        4
302
GRIDFORMAT
  1
GRIDFORMAT_BEGIN
 90
        0
 91
        1
 62
     0
 92
       -2
340
0
 93
        0
 40
1.125
309
GRIDFORMAT_END
 95
        8
302
GRIDFORMAT
  1
GRIDFORMAT_BEGIN
 90
        0
 91
        1
 62
     0
 92
       -2
340
0
 93
        0
 40
1.125
309
GRIDFORMAT_END
 95
       16
302
GRIDFORMAT
  1
GRIDFORMAT_BEGIN
 90
        0
 91
        1
 62
     0
 92
       -2
340
0
 93
        0
 40
1.125
309
GRIDFORMAT_END
 95
       32
302
GRIDFORMAT
  1
GRIDFORMAT_BEGIN
 90
        0
 91
        1
 62
     0
 92
       -2
340
0
 93
        0
 40
1.125
309
GRIDFORMAT_END
309
TABLEFORMAT_END
  1
CELLSTYLE_BEGIN
 90
        3
 91
        2
300
_DATA
309
CELLSTYLE_END
  0
XRECORD
  5
1F85
102
{ACAD_REACTORS
330
1F7F
102
}
330
1F7F
100
AcDbXrecord
280
     1
102
ACAD_ROUNDTRIP_PRE2007_TABLESTYLE
 90
      512
 91
        0
  1

 92
      512
 93
        0
  2

 94
      512
 95
        0
  3

  0
ENDSEC
  0
EOF
