  0
SECTION
  2
HEADER
  9
$ACADVER
  1
AC1018
  9
$ACADMAINTVER
 70
   104
  9
$DWGCODEPAGE
  3
ANSI_932
  9
$LASTSAVEDBY
  1
t-hayashi
  9
$INSBASE
 10
0.0
 20
0.0
 30
0.0
  9
$EXTMIN
 10
19.73018819151139
 20
8.978650437816327
 30
0.0
  9
$EXTMAX
 10
194.5122784781157
 20
278.6940256582746
 30
0.0
  9
$LIMMIN
 10
0.0
 20
0.0
  9
$LIMMAX
 10
210.0
 20
297.0
  9
$ORTHOMODE
 70
     1
  9
$REGENMODE
 70
     1
  9
$FILLMODE
 70
     1
  9
$QTEXTMODE
 70
     0
  9
$MIRRTEXT
 70
     0
  9
$LTSCALE
 40
1.0
  9
$ATTMODE
 70
     1
  9
$TEXTSIZE
 40
3.0
  9
$TRACEWID
 40
1.0
  9
$TEXTSTYLE
  7
Standard
  9
$CLAYER
  8
moji
  9
$CELTYPE
  6
ByLayer
  9
$CECOLOR
 62
   256
  9
$CELTSCALE
 40
1.0
  9
$DISPSILH
 70
     0
  9
$DIMSCALE
 40
1.0
  9
$DIMASZ
 40
4.0
  9
$DIMEXO
 40
4.0
  9
$DIMDLI
 40
3.75
  9
$DIMRND
 40
0.0
  9
$DIMDLE
 40
0.0
  9
$DIMEXE
 40
2.0
  9
$DIMTP
 40
0.0
  9
$DIMTM
 40
0.0
  9
$DIMTXT
 40
3.0
  9
$DIMCEN
 40
2.5
  9
$DIMTSZ
 40
0.0
  9
$DIMTOL
 70
     0
  9
$DIMLIM
 70
     0
  9
$DIMTIH
 70
     0
  9
$DIMTOH
 70
     0
  9
$DIMSE1
 70
     0
  9
$DIMSE2
 70
     0
  9
$DIMTAD
 70
     1
  9
$DIMZIN
 70
     8
  9
$DIMBLK
  1
Open30
  9
$DIMASO
 70
     1
  9
$DIMSHO
 70
     1
  9
$DIMPOST
  1

  9
$DIMAPOST
  1

  9
$DIMALT
 70
     0
  9
$DIMALTD
 70
     3
  9
$DIMALTF
 40
0.03937007874016
  9
$DIMLFAC
 40
1.0
  9
$DIMTOFL
 70
     1
  9
$DIMTVP
 40
0.0
  9
$DIMTIX
 70
     0
  9
$DIMSOXD
 70
     0
  9
$DIMSAH
 70
     0
  9
$DIMBLK1
  1

  9
$DIMBLK2
  1

  9
$DIMSTYLE
  2
ISO-25-4mm
  9
$DIMCLRD
 70
   256
  9
$DIMCLRE
 70
   256
  9
$DIMCLRT
 70
     4
  9
$DIMTFAC
 40
1.0
  9
$DIMGAP
 40
1.0
  9
$DIMJUST
 70
     0
  9
$DIMSD1
 70
     0
  9
$DIMSD2
 70
     0
  9
$DIMTOLJ
 70
     0
  9
$DIMTZIN
 70
     8
  9
$DIMALTZ
 70
     0
  9
$DIMALTTZ
 70
     0
  9
$DIMUPT
 70
     0
  9
$DIMDEC
 70
     2
  9
$DIMTDEC
 70
     2
  9
$DIMALTU
 70
     2
  9
$DIMALTTD
 70
     3
  9
$DIMTXSTY
  7
Standard
  9
$DIMAUNIT
 70
     0
  9
$DIMADEC
 70
     0
  9
$DIMALTRND
 40
0.0
  9
$DIMAZIN
 70
     0
  9
$DIMDSEP
 70
    46
  9
$DIMATFIT
 70
     3
  9
$DIMFRAC
 70
     0
  9
$DIMLDRBLK
  1
Open30
  9
$DIMLUNIT
 70
     2
  9
$DIMLWD
 70
    -2
  9
$DIMLWE
 70
    -2
  9
$DIMTMOVE
 70
     0
  9
$LUNITS
 70
     2
  9
$LUPREC
 70
     4
  9
$SKETCHINC
 40
1.0
  9
$FILLETRAD
 40
1.0
  9
$AUNITS
 70
     0
  9
$AUPREC
 70
     0
  9
$MENU
  1
.
  9
$ELEVATION
 40
0.0
  9
$PELEVATION
 40
0.0
  9
$THICKNESS
 40
0.0
  9
$LIMCHECK
 70
     0
  9
$CHAMFERA
 40
0.0
  9
$CHAMFERB
 40
0.0
  9
$CHAMFERC
 40
0.0
  9
$CHAMFERD
 40
0.0
  9
$SKPOLY
 70
     0
  9
$TDCREATE
 40
2455497.994904688
  9
$TDUCREATE
 40
2455497.619904688
  9
$TDUPDATE
 40
2455618.576667928
  9
$TDUUPDATE
 40
2455618.201667928
  9
$TDINDWG
 40
0.8339872106
  9
$TDUSRTIMER
 40
0.8339872106
  9
$USRTIMER
 70
     1
  9
$ANGBASE
 50
0.0
  9
$ANGDIR
 70
     0
  9
$PDMODE
 70
     0
  9
$PDSIZE
 40
0.0
  9
$PLINEWID
 40
0.0
  9
$SPLFRAME
 70
     0
  9
$SPLINETYPE
 70
     6
  9
$SPLINESEGS
 70
     8
  9
$HANDSEED
  5
1878
  9
$SURFTAB1
 70
     6
  9
$SURFTAB2
 70
     6
  9
$SURFTYPE
 70
     6
  9
$SURFU
 70
     6
  9
$SURFV
 70
     6
  9
$UCSBASE
  2

  9
$UCSNAME
  2

  9
$UCSORG
 10
0.0
 20
0.0
 30
0.0
  9
$UCSXDIR
 10
1.0
 20
0.0
 30
0.0
  9
$UCSYDIR
 10
0.0
 20
1.0
 30
0.0
  9
$UCSORTHOREF
  2

  9
$UCSORTHOVIEW
 70
     0
  9
$UCSORGTOP
 10
0.0
 20
0.0
 30
0.0
  9
$UCSORGBOTTOM
 10
0.0
 20
0.0
 30
0.0
  9
$UCSORGLEFT
 10
0.0
 20
0.0
 30
0.0
  9
$UCSORGRIGHT
 10
0.0
 20
0.0
 30
0.0
  9
$UCSORGFRONT
 10
0.0
 20
0.0
 30
0.0
  9
$UCSORGBACK
 10
0.0
 20
0.0
 30
0.0
  9
$PUCSBASE
  2

  9
$PUCSNAME
  2

  9
$PUCSORG
 10
0.0
 20
0.0
 30
0.0
  9
$PUCSXDIR
 10
1.0
 20
0.0
 30
0.0
  9
$PUCSYDIR
 10
0.0
 20
1.0
 30
0.0
  9
$PUCSORTHOREF
  2

  9
$PUCSORTHOVIEW
 70
     0
  9
$PUCSORGTOP
 10
0.0
 20
0.0
 30
0.0
  9
$PUCSORGBOTTOM
 10
0.0
 20
0.0
 30
0.0
  9
$PUCSORGLEFT
 10
0.0
 20
0.0
 30
0.0
  9
$PUCSORGRIGHT
 10
0.0
 20
0.0
 30
0.0
  9
$PUCSORGFRONT
 10
0.0
 20
0.0
 30
0.0
  9
$PUCSORGBACK
 10
0.0
 20
0.0
 30
0.0
  9
$USERI1
 70
     0
  9
$USERI2
 70
     0
  9
$USERI3
 70
     0
  9
$USERI4
 70
     0
  9
$USERI5
 70
     0
  9
$USERR1
 40
0.0
  9
$USERR2
 40
0.0
  9
$USERR3
 40
0.0
  9
$USERR4
 40
0.0
  9
$USERR5
 40
0.0
  9
$WORLDVIEW
 70
     1
  9
$SHADEDGE
 70
     3
  9
$SHADEDIF
 70
    70
  9
$TILEMODE
 70
     1
  9
$MAXACTVP
 70
    64
  9
$PINSBASE
 10
0.0
 20
0.0
 30
0.0
  9
$PLIMCHECK
 70
     0
  9
$PEXTMIN
 10
20.1612506389618
 20
28.73798251152038
 30
0.0
  9
$PEXTMAX
 10
181.4512557506561
 20
258.6418426036835
 30
0.0
  9
$PLIMMIN
 10
-4.180416584014892
 20
-5.831417560577392
  9
$PLIMMAX
 10
205.7929110527039
 20
291.1369051933288
  9
$UNITMODE
 70
     0
  9
$VISRETAIN
 70
     1
  9
$PLINEGEN
 70
     0
  9
$PSLTSCALE
 70
     1
  9
$TREEDEPTH
 70
  3020
  9
$CMLSTYLE
  2
Standard
  9
$CMLJUST
 70
     0
  9
$CMLSCALE
 40
20.0
  9
$PROXYGRAPHICS
 70
     1
  9
$MEASUREMENT
 70
     1
  9
$CELWEIGHT
370
    -1
  9
$ENDCAPS
280
     0
  9
$JOINSTYLE
280
     0
  9
$LWDISPLAY
290
     0
  9
$INSUNITS
 70
     4
  9
$HYPERLINKBASE
  1

  9
$STYLESHEET
  1

  9
$XEDIT
290
     1
  9
$CEPSNTYPE
380
     0
  9
$PSTYLEMODE
290
     1
  9
$FINGERPRINTGUID
  2
{03A8F9F0-C856-470B-BDF9-D9C40928B69F}
  9
$VERSIONGUID
  2
{722E251E-E0F0-4191-8A86-A45D9BFDF3A5}
  9
$EXTNAMES
290
     1
  9
$PSVPSCALE
 40
0.0
  9
$OLESTARTUP
290
     0
  9
$SORTENTS
280
   127
  9
$INDEXCTL
280
     0
  9
$HIDETEXT
280
     1
  9
$XCLIPFRAME
290
     0
  9
$HALOGAP
280
     0
  9
$OBSCOLOR
 70
   257
  9
$OBSLTYPE
280
     0
  9
$INTERSECTIONDISPLAY
280
     0
  9
$INTERSECTIONCOLOR
 70
   257
  9
$DIMASSOC
280
     2
  9
$PROJECTNAME
  1

  0
ENDSEC
  0
SECTION
  2
CLASSES
  0
CLASS
  1
ACDBDICTIONARYWDFLT
  2
AcDbDictionaryWithDefault
  3
ObjectDBX Classes
 90
        0
 91
        1
280
     0
281
     0
  0
CLASS
  1
MATERIAL
  2
AcDbMaterial
  3
ObjectDBX Classes
 90
     1153
 91
        3
280
     0
281
     0
  0
CLASS
  1
DIMASSOC
  2
AcDbDimAssoc
  3
"AcDbDimAssoc|Product Desc:     AcDim ARX App For Dimension|Company:          Autodesk, Inc.|WEB Address:      www.autodesk.com"
 90
        0
 91
        5
280
     0
281
     0
  0
CLASS
  1
VISUALSTYLE
  2
AcDbVisualStyle
  3
ObjectDBX Classes
 90
     4095
 91
       16
280
     0
281
     0
  0
CLASS
  1
TABLESTYLE
  2
AcDbTableStyle
  3
ObjectDBX Classes
 90
     4095
 91
        1
280
     0
281
     0
  0
CLASS
  1
SCALE
  2
AcDbScale
  3
ObjectDBX Classes
 90
     1153
 91
       33
280
     0
281
     0
  0
CLASS
  1
MLEADERSTYLE
  2
AcDbMLeaderStyle
  3
ACDB_MLEADERSTYLE_CLASS
 90
     4095
 91
        1
280
     0
281
     0
  0
CLASS
  1
DICTIONARYVAR
  2
AcDbDictionaryVar
  3
ObjectDBX Classes
 90
        0
 91
        3
280
     0
281
     0
  0
CLASS
  1
CELLSTYLEMAP
  2
AcDbCellStyleMap
  3
ObjectDBX Classes
 90
     1152
 91
        1
280
     0
281
     0
  0
ENDSEC
  0
SECTION
  2
TABLES
  0
TABLE
  2
VPORT
  5
8
330
0
100
AcDbSymbolTable
 70
     1
  0
VPORT
  5
1809
330
8
100
AcDbSymbolTableRecord
100
AcDbViewportTableRecord
  2
*Active
 70
     0
 10
0.0
 20
0.0
 11
1.0
 21
1.0
 12
208.9981977202744
 22
148.5
 13
0.0
 23
0.0
 14
10.0
 24
10.0
 15
10.0
 25
10.0
 16
0.0
 26
0.0
 36
1.0
 17
0.0
 27
0.0
 37
0.0
 40
299.376
 41
2.304913294797688
 42
50.0
 43
0.0
 44
0.0
 50
0.0
 51
0.0
 71
     0
 72
  1000
 73
     1
 74
     3
 75
     0
 76
     0
 77
     0
 78
     0
281
     0
 65
     1
110
0.0
120
0.0
130
0.0
111
1.0
121
0.0
131
0.0
112
0.0
122
1.0
132
0.0
 79
     0
146
0.0
  0
ENDTAB
  0
TABLE
  2
LTYPE
  5
5
330
0
100
AcDbSymbolTable
 70
     1
  0
LTYPE
  5
14
330
5
100
AcDbSymbolTableRecord
100
AcDbLinetypeTableRecord
  2
ByBlock
 70
     0
  3

 72
    65
 73
     0
 40
0.0
  0
LTYPE
  5
15
330
5
100
AcDbSymbolTableRecord
100
AcDbLinetypeTableRecord
  2
ByLayer
 70
     0
  3

 72
    65
 73
     0
 40
0.0
  0
LTYPE
  5
16
330
5
100
AcDbSymbolTableRecord
100
AcDbLinetypeTableRecord
  2
Continuous
 70
     0
  3
Solid line
 72
    65
 73
     0
 40
0.0
  0
ENDTAB
  0
TABLE
  2
LAYER
  5
2
102
{ACAD_XDICTIONARY
360
5C
102
}
330
0
100
AcDbSymbolTable
 70
    10
  0
LAYER
  5
10
102
{ACAD_XDICTIONARY
360
185B
102
}
330
2
100
AcDbSymbolTableRecord
100
AcDbLayerTableRecord
  2
0
 70
     0
 62
     7
  6
Continuous
370
    -3
390
F
  0
LAYER
  5
2D
102
{ACAD_XDICTIONARY
360
185D
102
}
330
2
100
AcDbSymbolTableRecord
100
AcDbLayerTableRecord
  2
gaikei
 70
     0
 62
     7
  6
Continuous
370
    -3
390
F
  0
LAYER
  5
2E
102
{ACAD_XDICTIONARY
360
185F
102
}
330
2
100
AcDbSymbolTableRecord
100
AcDbLayerTableRecord
  2
sumpo
 70
     0
 62
     4
  6
Continuous
370
    -3
390
F
  0
LAYER
  5
2F
102
{ACAD_XDICTIONARY
360
1861
102
}
330
2
100
AcDbSymbolTableRecord
100
AcDbLayerTableRecord
  2
fuzoku
 70
     0
 62
     3
  6
Continuous
370
    -3
390
F
  0
LAYER
  5
30
102
{ACAD_XDICTIONARY
360
1863
102
}
330
2
100
AcDbSymbolTableRecord
100
AcDbLayerTableRecord
  2
moji
 70
     0
 62
     2
  6
Continuous
370
    -3
390
F
  0
LAYER
  5
48
102
{ACAD_XDICTIONARY
360
1865
102
}
330
2
100
AcDbSymbolTableRecord
100
AcDbLayerTableRecord
  2
hojo
 70
     0
 62
     6
  6
Continuous
370
    -3
390
F
  0
LAYER
  5
8F4
330
2
100
AcDbSymbolTableRecord
100
AcDbLayerTableRecord
  2
Defpoints
 70
     0
 62
     7
  6
Continuous
290
     0
370
    -3
390
F
  0
LAYER
  5
B26
102
{ACAD_XDICTIONARY
360
1867
102
}
330
2
100
AcDbSymbolTableRecord
100
AcDbLayerTableRecord
  2
shiyouwaku
 70
     0
 62
     7
  6
Continuous
370
    -3
390
F
  0
LAYER
  5
B29
102
{ACAD_XDICTIONARY
360
1869
102
}
330
2
100
AcDbSymbolTableRecord
100
AcDbLayerTableRecord
  2
zubanwaku
 70
     0
 62
     7
  6
Continuous
370
    -3
390
F
  0
LAYER
  5
B2A
102
{ACAD_XDICTIONARY
360
186B
102
}
330
2
100
AcDbSymbolTableRecord
100
AcDbLayerTableRecord
  2
zubanmoji
 70
     0
 62
     3
  6
Continuous
370
    -3
390
F
  0
ENDTAB
  0
TABLE
  2
STYLE
  5
3
330
0
100
AcDbSymbolTable
 70
     2
  0
STYLE
  5
11
330
3
100
AcDbSymbolTableRecord
100
AcDbTextStyleTableRecord
  2
Standard
 70
     0
 40
0.0
 41
1.0
 50
0.0
 71
     0
 42
3.0
  3
romans.shx
  4
extfont.shx
  0
STYLE
  5
425
330
3
100
AcDbSymbolTableRecord
100
AcDbTextStyleTableRecord
  2
KKZ-Y
 70
     0
 40
0.0
 41
1.0
 50
0.0
 71
     0
 42
10.0
  3
TXT
  4
EXTFONT
  0
ENDTAB
  0
TABLE
  2
VIEW
  5
6
330
0
100
AcDbSymbolTable
 70
     0
  0
ENDTAB
  0
TABLE
  2
UCS
  5
7
330
0
100
AcDbSymbolTable
 70
     0
  0
ENDTAB
  0
TABLE
  2
APPID
  5
9
330
0
100
AcDbSymbolTable
 70
     6
  0
APPID
  5
12
330
9
100
AcDbSymbolTableRecord
100
AcDbRegAppTableRecord
  2
ACAD
 70
     0
  0
APPID
  5
51
330
9
100
AcDbSymbolTableRecord
100
AcDbRegAppTableRecord
  2
AcadAnnotative
 70
     0
  0
APPID
  5
52
330
9
100
AcDbSymbolTableRecord
100
AcDbRegAppTableRecord
  2
ACAD_DSTYLE_DIMJAG
 70
     0
  0
APPID
  5
53
330
9
100
AcDbSymbolTableRecord
100
AcDbRegAppTableRecord
  2
ACAD_DSTYLE_DIMTALN
 70
     0
  0
APPID
  5
54
330
9
100
AcDbSymbolTableRecord
100
AcDbRegAppTableRecord
  2
ACAD_PSEXT
 70
     0
  0
APPID
  5
1852
330
9
100
AcDbSymbolTableRecord
100
AcDbRegAppTableRecord
  2
ACAD_MLEADERVER
 70
     0
  0
ENDTAB
  0
TABLE
  2
DIMSTYLE
  5
A
330
0
100
AcDbSymbolTable
 70
     4
100
AcDbDimStyleTable
 71
     4
340
1439
340
29
340
4F
340
50
  0
DIMSTYLE
105
29
330
A
100
AcDbSymbolTableRecord
100
AcDbDimStyleTableRecord
  2
ISO-25
 70
     0
 41
8.0
 42
10.0
 43
3.75
 44
10.0
 73
     0
 74
     0
 77
     1
 78
     8
140
8.0
141
2.5
143
0.03937007874016
147
4.0
171
     3
172
     1
176
   256
177
   256
178
     4
271
     2
272
     2
274
     3
283
     0
284
     8
340
11
341
8EC
342
8EC
  0
DIMSTYLE
105
4F
330
A
100
AcDbSymbolTableRecord
100
AcDbDimStyleTableRecord
  2
Standard
 70
     0
340
11
  0
DIMSTYLE
105
50
330
A
100
AcDbSymbolTableRecord
100
AcDbDimStyleTableRecord
  2
Annotative
 70
     0
 40
0.0
340
11
1001
AcadAnnotative
1000
AnnotativeData
1002
{
1070
     1
1070
     1
1002
}
1001
ACAD_DSTYLE_DIMJAG
1070
   388
1040
1.5
1001
ACAD_DSTYLE_DIMTALN
1070
   392
1070
     0
  0
DIMSTYLE
105
1439
102
{ACAD_REACTORS
330
156E
330
1586
330
15B6
330
15CE
330
15E7
102
}
330
A
100
AcDbSymbolTableRecord
100
AcDbDimStyleTableRecord
  2
ISO-25-4mm
 70
     0
 41
4.0
 42
4.0
 43
3.75
 44
2.0
 73
     0
 74
     0
 77
     1
 78
     8
140
3.0
141
2.5
143
0.03937007874016
147
1.0
171
     3
172
     1
176
   256
177
   256
178
     4
271
     2
272
     2
274
     3
283
     0
284
     8
340
11
341
8EC
342
8EC
  0
ENDTAB
  0
TABLE
  2
BLOCK_RECORD
  5
1
330
0
100
AcDbSymbolTable
 70
     6
  0
BLOCK_RECORD
  5
21
330
1
100
AcDbSymbolTableRecord
100
AcDbBlockTableRecord
  2
*Model_Space
340
24
  0
BLOCK_RECORD
  5
17A6
330
1
100
AcDbSymbolTableRecord
100
AcDbBlockTableRecord
  2
*Paper_Space
340
17A7
  0
BLOCK_RECORD
  5
8EC
330
1
100
AcDbSymbolTableRecord
100
AcDbBlockTableRecord
  2
_Open30
340
0
102
{BLKREFS
331
170F
331
1710
331
1718
331
1719
331
1721
331
1722
331
1733
331
1734
331
173C
331
173D
102
}
  0
BLOCK_RECORD
  5
156F
330
1
100
AcDbSymbolTableRecord
100
AcDbBlockTableRecord
  2
*D1
340
0
  0
BLOCK_RECORD
  5
1587
330
1
100
AcDbSymbolTableRecord
100
AcDbBlockTableRecord
  2
*D2
340
0
  0
BLOCK_RECORD
  5
15B7
330
1
100
AcDbSymbolTableRecord
100
AcDbBlockTableRecord
  2
*D3
340
0
  0
BLOCK_RECORD
  5
15CF
330
1
100
AcDbSymbolTableRecord
100
AcDbBlockTableRecord
  2
*D4
340
0
  0
BLOCK_RECORD
  5
15E8
330
1
100
AcDbSymbolTableRecord
100
AcDbBlockTableRecord
  2
*D5
340
0
  0
ENDTAB
  0
ENDSEC
  0
SECTION
  2
BLOCKS
  0
BLOCK
  5
22
330
21
100
AcDbEntity
  8
0
100
AcDbBlockBegin
  2
*Model_Space
 70
     0
 10
0.0
 20
0.0
 30
0.0
  3
*Model_Space
  1

  0
ENDBLK
  5
23
330
21
100
AcDbEntity
  8
0
100
AcDbBlockEnd
  0
BLOCK
  5
17A8
330
17A6
100
AcDbEntity
 67
     1
  8
0
100
AcDbBlockBegin
  2
*Paper_Space
 70
     0
 10
0.0
 20
0.0
 30
0.0
  3
*Paper_Space
  1

  0
ENDBLK
  5
17A9
330
17A6
100
AcDbEntity
 67
     1
  8
0
100
AcDbBlockEnd
  0
BLOCK
  5
8F0
330
8EC
100
AcDbEntity
  8
0
100
AcDbBlockBegin
  2
_Open30
 70
     0
 10
0.0
 20
0.0
 30
0.0
  3
_Open30
  1

  0
LINE
  5
8ED
330
8EC
100
AcDbEntity
  8
0
  6
ByBlock
 62
     0
370
    -2
100
AcDbLine
 10
-1.0
 20
0.26794919
 30
0.0
 11
0.0
 21
0.0
 31
0.0
  0
LINE
  5
8EE
330
8EC
100
AcDbEntity
  8
0
  6
ByBlock
 62
     0
370
    -2
100
AcDbLine
 10
0.0
 20
0.0
 30
0.0
 11
-1.0
 21
-0.26794919
 31
0.0
  0
LINE
  5
8EF
330
8EC
100
AcDbEntity
  8
0
  6
ByBlock
 62
     0
370
    -2
100
AcDbLine
 10
0.0
 20
0.0
 30
0.0
 11
-1.0
 21
0.0
 31
0.0
  0
ENDBLK
  5
8F1
330
8EC
100
AcDbEntity
  8
0
100
AcDbBlockEnd
  0
BLOCK
  5
1579
330
156F
100
AcDbEntity
  8
0
100
AcDbBlockBegin
  2
*D1
 70
     1
 10
0.0
 20
0.0
 30
0.0
  3
*D1
  1

  0
LINE
  5
1730
330
156F
100
AcDbEntity
  8
sumpo
370
    -2
100
AcDbLine
 10
37.58050443146937
 20
171.0435470042481
 30
0.0
 11
24.7717301307145
 21
171.0435470042481
 31
0.0
  0
LINE
  5
1731
330
156F
100
AcDbEntity
  8
sumpo
370
    -2
100
AcDbLine
 10
37.58050443146937
 20
131.0435470042481
 30
0.0
 11
24.77173013071449
 21
131.0435470042481
 31
0.0
  0
LINE
  5
1732
330
156F
100
AcDbEntity
  8
sumpo
370
    -2
100
AcDbLine
 10
26.77173013071449
 20
167.0435470042481
 30
0.0
 11
26.77173013071449
 21
135.0435470042481
 31
0.0
  0
INSERT
  5
1733
330
156F
100
AcDbEntity
  8
sumpo
370
    -2
100
AcDbBlockReference
  2
_Open30
 10
26.7717301307145
 20
171.0435470042481
 30
0.0
 41
4.0
 42
4.0
 43
4.0
 50
90.0
  0
INSERT
  5
1734
330
156F
100
AcDbEntity
  8
sumpo
370
    -2
100
AcDbBlockReference
  2
_Open30
 10
26.77173013071449
 20
131.0435470042481
 30
0.0
 41
4.0
 42
4.0
 43
4.0
 50
270.0
  0
MTEXT
  5
1735
330
156F
100
AcDbEntity
  8
sumpo
 62
     4
100
AcDbMText
 10
24.27173013071447
 20
151.0435470042481
 30
0.0
 40
3.0
 41
0.0
 71
     5
 72
     1
  1
40
 11
0.0000000000000001
 21
1.0
 31
0.0
 73
     1
 44
1.0
  0
POINT
  5
1736
330
156F
100
AcDbEntity
  8
Defpoints
 62
     0
100
AcDbPoint
 10
41.58050443146936
 20
171.0435470042481
 30
0.0
  0
POINT
  5
1737
330
156F
100
AcDbEntity
  8
Defpoints
 62
     0
100
AcDbPoint
 10
41.58050443146936
 20
131.0435470042481
 30
0.0
  0
POINT
  5
1738
330
156F
100
AcDbEntity
  8
Defpoints
 62
     0
100
AcDbPoint
 10
26.77173013071449
 20
131.0435470042481
 30
0.0
  0
ENDBLK
  5
157A
330
156F
100
AcDbEntity
  8
0
100
AcDbBlockEnd
  0
BLOCK
  5
1591
330
1587
100
AcDbEntity
  8
0
100
AcDbBlockBegin
  2
*D2
 70
     1
 10
0.0
 20
0.0
 30
0.0
  3
*D2
  1

  0
LINE
  5
1739
330
1587
100
AcDbEntity
  8
sumpo
370
    -2
100
AcDbLine
 10
37.58050443146937
 20
205.6634297275932
 30
0.0
 11
24.58232022041996
 21
205.6634297275932
 31
0.0
  0
LINE
  5
173A
330
1587
100
AcDbEntity
  8
sumpo
370
    -2
100
AcDbLine
 10
37.58050443146939
 20
191.6634297275931
 30
0.0
 11
24.58232022041996
 21
191.6634297275931
 31
0.0
  0
LINE
  5
173B
330
1587
100
AcDbEntity
  8
sumpo
370
    -2
100
AcDbLine
 10
26.58232022041997
 20
201.6634297275932
 30
0.0
 11
26.58232022041996
 21
195.6634297275931
 31
0.0
  0
INSERT
  5
173C
330
1587
100
AcDbEntity
  8
sumpo
370
    -2
100
AcDbBlockReference
  2
_Open30
 10
26.58232022041997
 20
205.6634297275932
 30
0.0
 41
4.0
 42
4.0
 43
4.0
 50
90.0
  0
INSERT
  5
173D
330
1587
100
AcDbEntity
  8
sumpo
370
    -2
100
AcDbBlockReference
  2
_Open30
 10
26.58232022041996
 20
191.6634297275931
 30
0.0
 41
4.0
 42
4.0
 43
4.0
 50
270.0
  0
MTEXT
  5
173E
330
1587
100
AcDbEntity
  8
sumpo
 62
     4
100
AcDbMText
 10
24.08232022041993
 20
198.6634297275931
 30
0.0
 40
3.0
 41
0.0
 71
     5
 72
     1
  1
14
 11
0.0000000000000001
 21
1.0
 31
0.0
 73
     1
 44
1.0
  0
POINT
  5
173F
330
1587
100
AcDbEntity
  8
Defpoints
 62
     0
100
AcDbPoint
 10
41.58050443146936
 20
205.6634297275932
 30
0.0
  0
POINT
  5
1740
330
1587
100
AcDbEntity
  8
Defpoints
 62
     0
100
AcDbPoint
 10
41.58050443146939
 20
191.6634297275931
 30
0.0
  0
POINT
  5
1741
330
1587
100
AcDbEntity
  8
Defpoints
 62
     0
100
AcDbPoint
 10
26.58232022041996
 20
191.6634297275931
 30
0.0
  0
ENDBLK
  5
1592
330
1587
100
AcDbEntity
  8
0
100
AcDbBlockEnd
  0
BLOCK
  5
15C1
330
15B7
100
AcDbEntity
  8
0
100
AcDbBlockBegin
  2
*D3
 70
     1
 10
0.0
 20
0.0
 30
0.0
  3
*D3
  1

  0
LINE
  5
171E
330
15B7
100
AcDbEntity
  8
sumpo
370
    -2
100
AcDbLine
 10
39.58050443146936
 20
129.0435470042481
 30
0.0
 11
39.58050443146936
 21
116.0603069644754
 31
0.0
  0
LINE
  5
171F
330
15B7
100
AcDbEntity
  8
sumpo
370
    -2
100
AcDbLine
 10
89.58050443146936
 20
129.0435470042481
 30
0.0
 11
89.58050443146936
 21
116.0603069644754
 31
0.0
  0
LINE
  5
1720
330
15B7
100
AcDbEntity
  8
sumpo
370
    -2
100
AcDbLine
 10
43.58050443146936
 20
118.0603069644754
 30
0.0
 11
85.58050443146937
 21
118.0603069644754
 31
0.0
  0
INSERT
  5
1721
330
15B7
100
AcDbEntity
  8
sumpo
370
    -2
100
AcDbBlockReference
  2
_Open30
 10
39.58050443146936
 20
118.0603069644754
 30
0.0
 41
4.0
 42
4.0
 43
4.0
 50
180.0
  0
INSERT
  5
1722
330
15B7
100
AcDbEntity
  8
sumpo
370
    -2
100
AcDbBlockReference
  2
_Open30
 10
89.58050443146936
 20
118.0603069644754
 30
0.0
 41
4.0
 42
4.0
 43
4.0
  0
MTEXT
  5
1723
330
15B7
100
AcDbEntity
  8
sumpo
 62
     4
100
AcDbMText
 10
64.58050443146936
 20
120.5603069644755
 30
0.0
 40
3.0
 41
0.0
 71
     5
 72
     1
  1
50
 73
     1
 44
1.0
  0
POINT
  5
1724
330
15B7
100
AcDbEntity
  8
Defpoints
 62
     0
100
AcDbPoint
 10
39.58050443146936
 20
133.0435470042481
 30
0.0
  0
POINT
  5
1725
330
15B7
100
AcDbEntity
  8
Defpoints
 62
     0
100
AcDbPoint
 10
89.58050443146936
 20
133.0435470042481
 30
0.0
  0
POINT
  5
1726
330
15B7
100
AcDbEntity
  8
Defpoints
 62
     0
100
AcDbPoint
 10
89.58050443146936
 20
118.0603069644754
 30
0.0
  0
ENDBLK
  5
15C2
330
15B7
100
AcDbEntity
  8
0
100
AcDbBlockEnd
  0
BLOCK
  5
15D9
330
15CF
100
AcDbEntity
  8
0
100
AcDbBlockBegin
  2
*D4
 70
     1
 10
0.0
 20
0.0
 30
0.0
  3
*D4
  1

  0
LINE
  5
1715
330
15CF
100
AcDbEntity
  8
sumpo
370
    -2
100
AcDbLine
 10
89.58050443146936
 20
129.0435470042481
 30
0.0
 11
89.58050443146936
 21
116.0603069644754
 31
0.0
  0
LINE
  5
1716
330
15CF
100
AcDbEntity
  8
sumpo
370
    -2
100
AcDbLine
 10
169.5805044314693
 20
144.293547004248
 30
0.0
 11
169.5805044314693
 21
116.0603069644754
 31
0.0
  0
LINE
  5
1717
330
15CF
100
AcDbEntity
  8
sumpo
370
    -2
100
AcDbLine
 10
93.58050443146936
 20
118.0603069644754
 30
0.0
 11
165.5805044314693
 21
118.0603069644754
 31
0.0
  0
INSERT
  5
1718
330
15CF
100
AcDbEntity
  8
sumpo
370
    -2
100
AcDbBlockReference
  2
_Open30
 10
89.58050443146936
 20
118.0603069644754
 30
0.0
 41
4.0
 42
4.0
 43
4.0
 50
180.0
  0
INSERT
  5
1719
330
15CF
100
AcDbEntity
  8
sumpo
370
    -2
100
AcDbBlockReference
  2
_Open30
 10
169.5805044314693
 20
118.0603069644754
 30
0.0
 41
4.0
 42
4.0
 43
4.0
  0
MTEXT
  5
171A
330
15CF
100
AcDbEntity
  8
sumpo
 62
     4
100
AcDbMText
 10
129.5805044314693
 20
120.5603069644755
 30
0.0
 40
3.0
 41
0.0
 71
     5
 72
     1
  1
3500
 73
     1
 44
1.0
  0
POINT
  5
171B
330
15CF
100
AcDbEntity
  8
Defpoints
 62
     0
100
AcDbPoint
 10
89.58050443146936
 20
133.0435470042481
 30
0.0
  0
POINT
  5
171C
330
15CF
100
AcDbEntity
  8
Defpoints
 62
     0
100
AcDbPoint
 10
169.5805044314693
 20
148.293547004248
 30
0.0
  0
POINT
  5
171D
330
15CF
100
AcDbEntity
  8
Defpoints
 62
     0
100
AcDbPoint
 10
169.5805044314693
 20
118.0603069644754
 30
0.0
  0
ENDBLK
  5
15DA
330
15CF
100
AcDbEntity
  8
0
100
AcDbBlockEnd
  0
BLOCK
  5
15F2
330
15E8
100
AcDbEntity
  8
0
100
AcDbBlockBegin
  2
*D5
 70
     1
 10
0.0
 20
0.0
 30
0.0
  3
*D5
  1

  0
LINE
  5
170C
330
15E8
100
AcDbEntity
  8
sumpo
370
    -2
100
AcDbLine
 10
169.5805044314693
 20
144.293547004248
 30
0.0
 11
169.5805044314693
 21
116.0603069644754
 31
0.0
  0
LINE
  5
170D
330
15E8
100
AcDbEntity
  8
sumpo
370
    -2
100
AcDbLine
 10
184.8515341267062
 20
143.382924949097
 30
0.0
 11
184.8515341267062
 21
116.0603069644754
 31
0.0
  0
LINE
  5
170E
330
15E8
100
AcDbEntity
  8
sumpo
370
    -2
100
AcDbLine
 10
173.5805044314693
 20
118.0603069644754
 30
0.0
 11
180.8515341267062
 21
118.0603069644754
 31
0.0
  0
INSERT
  5
170F
330
15E8
100
AcDbEntity
  8
sumpo
370
    -2
100
AcDbBlockReference
  2
_Open30
 10
169.5805044314693
 20
118.0603069644754
 30
0.0
 41
4.0
 42
4.0
 43
4.0
 50
180.0
  0
INSERT
  5
1710
330
15E8
100
AcDbEntity
  8
sumpo
370
    -2
100
AcDbBlockReference
  2
_Open30
 10
184.8515341267062
 20
118.0603069644754
 30
0.0
 41
4.0
 42
4.0
 43
4.0
  0
MTEXT
  5
1711
330
15E8
100
AcDbEntity
  8
sumpo
 62
     4
100
AcDbMText
 10
177.2160192790878
 20
120.5603069644755
 30
0.0
 40
3.0
 41
0.0
 71
     5
 72
     1
  1
30
 73
     1
 44
1.0
  0
POINT
  5
1712
330
15E8
100
AcDbEntity
  8
Defpoints
 62
     0
100
AcDbPoint
 10
169.5805044314693
 20
148.293547004248
 30
0.0
  0
POINT
  5
1713
330
15E8
100
AcDbEntity
  8
Defpoints
 62
     0
100
AcDbPoint
 10
184.8515341267062
 20
147.382924949097
 30
0.0
  0
POINT
  5
1714
330
15E8
100
AcDbEntity
  8
Defpoints
 62
     0
100
AcDbPoint
 10
184.8515341267062
 20
118.0603069644754
 30
0.0
  0
ENDBLK
  5
15F3
330
15E8
100
AcDbEntity
  8
0
100
AcDbBlockEnd
  0
ENDSEC
  0
SECTION
  2
ENTITIES
  0
TEXT
  5
12A3
330
21
100
AcDbEntity
  8
zubanmoji
100
AcDbText
 10
387.5794558289331
 20
727.3666329742143
 30
0.0
 40
8.0
  1
 
100
AcDbText
  0
TEXT
  5
12A5
330
21
100
AcDbEntity
  8
zubanmoji
100
AcDbText
 10
396.3118100227534
 20
658.3374339419963
 30
0.0
 40
5.0
  1

100
AcDbText
  0
LINE
  5
12EF
330
21
100
AcDbEntity
  8
gaikei
100
AcDbLine
 10
39.58050443146936
 20
203.6634297275932
 30
0.0
 11
39.5805044314694
 21
193.6634297275931
 31
0.0
  0
LINE
  5
12F0
330
21
100
AcDbEntity
  8
gaikei
100
AcDbLine
 10
89.58050443146934
 20
203.6634297275931
 30
0.0
 11
89.58050443146936
 21
193.6634297275931
 31
0.0
  0
LINE
  5
12F2
330
21
100
AcDbEntity
  8
gaikei
100
AcDbLine
 10
41.58050443146936
 20
205.6634297275932
 30
0.0
 11
87.58050443146933
 21
205.6634297275931
 31
0.0
  0
LINE
  5
12F3
102
{ACAD_REACTORS
330
159D
102
}
330
21
100
AcDbEntity
  8
gaikei
100
AcDbLine
 10
41.58050443146939
 20
191.6634297275931
 30
0.0
 11
54.58050443146936
 21
191.6634297275931
 31
0.0
  0
LINE
  5
12F5
330
21
100
AcDbEntity
  8
gaikei
100
AcDbLine
 10
41.58050443146936
 20
225.7261441308348
 30
0.0
 11
87.58050443146936
 21
225.7261441308348
 31
0.0
  0
LINE
  5
12F6
330
21
100
AcDbEntity
  8
gaikei
100
AcDbLine
 10
89.58050443146936
 20
227.7261441308348
 30
0.0
 11
89.58050443146934
 21
263.7261441308348
 31
0.0
  0
LINE
  5
12F7
330
21
100
AcDbEntity
  8
gaikei
100
AcDbLine
 10
87.58050443146933
 20
265.7261441308348
 30
0.0
 11
41.58050443146936
 21
265.7261441308348
 31
0.0
  0
LINE
  5
12F8
330
21
100
AcDbEntity
  8
gaikei
100
AcDbLine
 10
39.58050443146936
 20
263.7261441308348
 30
0.0
 11
39.58050443146936
 21
227.7261441308348
 31
0.0
  0
LINE
  5
12F9
330
21
100
AcDbEntity
  8
gaikei
100
AcDbLine
 10
41.58050443146936
 20
131.0435470042481
 30
0.0
 11
87.58050443146936
 21
131.0435470042481
 31
0.0
  0
LINE
  5
12FA
330
21
100
AcDbEntity
  8
gaikei
100
AcDbLine
 10
89.58050443146936
 20
133.0435470042481
 30
0.0
 11
89.58050443146936
 21
169.0435470042481
 31
0.0
  0
LINE
  5
12FB
330
21
100
AcDbEntity
  8
gaikei
100
AcDbLine
 10
87.58050443146936
 20
171.0435470042481
 30
0.0
 11
41.58050443146936
 21
171.0435470042481
 31
0.0
  0
LINE
  5
12FC
330
21
100
AcDbEntity
  8
gaikei
100
AcDbLine
 10
39.58050443146936
 20
169.0435470042481
 30
0.0
 11
39.58050443146936
 21
133.0435470042481
 31
0.0
  0
ARC
  5
12FF
330
21
100
AcDbEntity
  8
gaikei
100
AcDbCircle
 10
41.58050443146936
 20
263.7261441308348
 30
0.0
 40
2.0
100
AcDbArc
 50
90.0
 51
180.0
  0
ARC
  5
1300
330
21
100
AcDbEntity
  8
gaikei
100
AcDbCircle
 10
41.58050443146936
 20
227.7261441308348
 30
0.0
 40
2.0
100
AcDbArc
 50
180.0
 51
270.0
  0
ARC
  5
1301
330
21
100
AcDbEntity
  8
gaikei
100
AcDbCircle
 10
87.58050443146936
 20
227.7261441308348
 30
0.0
 40
2.0
100
AcDbArc
 50
270.0
 51
0.0
  0
ARC
  5
1302
330
21
100
AcDbEntity
  8
gaikei
100
AcDbCircle
 10
87.58050443146933
 20
263.7261441308348
 30
0.0
 40
2.0
100
AcDbArc
 50
0.0
 51
90.0
  0
ARC
  5
1303
330
21
100
AcDbEntity
  8
gaikei
100
AcDbCircle
 10
87.58050443146933
 20
203.6634297275931
 30
0.0
 40
2.0
100
AcDbArc
 50
0.0
 51
90.0
  0
ARC
  5
1304
330
21
100
AcDbEntity
  8
gaikei
100
AcDbCircle
 10
87.58050443146936
 20
193.6634297275931
 30
0.0
 40
2.0
100
AcDbArc
 50
270.0
 51
0.0000000000001272
  0
ARC
  5
1305
330
21
100
AcDbEntity
  8
gaikei
100
AcDbCircle
 10
41.58050443146939
 20
193.6634297275931
 30
0.0
 40
2.0
100
AcDbArc
 50
180.0
 51
270.0000000000001
  0
ARC
  5
1306
102
{ACAD_REACTORS
330
159D
102
}
330
21
100
AcDbEntity
  8
gaikei
100
AcDbCircle
 10
41.58050443146936
 20
203.6634297275932
 30
0.0
 40
2.0
100
AcDbArc
 50
89.99999999999996
 51
180.0
  0
ARC
  5
1307
102
{ACAD_REACTORS
330
1585
102
}
330
21
100
AcDbEntity
  8
gaikei
100
AcDbCircle
 10
41.58050443146936
 20
169.0435470042481
 30
0.0
 40
2.0
100
AcDbArc
 50
90.0
 51
180.0
  0
ARC
  5
1308
102
{ACAD_REACTORS
330
1585
330
15CD
102
}
330
21
100
AcDbEntity
  8
gaikei
100
AcDbCircle
 10
41.58050443146936
 20
133.0435470042481
 30
0.0
 40
2.0
100
AcDbArc
 50
180.0
 51
270.0
  0
ARC
  5
1309
102
{ACAD_REACTORS
330
15CD
330
15E5
102
}
330
21
100
AcDbEntity
  8
gaikei
100
AcDbCircle
 10
87.58050443146936
 20
133.0435470042481
 30
0.0
 40
2.0
100
AcDbArc
 50
270.0
 51
0.0
  0
ARC
  5
130A
330
21
100
AcDbEntity
  8
gaikei
100
AcDbCircle
 10
87.58050443146936
 20
169.0435470042481
 30
0.0
 40
2.0
100
AcDbArc
 50
0.0
 51
90.0
  0
LINE
  5
130C
330
21
100
AcDbEntity
  8
gaikei
100
AcDbLine
 10
91.58050443146937
 20
240.7261441308347
 30
0.0
 11
91.58050443146937
 21
250.7261441308348
 31
0.0
  0
LINE
  5
130D
330
21
100
AcDbEntity
  8
gaikei
100
AcDbLine
 10
93.58050443146934
 20
240.7261441308347
 30
0.0
 11
93.58050443146934
 21
250.7261441308348
 31
0.0
  0
LINE
  5
130E
330
21
100
AcDbEntity
  8
gaikei
100
AcDbLine
 10
95.58050443146937
 20
240.7261441308348
 30
0.0
 11
95.58050443146933
 21
250.7261441308348
 31
0.0
  0
LINE
  5
130F
330
21
100
AcDbEntity
  8
gaikei
100
AcDbLine
 10
97.58050443146935
 20
240.7261441308348
 30
0.0
 11
97.58050443146935
 21
250.7261441308346
 31
0.0
  0
LINE
  5
1310
330
21
100
AcDbEntity
  8
gaikei
100
AcDbLine
 10
99.58050443146937
 20
240.7261441308348
 30
0.0
 11
99.5805044314693
 21
250.7261441308348
 31
0.0
  0
LINE
  5
1311
330
21
100
AcDbEntity
  8
gaikei
100
AcDbLine
 10
101.5805044314693
 20
240.7261441308348
 30
0.0
 11
101.5805044314693
 21
250.7261441308348
 31
0.0
  0
LINE
  5
1313
330
21
100
AcDbEntity
  8
gaikei
100
AcDbLine
 10
89.58050443146936
 20
248.4761441308348
 30
0.0
 11
91.58050443146937
 21
248.4761441308348
 31
0.0
  0
LINE
  5
1314
330
21
100
AcDbEntity
  8
gaikei
100
AcDbLine
 10
89.58050443146936
 20
242.9761441308347
 30
0.0
 11
91.58050443146937
 21
242.9761441308347
 31
0.0
  0
LINE
  5
1315
330
21
100
AcDbEntity
  8
gaikei
100
AcDbLine
 10
91.58050443146937
 20
250.7261441308348
 30
0.0
 11
93.58050443146934
 21
250.7261441308348
 31
0.0
  0
LINE
  5
1316
330
21
100
AcDbEntity
  8
gaikei
100
AcDbLine
 10
91.58050443146937
 20
240.7261441308347
 30
0.0
 11
93.58050443146934
 21
240.7261441308347
 31
0.0
  0
LINE
  5
1317
330
21
100
AcDbEntity
  8
gaikei
100
AcDbLine
 10
95.58050443146933
 20
250.7261441308348
 30
0.0
 11
97.58050443146935
 21
250.7261441308346
 31
0.0
  0
LINE
  5
1318
330
21
100
AcDbEntity
  8
gaikei
100
AcDbLine
 10
99.5805044314693
 20
250.7261441308348
 30
0.0
 11
101.5805044314693
 21
250.7261441308348
 31
0.0
  0
LINE
  5
1319
330
21
100
AcDbEntity
  8
gaikei
100
AcDbLine
 10
99.58050443146937
 20
240.7261441308348
 30
0.0
 11
101.5805044314693
 21
240.7261441308348
 31
0.0
  0
LINE
  5
131A
330
21
100
AcDbEntity
  8
gaikei
100
AcDbLine
 10
95.58050443146937
 20
240.7261441308348
 30
0.0
 11
97.58050443146935
 21
240.7261441308348
 31
0.0
  0
LINE
  5
131B
330
21
100
AcDbEntity
  8
gaikei
100
AcDbLine
 10
93.58050443146934
 20
248.4761441308348
 30
0.0
 11
95.58050443146933
 21
248.4761441308348
 31
0.0
  0
LINE
  5
131C
330
21
100
AcDbEntity
  8
gaikei
100
AcDbLine
 10
97.58050443146935
 20
248.4761441308348
 30
0.0
 11
99.5805044314693
 21
248.4761441308348
 31
0.0
  0
LINE
  5
131D
330
21
100
AcDbEntity
  8
gaikei
100
AcDbLine
 10
101.5805044314693
 20
248.4761441308348
 30
0.0
 11
102.5805044314693
 21
248.4761441308348
 31
0.0
  0
LINE
  5
131E
330
21
100
AcDbEntity
  8
gaikei
100
AcDbLine
 10
101.5805044314693
 20
242.9761441308347
 30
0.0
 11
102.5805044314693
 21
242.9761441308347
 31
0.0
  0
LINE
  5
131F
330
21
100
AcDbEntity
  8
gaikei
100
AcDbLine
 10
97.58050443146935
 20
242.9761441308347
 30
0.0
 11
99.58050443146934
 21
242.9761441308347
 31
0.0
  0
LINE
  5
1320
330
21
100
AcDbEntity
  8
gaikei
100
AcDbLine
 10
93.58050443146934
 20
242.9761441308347
 30
0.0
 11
95.58050443146933
 21
242.9761441308347
 31
0.0
  0
LINE
  5
1322
330
21
100
AcDbEntity
  8
gaikei
100
AcDbLine
 10
102.5805044314693
 20
248.9761441308348
 30
0.0
 11
112.5805044314693
 21
248.9761441308348
 31
0.0
  0
LINE
  5
1323
330
21
100
AcDbEntity
  8
gaikei
100
AcDbLine
 10
102.5805044314693
 20
242.4761441308347
 30
0.0
 11
112.5805044314693
 21
242.4761441308347
 31
0.0
  0
LINE
  5
1325
330
21
100
AcDbEntity
  8
gaikei
100
AcDbLine
 10
102.5805044314693
 20
242.4761441308347
 30
0.0
 11
102.5805044314693
 21
248.9761441308348
 31
0.0
  0
LINE
  5
1327
330
21
100
AcDbEntity
  8
gaikei
100
AcDbLine
 10
112.5805044314693
 20
242.4761441308347
 30
0.0
 11
112.5805044314693
 21
248.9761441308348
 31
0.0
  0
LINE
  5
1328
330
21
100
AcDbEntity
  8
gaikei
100
AcDbLine
 10
112.5805044314693
 20
248.4761441308348
 30
0.0
 11
121.2306618429076
 21
248.4761441308348
 31
0.0
  0
LINE
  5
1329
330
21
100
AcDbEntity
  8
gaikei
100
AcDbLine
 10
112.5805044314693
 20
242.9761441308348
 30
0.0
 11
122.2039449138156
 21
242.9761441308347
 31
0.0
  0
LINE
  5
132A
330
21
100
AcDbEntity
  8
gaikei
100
AcDbLine
 10
79.58050443146937
 20
239.7261441308348
 30
0.0
 11
79.58050443146932
 21
251.7261441308348
 31
0.0
  0
CIRCLE
  5
132D
330
21
100
AcDbEntity
  8
gaikei
100
AcDbCircle
 10
75.58050443146933
 20
258.7261441308348
 30
0.0
 40
4.5
  0
CIRCLE
  5
132E
330
21
100
AcDbEntity
  8
gaikei
100
AcDbCircle
 10
75.58050443146936
 20
232.7261441308348
 30
0.0
 40
4.5
  0
CIRCLE
  5
132F
330
21
100
AcDbEntity
  8
gaikei
100
AcDbCircle
 10
75.58050443146933
 20
258.7261441308348
 30
0.0
 40
4.0
  0
CIRCLE
  5
1330
330
21
100
AcDbEntity
  8
gaikei
100
AcDbCircle
 10
75.58050443146936
 20
232.7261441308348
 30
0.0
 40
4.0
  0
LINE
  5
1332
330
21
100
AcDbEntity
  8
gaikei
100
AcDbLine
 10
49.58050443146936
 20
239.7261441308347
 30
0.0
 11
49.58050443146936
 21
251.7261441308347
 31
0.0
  0
LINE
  5
1335
330
21
100
AcDbEntity
  8
gaikei
100
AcDbLine
 10
78.58050443146932
 20
252.7261441308348
 30
0.0
 11
50.58050443146936
 21
252.7261441308346
 31
0.0
  0
LINE
  5
1336
330
21
100
AcDbEntity
  8
gaikei
100
AcDbLine
 10
78.58050443146938
 20
238.7261441308348
 30
0.0
 11
50.58050443146936
 21
238.7261441308347
 31
0.0
  0
ARC
  5
1337
330
21
100
AcDbEntity
  8
gaikei
100
AcDbCircle
 10
78.58050443146932
 20
251.7261441308348
 30
0.0
 40
1.0
100
AcDbArc
 50
0.0000000000001145
 51
90.0000000000001
  0
ARC
  5
1338
330
21
100
AcDbEntity
  8
gaikei
100
AcDbCircle
 10
78.58050443146938
 20
239.7261441308348
 30
0.0
 40
1.0
100
AcDbArc
 50
270.0000000000002
 51
0.0000000000001781
  0
ARC
  5
1339
330
21
100
AcDbEntity
  8
gaikei
100
AcDbCircle
 10
50.58050443146936
 20
239.7261441308347
 30
0.0
 40
1.0
100
AcDbArc
 50
180.0
 51
270.0000000000002
  0
ARC
  5
133A
330
21
100
AcDbEntity
  8
gaikei
100
AcDbCircle
 10
50.58050443146936
 20
251.7261441308347
 30
0.0
 40
1.0
100
AcDbArc
 50
90.00000000000012
 51
180.0
  0
CIRCLE
  5
133C
330
21
100
AcDbEntity
  8
gaikei
100
AcDbCircle
 10
59.08050443146937
 20
245.7261441308347
 30
0.0
 40
2.0
  0
CIRCLE
  5
133D
330
21
100
AcDbEntity
  8
gaikei
100
AcDbCircle
 10
59.08050443146937
 20
245.7261441308347
 30
0.0
 40
2.5
  0
LINE
  5
133F
330
21
100
AcDbEntity
  8
gaikei
100
AcDbLine
 10
63.08050443146936
 20
171.0435470042481
 30
0.0
 11
63.08050443146936
 21
131.0435470042481
 31
0.0
  0
LINE
  5
1340
330
21
100
AcDbEntity
  8
gaikei
100
AcDbLine
 10
64.08050443146937
 20
171.0435470042481
 30
0.0
 11
64.08050443146937
 21
131.0435470042481
 31
0.0
  0
LINE
  5
1342
330
21
100
AcDbEntity
  8
gaikei
100
AcDbLine
 10
39.58050443146936
 20
153.2935470042481
 30
0.0
 11
43.58050443146936
 21
153.2935470042481
 31
0.0
  0
LINE
  5
1343
330
21
100
AcDbEntity
  8
gaikei
100
AcDbLine
 10
39.58050443146936
 20
148.7935470042481
 30
0.0
 11
43.58050443146936
 21
148.7935470042481
 31
0.0
  0
LINE
  5
1344
330
21
100
AcDbEntity
  8
gaikei
100
AcDbLine
 10
43.58050443146936
 20
156.0435470042482
 30
0.0
 11
43.58050443146936
 21
153.2935470042481
 31
0.0
  0
LINE
  5
1345
330
21
100
AcDbEntity
  8
gaikei
100
AcDbLine
 10
46.08050443146936
 20
156.0435470042482
 30
0.0
 11
46.08050443146936
 21
153.2935470042481
 31
0.0
  0
LINE
  5
1346
330
21
100
AcDbEntity
  8
gaikei
100
AcDbLine
 10
46.08050443146936
 20
153.2935470042481
 30
0.0
 11
54.58050443146936
 21
153.2935470042481
 31
0.0
  0
LINE
  5
1347
330
21
100
AcDbEntity
  8
gaikei
100
AcDbLine
 10
46.08050443146936
 20
148.7935470042481
 30
0.0
 11
54.58050443146936
 21
148.7935470042482
 31
0.0
  0
LINE
  5
1348
330
21
100
AcDbEntity
  8
gaikei
100
AcDbLine
 10
43.58050443146936
 20
148.7935470042481
 30
0.0
 11
43.58050443146936
 21
146.0435470042481
 31
0.0
  0
LINE
  5
1349
330
21
100
AcDbEntity
  8
gaikei
100
AcDbLine
 10
46.08050443146936
 20
148.7935470042481
 30
0.0
 11
46.08050443146936
 21
146.0435470042481
 31
0.0
  0
LINE
  5
134B
330
21
100
AcDbEntity
  8
gaikei
100
AcDbLine
 10
54.58050443146936
 20
171.0435470042481
 30
0.0
 11
54.58050443146936
 21
131.0435470042481
 31
0.0
  0
ARC
  5
1350
330
21
100
AcDbEntity
  8
gaikei
100
AcDbCircle
 10
44.83050443146936
 20
146.0435470042481
 30
0.0
 40
1.249999999999971
100
AcDbArc
 50
180.0
 51
0.0
  0
ARC
  5
1353
330
21
100
AcDbEntity
  8
gaikei
100
AcDbCircle
 10
44.83050443146936
 20
156.0435470042482
 30
0.0
 40
1.25
100
AcDbArc
 50
0.0
 51
180.0
  0
LINE
  5
138B
330
21
100
AcDbEntity
  8
gaikei
100
AcDbLine
 10
54.58050443146936
 20
146.5435470042481
 30
0.0
 11
63.08050443146936
 21
146.5435470042481
 31
0.0
  0
LINE
  5
138C
330
21
100
AcDbEntity
  8
gaikei
100
AcDbLine
 10
54.58050443146936
 20
147.5435470042481
 30
0.0
 11
63.08050443146936
 21
147.5435470042481
 31
0.0
  0
LINE
  5
138D
330
21
100
AcDbEntity
  8
gaikei
100
AcDbLine
 10
54.58050443146936
 20
154.5435470042482
 30
0.0
 11
63.08050443146936
 21
154.5435470042481
 31
0.0
  0
LINE
  5
138E
330
21
100
AcDbEntity
  8
gaikei
100
AcDbLine
 10
54.58050443146936
 20
155.5435470042482
 30
0.0
 11
63.08050443146936
 21
155.5435470042481
 31
0.0
  0
CIRCLE
  5
1391
330
21
100
AcDbEntity
  8
gaikei
100
AcDbCircle
 10
59.08050443146937
 20
151.0435470042481
 30
0.0
 40
2.5
  0
CIRCLE
  5
1392
330
21
100
AcDbEntity
  8
gaikei
100
AcDbCircle
 10
59.08050443146937
 20
151.0435470042481
 30
0.0
 40
2.0
  0
SPLINE
  5
139C
330
21
100
AcDbEntity
  8
gaikei
100
AcDbSpline
210
0.0
220
0.0
230
1.0
 70
     8
 71
     3
 72
    10
 73
     6
 74
     4
 42
0.0000000001
 43
0.0000000001
 44
0.0000000001
 40
0.0
 40
0.0
 40
0.0
 40
0.0
 40
3.43160758143101
 40
6.332889899299121
 40
10.12774878086557
 40
10.12774878086557
 40
10.12774878086557
 40
10.12774878086557
 10
122.3005179378129
 20
250.0540468501147
 30
0.0
 10
121.4972925141334
 20
248.9908789986292
 30
0.0
 10
120.0149732069943
 20
247.0288466892342
 30
0.0
 10
123.2741495746385
 20
244.1409183886061
 30
0.0
 10
121.7744155383831
 20
242.0210132338953
 30
0.0
 10
120.9244813960218
 20
240.8196137017121
 30
0.0
 11
122.3005179378129
 21
250.0540468501147
 31
0.0
 11
120.9244813960218
 21
246.9104097800014
 31
0.0
 11
122.3005179378129
 21
244.356204908886
 31
0.0
 11
120.9244813960218
 21
240.8196137017121
 31
0.0
  0
SPLINE
  5
139D
330
21
100
AcDbEntity
  8
gaikei
100
AcDbSpline
210
0.0
220
0.0
230
1.0
 70
     8
 71
     3
 72
    10
 73
     6
 74
     4
 42
0.0000000001
 43
0.0000000001
 44
0.0000000001
 40
0.0
 40
0.0
 40
0.0
 40
0.0
 40
3.43160758143101
 40
6.332889899299121
 40
10.12774878086557
 40
10.12774878086557
 40
10.12774878086557
 40
10.12774878086557
 10
124.2946329018213
 20
249.900731781326
 30
0.0
 10
123.4914074781418
 20
248.8375639298405
 30
0.0
 10
122.0090881710027
 20
246.8755316204457
 30
0.0
 10
125.2682645386469
 20
243.9876033198174
 30
0.0
 10
123.7685305023915
 20
241.8676981651066
 30
0.0
 10
122.9185963600302
 20
240.6662986329235
 30
0.0
 11
124.2946329018213
 21
249.900731781326
 31
0.0
 11
122.9185963600302
 21
246.7570947112128
 31
0.0
 11
124.2946329018213
 21
244.2028898400974
 31
0.0
 11
122.9185963600302
 21
240.6662986329235
 31
0.0
  0
LINE
  5
13A4
330
21
100
AcDbEntity
  8
gaikei
100
AcDbLine
 10
123.3081431071111
 20
248.4761441308348
 30
0.0
 11
169.5805044314693
 21
248.4761441308346
 31
0.0
  0
LINE
  5
13A5
330
21
100
AcDbEntity
  8
gaikei
100
AcDbLine
 10
124.2492638016253
 20
242.9761441308348
 30
0.0
 11
169.5805044314693
 21
242.9761441308347
 31
0.0
  0
LINE
  5
13A8
330
21
100
AcDbEntity
  8
gaikei
100
AcDbLine
 10
169.5805044314693
 20
242.9761441308347
 30
0.0
 11
169.5805044314693
 21
248.4761441308346
 31
0.0
  0
LINE
  5
13A9
330
21
100
AcDbEntity
  8
gaikei
100
AcDbLine
 10
169.5805044314693
 20
245.7261441308347
 30
0.0
 11
178.8515341267062
 21
248.2103090506783
 31
0.0
  0
LINE
  5
13AA
330
21
100
AcDbEntity
  8
gaikei
100
AcDbLine
 10
169.5805044314693
 20
247.2790584014497
 30
0.0
 11
178.8515341267062
 21
249.7632233212935
 31
0.0
  0
LINE
  5
13AC
330
21
100
AcDbEntity
  8
gaikei
100
AcDbLine
 10
178.8515341267062
 20
249.7632233212935
 30
0.0
 11
178.8515341267062
 21
248.2103090506783
 31
0.0
  0
LINE
  5
13B1
330
21
100
AcDbEntity
  8
gaikei
100
AcDbLine
 10
184.8515341267062
 20
249.3867661859858
 30
0.0
 11
184.8515341267062
 21
248.5867661859859
 31
0.0
  0
LINE
  5
13B2
330
21
100
AcDbEntity
  8
gaikei
100
AcDbLine
 10
178.8515341267062
 20
249.3867661859858
 30
0.0
 11
184.8515341267062
 21
249.3867661859858
 31
0.0
  0
LINE
  5
13B4
330
21
100
AcDbEntity
  8
gaikei
100
AcDbLine
 10
178.8515341267062
 20
248.5867661859859
 30
0.0
 11
184.8515341267062
 21
248.5867661859859
 31
0.0
  0
LINE
  5
13B5
330
21
100
AcDbEntity
  8
gaikei
100
AcDbLine
 10
169.5805044314693
 20
244.1732298602197
 30
0.0
 11
178.8515341267062
 21
241.689064940376
 31
0.0
  0
LINE
  5
13B6
330
21
100
AcDbEntity
  8
gaikei
100
AcDbLine
 10
169.5805044314693
 20
245.7261441308348
 30
0.0
 11
178.8515341267062
 21
243.2419792109912
 31
0.0
  0
LINE
  5
13B7
330
21
100
AcDbEntity
  8
gaikei
100
AcDbLine
 10
178.8515341267062
 20
242.8655220756836
 30
0.0
 11
184.8515341267062
 21
242.8655220756836
 31
0.0
  0
LINE
  5
13B8
330
21
100
AcDbEntity
  8
gaikei
100
AcDbLine
 10
178.8515341267062
 20
242.0655220756836
 30
0.0
 11
184.8515341267062
 21
242.0655220756836
 31
0.0
  0
LINE
  5
13B9
330
21
100
AcDbEntity
  8
gaikei
100
AcDbLine
 10
184.8515341267062
 20
242.0655220756836
 30
0.0
 11
184.8515341267062
 21
242.8655220756836
 31
0.0
  0
LINE
  5
13BA
330
21
100
AcDbEntity
  8
gaikei
100
AcDbLine
 10
178.8515341267062
 20
241.689064940376
 30
0.0
 11
178.8515341267062
 21
243.2419792109912
 31
0.0
  0
LINE
  5
13BB
330
21
100
AcDbEntity
  8
gaikei
100
AcDbLine
 10
178.8515341267062
 20
194.6263505371344
 30
0.0
 11
178.8515341267062
 21
196.1792648077495
 31
0.0
  0
LINE
  5
13BC
330
21
100
AcDbEntity
  8
gaikei
100
AcDbLine
 10
184.8515341267062
 20
195.002807672442
 30
0.0
 11
184.8515341267062
 21
195.8028076724419
 31
0.0
  0
LINE
  5
13BD
330
21
100
AcDbEntity
  8
gaikei
100
AcDbLine
 10
178.8515341267062
 20
195.002807672442
 30
0.0
 11
184.8515341267062
 21
195.002807672442
 31
0.0
  0
LINE
  5
13BE
330
21
100
AcDbEntity
  8
gaikei
100
AcDbLine
 10
178.8515341267062
 20
195.8028076724419
 30
0.0
 11
184.8515341267062
 21
195.8028076724419
 31
0.0
  0
LINE
  5
13BF
330
21
100
AcDbEntity
  8
gaikei
100
AcDbLine
 10
169.5805044314693
 20
198.6634297275931
 30
0.0
 11
178.8515341267062
 21
196.1792648077495
 31
0.0
  0
LINE
  5
13C0
330
21
100
AcDbEntity
  8
gaikei
100
AcDbLine
 10
169.5805044314693
 20
197.110515456978
 30
0.0
 11
178.8515341267062
 21
194.6263505371344
 31
0.0
  0
LINE
  5
13C1
330
21
100
AcDbEntity
  8
gaikei
100
AcDbLine
 10
178.8515341267062
 20
201.5240517827443
 30
0.0
 11
184.8515341267062
 21
201.5240517827443
 31
0.0
  0
LINE
  5
13C2
330
21
100
AcDbEntity
  8
gaikei
100
AcDbLine
 10
178.8515341267062
 20
202.3240517827443
 30
0.0
 11
184.8515341267062
 21
202.3240517827443
 31
0.0
  0
LINE
  5
13C3
330
21
100
AcDbEntity
  8
gaikei
100
AcDbLine
 10
184.8515341267062
 20
202.3240517827443
 30
0.0
 11
184.8515341267062
 21
201.5240517827443
 31
0.0
  0
LINE
  5
13C4
330
21
100
AcDbEntity
  8
gaikei
100
AcDbLine
 10
178.8515341267062
 20
202.7005089180518
 30
0.0
 11
178.8515341267062
 21
201.1475946474367
 31
0.0
  0
LINE
  5
13C5
330
21
100
AcDbEntity
  8
gaikei
100
AcDbLine
 10
169.5805044314693
 20
200.2163439982081
 30
0.0
 11
178.8515341267062
 21
202.7005089180518
 31
0.0
  0
LINE
  5
13C6
330
21
100
AcDbEntity
  8
gaikei
100
AcDbLine
 10
169.5805044314693
 20
198.663429727593
 30
0.0
 11
178.8515341267062
 21
201.1475946474367
 31
0.0
  0
LINE
  5
13C7
330
21
100
AcDbEntity
  8
gaikei
100
AcDbLine
 10
169.5805044314693
 20
195.913429727593
 30
0.0
 11
169.5805044314693
 21
201.4134297275931
 31
0.0
  0
LINE
  5
13C8
330
21
100
AcDbEntity
  8
gaikei
100
AcDbLine
 10
124.2492638016253
 20
195.9134297275931
 30
0.0
 11
169.5805044314693
 21
195.913429727593
 31
0.0
  0
LINE
  5
13C9
330
21
100
AcDbEntity
  8
gaikei
100
AcDbLine
 10
123.3081431071111
 20
201.4134297275932
 30
0.0
 11
169.5805044314693
 21
201.4134297275931
 31
0.0
  0
SPLINE
  5
13CA
330
21
100
AcDbEntity
  8
gaikei
100
AcDbSpline
210
0.0
220
0.0
230
1.0
 70
     8
 71
     3
 72
    10
 73
     6
 74
     4
 42
0.0000000001
 43
0.0000000001
 44
0.0000000001
 40
0.0
 40
0.0
 40
0.0
 40
0.0
 40
3.431607581431036
 40
6.332889899299146
 40
10.12774878086559
 40
10.12774878086559
 40
10.12774878086559
 40
10.12774878086559
 10
124.2946329018213
 20
202.8380173780845
 30
0.0
 10
123.4914074781418
 20
201.7748495265989
 30
0.0
 10
122.0090881710027
 20
199.8128172172039
 30
0.0
 10
125.2682645386469
 20
196.9248889165758
 30
0.0
 10
123.7685305023915
 20
194.804983761865
 30
0.0
 10
122.9185963600302
 20
193.6035842296819
 30
0.0
 11
124.2946329018213
 21
202.8380173780845
 31
0.0
 11
122.9185963600302
 21
199.6943803079711
 31
0.0
 11
124.2946329018213
 21
197.1401754368557
 31
0.0
 11
122.9185963600302
 21
193.6035842296819
 31
0.0
  0
SPLINE
  5
13CB
330
21
100
AcDbEntity
  8
gaikei
100
AcDbSpline
210
0.0
220
0.0
230
1.0
 70
     8
 71
     3
 72
    10
 73
     6
 74
     4
 42
0.0000000001
 43
0.0000000001
 44
0.0000000001
 40
0.0
 40
0.0
 40
0.0
 40
0.0
 40
3.431607581431036
 40
6.332889899299146
 40
10.12774878086559
 40
10.12774878086559
 40
10.12774878086559
 40
10.12774878086559
 10
122.3005179378129
 20
202.9913324468731
 30
0.0
 10
121.4972925141334
 20
201.9281645953876
 30
0.0
 10
120.0149732069943
 20
199.9661322859926
 30
0.0
 10
123.2741495746385
 20
197.0782039853644
 30
0.0
 10
121.7744155383831
 20
194.9582988306537
 30
0.0
 10
120.9244813960218
 20
193.7568992984705
 30
0.0
 11
122.3005179378129
 21
202.9913324468731
 31
0.0
 11
120.9244813960218
 21
199.8476953767598
 31
0.0
 11
122.3005179378129
 21
197.2934905056444
 31
0.0
 11
120.9244813960218
 21
193.7568992984705
 31
0.0
  0
LINE
  5
13CC
330
21
100
AcDbEntity
  8
gaikei
100
AcDbLine
 10
112.5805044314693
 20
195.9134297275931
 30
0.0
 11
122.2039449138156
 21
195.9134297275931
 31
0.0
  0
LINE
  5
13CD
330
21
100
AcDbEntity
  8
gaikei
100
AcDbLine
 10
112.5805044314693
 20
201.4134297275932
 30
0.0
 11
121.2306618429076
 21
201.4134297275931
 31
0.0
  0
LINE
  5
13CE
330
21
100
AcDbEntity
  8
gaikei
100
AcDbLine
 10
112.5805044314693
 20
195.4134297275931
 30
0.0
 11
112.5805044314693
 21
201.9134297275931
 31
0.0
  0
LINE
  5
13CF
330
21
100
AcDbEntity
  8
gaikei
100
AcDbLine
 10
102.5805044314693
 20
195.4134297275931
 30
0.0
 11
102.5805044314693
 21
201.9134297275932
 31
0.0
  0
LINE
  5
13D0
330
21
100
AcDbEntity
  8
gaikei
100
AcDbLine
 10
102.5805044314693
 20
195.4134297275931
 30
0.0
 11
112.5805044314693
 21
195.4134297275931
 31
0.0
  0
LINE
  5
13D1
330
21
100
AcDbEntity
  8
gaikei
100
AcDbLine
 10
102.5805044314693
 20
201.9134297275932
 30
0.0
 11
112.5805044314693
 21
201.9134297275931
 31
0.0
  0
LINE
  5
13D2
330
21
100
AcDbEntity
  8
gaikei
100
AcDbLine
 10
93.58050443146934
 20
195.9134297275931
 30
0.0
 11
95.58050443146933
 21
195.9134297275931
 31
0.0
  0
LINE
  5
13D3
330
21
100
AcDbEntity
  8
gaikei
100
AcDbLine
 10
97.58050443146935
 20
195.9134297275931
 30
0.0
 11
99.58050443146934
 21
195.9134297275931
 31
0.0
  0
LINE
  5
13D4
330
21
100
AcDbEntity
  8
gaikei
100
AcDbLine
 10
101.5805044314693
 20
195.9134297275931
 30
0.0
 11
102.5805044314693
 21
195.9134297275931
 31
0.0
  0
LINE
  5
13D5
330
21
100
AcDbEntity
  8
gaikei
100
AcDbLine
 10
101.5805044314693
 20
201.4134297275932
 30
0.0
 11
102.5805044314693
 21
201.4134297275931
 31
0.0
  0
LINE
  5
13D6
330
21
100
AcDbEntity
  8
gaikei
100
AcDbLine
 10
97.58050443146935
 20
201.4134297275932
 30
0.0
 11
99.5805044314693
 21
201.4134297275932
 31
0.0
  0
LINE
  5
13D7
330
21
100
AcDbEntity
  8
gaikei
100
AcDbLine
 10
93.58050443146934
 20
201.4134297275931
 30
0.0
 11
95.58050443146933
 21
201.4134297275931
 31
0.0
  0
LINE
  5
13D8
330
21
100
AcDbEntity
  8
gaikei
100
AcDbLine
 10
95.58050443146937
 20
193.6634297275932
 30
0.0
 11
97.58050443146935
 21
193.6634297275931
 31
0.0
  0
LINE
  5
13D9
330
21
100
AcDbEntity
  8
gaikei
100
AcDbLine
 10
99.58050443146937
 20
193.6634297275931
 30
0.0
 11
101.5805044314693
 21
193.6634297275931
 31
0.0
  0
LINE
  5
13DA
330
21
100
AcDbEntity
  8
gaikei
100
AcDbLine
 10
99.5805044314693
 20
203.6634297275931
 30
0.0
 11
101.5805044314693
 21
203.6634297275931
 31
0.0
  0
LINE
  5
13DB
330
21
100
AcDbEntity
  8
gaikei
100
AcDbLine
 10
95.58050443146933
 20
203.6634297275931
 30
0.0
 11
97.58050443146935
 21
203.6634297275931
 31
0.0
  0
LINE
  5
13DC
330
21
100
AcDbEntity
  8
gaikei
100
AcDbLine
 10
91.58050443146937
 20
193.6634297275931
 30
0.0
 11
93.58050443146934
 21
193.6634297275931
 31
0.0
  0
LINE
  5
13DD
330
21
100
AcDbEntity
  8
gaikei
100
AcDbLine
 10
91.58050443146937
 20
203.6634297275931
 30
0.0
 11
93.58050443146934
 21
203.6634297275931
 31
0.0
  0
LINE
  5
13DE
330
21
100
AcDbEntity
  8
gaikei
100
AcDbLine
 10
89.58050443146936
 20
195.9134297275931
 30
0.0
 11
91.58050443146937
 21
195.9134297275931
 31
0.0
  0
LINE
  5
13DF
330
21
100
AcDbEntity
  8
gaikei
100
AcDbLine
 10
89.58050443146936
 20
201.4134297275931
 30
0.0
 11
91.58050443146937
 21
201.4134297275931
 31
0.0
  0
LINE
  5
13E0
330
21
100
AcDbEntity
  8
gaikei
100
AcDbLine
 10
101.5805044314693
 20
193.6634297275931
 30
0.0
 11
101.5805044314693
 21
203.6634297275931
 31
0.0
  0
LINE
  5
13E1
330
21
100
AcDbEntity
  8
gaikei
100
AcDbLine
 10
99.58050443146937
 20
193.6634297275931
 30
0.0
 11
99.5805044314693
 21
203.6634297275931
 31
0.0
  0
LINE
  5
13E2
330
21
100
AcDbEntity
  8
gaikei
100
AcDbLine
 10
97.58050443146935
 20
193.6634297275931
 30
0.0
 11
97.58050443146935
 21
203.6634297275931
 31
0.0
  0
LINE
  5
13E3
330
21
100
AcDbEntity
  8
gaikei
100
AcDbLine
 10
95.58050443146937
 20
193.6634297275932
 30
0.0
 11
95.58050443146933
 21
203.6634297275931
 31
0.0
  0
LINE
  5
13E4
330
21
100
AcDbEntity
  8
gaikei
100
AcDbLine
 10
93.58050443146934
 20
193.6634297275931
 30
0.0
 11
93.58050443146934
 21
203.6634297275931
 31
0.0
  0
LINE
  5
13E5
330
21
100
AcDbEntity
  8
gaikei
100
AcDbLine
 10
91.58050443146937
 20
193.6634297275931
 30
0.0
 11
91.58050443146937
 21
203.6634297275931
 31
0.0
  0
LINE
  5
13E6
330
21
100
AcDbEntity
  8
gaikei
100
AcDbLine
 10
91.58050443146937
 20
146.0435470042481
 30
0.0
 11
91.58050443146937
 21
156.0435470042481
 31
0.0
  0
LINE
  5
13E7
330
21
100
AcDbEntity
  8
gaikei
100
AcDbLine
 10
93.58050443146934
 20
146.0435470042481
 30
0.0
 11
93.58050443146934
 21
156.0435470042481
 31
0.0
  0
LINE
  5
13E8
330
21
100
AcDbEntity
  8
gaikei
100
AcDbLine
 10
95.58050443146937
 20
146.0435470042482
 30
0.0
 11
95.58050443146933
 21
156.0435470042481
 31
0.0
  0
LINE
  5
13E9
330
21
100
AcDbEntity
  8
gaikei
100
AcDbLine
 10
97.58050443146935
 20
146.0435470042482
 30
0.0
 11
97.58050443146935
 21
156.0435470042481
 31
0.0
  0
LINE
  5
13EA
330
21
100
AcDbEntity
  8
gaikei
100
AcDbLine
 10
99.58050443146937
 20
146.0435470042482
 30
0.0
 11
99.5805044314693
 21
156.0435470042481
 31
0.0
  0
LINE
  5
13EB
330
21
100
AcDbEntity
  8
gaikei
100
AcDbLine
 10
101.5805044314693
 20
146.0435470042481
 30
0.0
 11
101.5805044314693
 21
156.0435470042481
 31
0.0
  0
LINE
  5
13EC
330
21
100
AcDbEntity
  8
gaikei
100
AcDbLine
 10
89.58050443146936
 20
153.7935470042481
 30
0.0
 11
91.58050443146937
 21
153.7935470042481
 31
0.0
  0
LINE
  5
13ED
330
21
100
AcDbEntity
  8
gaikei
100
AcDbLine
 10
89.58050443146936
 20
148.2935470042481
 30
0.0
 11
91.58050443146937
 21
148.2935470042481
 31
0.0
  0
LINE
  5
13EE
330
21
100
AcDbEntity
  8
gaikei
100
AcDbLine
 10
91.58050443146937
 20
156.0435470042481
 30
0.0
 11
93.58050443146934
 21
156.0435470042481
 31
0.0
  0
LINE
  5
13EF
330
21
100
AcDbEntity
  8
gaikei
100
AcDbLine
 10
91.58050443146937
 20
146.0435470042481
 30
0.0
 11
93.58050443146934
 21
146.0435470042481
 31
0.0
  0
LINE
  5
13F0
330
21
100
AcDbEntity
  8
gaikei
100
AcDbLine
 10
95.58050443146933
 20
156.0435470042481
 30
0.0
 11
97.58050443146935
 21
156.0435470042481
 31
0.0
  0
LINE
  5
13F1
330
21
100
AcDbEntity
  8
gaikei
100
AcDbLine
 10
99.5805044314693
 20
156.0435470042481
 30
0.0
 11
101.5805044314693
 21
156.0435470042481
 31
0.0
  0
LINE
  5
13F2
330
21
100
AcDbEntity
  8
gaikei
100
AcDbLine
 10
99.58050443146937
 20
146.0435470042482
 30
0.0
 11
101.5805044314693
 21
146.0435470042481
 31
0.0
  0
LINE
  5
13F3
330
21
100
AcDbEntity
  8
gaikei
100
AcDbLine
 10
95.58050443146937
 20
146.0435470042482
 30
0.0
 11
97.58050443146935
 21
146.0435470042482
 31
0.0
  0
LINE
  5
13F4
330
21
100
AcDbEntity
  8
gaikei
100
AcDbLine
 10
93.58050443146934
 20
153.7935470042481
 30
0.0
 11
95.58050443146933
 21
153.7935470042481
 31
0.0
  0
LINE
  5
13F5
330
21
100
AcDbEntity
  8
gaikei
100
AcDbLine
 10
97.58050443146935
 20
153.7935470042482
 30
0.0
 11
99.5805044314693
 21
153.7935470042482
 31
0.0
  0
LINE
  5
13F6
330
21
100
AcDbEntity
  8
gaikei
100
AcDbLine
 10
101.5805044314693
 20
153.7935470042482
 30
0.0
 11
102.5805044314693
 21
153.7935470042481
 31
0.0
  0
LINE
  5
13F7
330
21
100
AcDbEntity
  8
gaikei
100
AcDbLine
 10
101.5805044314693
 20
148.2935470042481
 30
0.0
 11
102.5805044314693
 21
148.2935470042481
 31
0.0
  0
LINE
  5
13F8
330
21
100
AcDbEntity
  8
gaikei
100
AcDbLine
 10
97.58050443146935
 20
148.2935470042481
 30
0.0
 11
99.58050443146934
 21
148.2935470042481
 31
0.0
  0
LINE
  5
13F9
330
21
100
AcDbEntity
  8
gaikei
100
AcDbLine
 10
93.58050443146934
 20
148.2935470042481
 30
0.0
 11
95.58050443146933
 21
148.2935470042481
 31
0.0
  0
LINE
  5
13FA
330
21
100
AcDbEntity
  8
gaikei
100
AcDbLine
 10
102.5805044314693
 20
154.2935470042482
 30
0.0
 11
112.5805044314693
 21
154.2935470042481
 31
0.0
  0
LINE
  5
13FB
330
21
100
AcDbEntity
  8
gaikei
100
AcDbLine
 10
102.5805044314693
 20
147.7935470042481
 30
0.0
 11
112.5805044314693
 21
147.7935470042481
 31
0.0
  0
LINE
  5
13FC
330
21
100
AcDbEntity
  8
gaikei
100
AcDbLine
 10
102.5805044314693
 20
147.7935470042481
 30
0.0
 11
102.5805044314693
 21
154.2935470042482
 31
0.0
  0
LINE
  5
13FD
330
21
100
AcDbEntity
  8
gaikei
100
AcDbLine
 10
112.5805044314693
 20
147.7935470042481
 30
0.0
 11
112.5805044314693
 21
154.2935470042481
 31
0.0
  0
LINE
  5
13FE
330
21
100
AcDbEntity
  8
gaikei
100
AcDbLine
 10
112.5805044314693
 20
153.7935470042482
 30
0.0
 11
121.2306618429076
 21
153.7935470042481
 31
0.0
  0
LINE
  5
13FF
330
21
100
AcDbEntity
  8
gaikei
100
AcDbLine
 10
112.5805044314693
 20
148.2935470042482
 30
0.0
 11
122.2039449138156
 21
148.2935470042481
 31
0.0
  0
SPLINE
  5
1400
330
21
100
AcDbEntity
  8
gaikei
100
AcDbSpline
210
0.0
220
0.0
230
1.0
 70
     8
 71
     3
 72
    10
 73
     6
 74
     4
 42
0.0000000001
 43
0.0000000001
 44
0.0000000001
 40
0.0
 40
0.0
 40
0.0
 40
0.0
 40
3.431607581431036
 40
6.332889899299146
 40
10.12774878086559
 40
10.12774878086559
 40
10.12774878086559
 40
10.12774878086559
 10
122.3005179378129
 20
155.3714497235281
 30
0.0
 10
121.4972925141334
 20
154.3082818720426
 30
0.0
 10
120.0149732069943
 20
152.3462495626476
 30
0.0
 10
123.2741495746385
 20
149.4583212620194
 30
0.0
 10
121.7744155383831
 20
147.3384161073087
 30
0.0
 10
120.9244813960218
 20
146.1370165751255
 30
0.0
 11
122.3005179378129
 21
155.3714497235281
 31
0.0
 11
120.9244813960218
 21
152.2278126534148
 31
0.0
 11
122.3005179378129
 21
149.6736077822994
 31
0.0
 11
120.9244813960218
 21
146.1370165751255
 31
0.0
  0
SPLINE
  5
1401
330
21
100
AcDbEntity
  8
gaikei
100
AcDbSpline
210
0.0
220
0.0
230
1.0
 70
     8
 71
     3
 72
    10
 73
     6
 74
     4
 42
0.0000000001
 43
0.0000000001
 44
0.0000000001
 40
0.0
 40
0.0
 40
0.0
 40
0.0
 40
3.431607581431036
 40
6.332889899299146
 40
10.12774878086559
 40
10.12774878086559
 40
10.12774878086559
 40
10.12774878086559
 10
124.2946329018213
 20
155.2181346547395
 30
0.0
 10
123.4914074781418
 20
154.1549668032539
 30
0.0
 10
122.0090881710027
 20
152.1929344938589
 30
0.0
 10
125.2682645386469
 20
149.3050061932308
 30
0.0
 10
123.7685305023915
 20
147.18510103852
 30
0.0
 10
122.9185963600302
 20
145.9837015063369
 30
0.0
 11
124.2946329018213
 21
155.2181346547395
 31
0.0
 11
122.9185963600302
 21
152.0744975846262
 31
0.0
 11
124.2946329018213
 21
149.5202927135107
 31
0.0
 11
122.9185963600302
 21
145.9837015063369
 31
0.0
  0
LINE
  5
1402
330
21
100
AcDbEntity
  8
gaikei
100
AcDbLine
 10
123.3081431071111
 20
153.7935470042482
 30
0.0
 11
169.5805044314693
 21
153.7935470042481
 31
0.0
  0
LINE
  5
1403
330
21
100
AcDbEntity
  8
gaikei
100
AcDbLine
 10
124.2492638016253
 20
148.2935470042482
 30
0.0
 11
169.5805044314693
 21
148.293547004248
 31
0.0
  0
LINE
  5
1404
102
{ACAD_REACTORS
330
15E5
330
15FE
102
}
330
21
100
AcDbEntity
  8
gaikei
100
AcDbLine
 10
169.5805044314693
 20
148.293547004248
 30
0.0
 11
169.5805044314693
 21
153.7935470042481
 31
0.0
  0
LINE
  5
1405
330
21
100
AcDbEntity
  8
gaikei
100
AcDbLine
 10
169.5805044314693
 20
151.0435470042481
 30
0.0
 11
178.8515341267062
 21
153.5277119240917
 31
0.0
  0
LINE
  5
1406
330
21
100
AcDbEntity
  8
gaikei
100
AcDbLine
 10
169.5805044314693
 20
152.5964612748631
 30
0.0
 11
178.8515341267062
 21
155.0806261947068
 31
0.0
  0
LINE
  5
1407
330
21
100
AcDbEntity
  8
gaikei
100
AcDbLine
 10
178.8515341267062
 20
155.0806261947068
 30
0.0
 11
178.8515341267062
 21
153.5277119240917
 31
0.0
  0
LINE
  5
1408
330
21
100
AcDbEntity
  8
gaikei
100
AcDbLine
 10
184.8515341267062
 20
154.7041690593992
 30
0.0
 11
184.8515341267062
 21
153.9041690593993
 31
0.0
  0
LINE
  5
1409
330
21
100
AcDbEntity
  8
gaikei
100
AcDbLine
 10
178.8515341267062
 20
154.7041690593992
 30
0.0
 11
184.8515341267062
 21
154.7041690593992
 31
0.0
  0
LINE
  5
140A
330
21
100
AcDbEntity
  8
gaikei
100
AcDbLine
 10
178.8515341267062
 20
153.9041690593993
 30
0.0
 11
184.8515341267062
 21
153.9041690593993
 31
0.0
  0
LINE
  5
140B
330
21
100
AcDbEntity
  8
gaikei
100
AcDbLine
 10
169.5805044314693
 20
149.490632733633
 30
0.0
 11
178.8515341267062
 21
147.0064678137894
 31
0.0
  0
LINE
  5
140C
330
21
100
AcDbEntity
  8
gaikei
100
AcDbLine
 10
169.5805044314693
 20
151.0435470042481
 30
0.0
 11
178.8515341267062
 21
148.5593820844045
 31
0.0
  0
LINE
  5
140D
330
21
100
AcDbEntity
  8
gaikei
100
AcDbLine
 10
178.8515341267062
 20
148.182924949097
 30
0.0
 11
184.8515341267062
 21
148.182924949097
 31
0.0
  0
LINE
  5
140E
330
21
100
AcDbEntity
  8
gaikei
100
AcDbLine
 10
178.8515341267062
 20
147.382924949097
 30
0.0
 11
184.8515341267062
 21
147.382924949097
 31
0.0
  0
LINE
  5
140F
102
{ACAD_REACTORS
330
15FE
102
}
330
21
100
AcDbEntity
  8
gaikei
100
AcDbLine
 10
184.8515341267062
 20
147.382924949097
 30
0.0
 11
184.8515341267062
 21
148.182924949097
 31
0.0
  0
LINE
  5
1410
330
21
100
AcDbEntity
  8
gaikei
100
AcDbLine
 10
178.8515341267062
 20
147.0064678137894
 30
0.0
 11
178.8515341267062
 21
148.5593820844045
 31
0.0
  0
LINE
  5
1411
330
21
100
AcDbEntity
  8
gaikei
100
AcDbLine
 10
54.58050443146936
 20
191.6634297275931
 30
0.0
 11
54.58050443146939
 21
199.6634297275931
 31
0.0
  0
LINE
  5
1415
330
21
100
AcDbEntity
  8
gaikei
100
AcDbLine
 10
55.58050443146939
 20
200.6634297275931
 30
0.0
 11
62.08050443146936
 21
200.6634297275931
 31
0.0
  0
ARC
  5
1416
330
21
100
AcDbEntity
  8
gaikei
100
AcDbCircle
 10
55.58050443146939
 20
199.6634297275931
 30
0.0
 40
1.0
100
AcDbArc
 50
89.99999999999996
 51
179.9999999999999
  0
ARC
  5
1417
330
21
100
AcDbEntity
  8
gaikei
100
AcDbCircle
 10
62.08050443146936
 20
199.6634297275931
 30
0.0
 40
1.0
100
AcDbArc
 50
360.0
 51
90.0
  0
LINE
  5
141A
330
21
100
AcDbEntity
  8
gaikei
100
AcDbLine
 10
63.08050443146936
 20
199.6634297275931
 30
0.0
 11
64.08050443146937
 21
191.6634297275931
 31
0.0
  0
LINE
  5
141B
330
21
100
AcDbEntity
  8
gaikei
100
AcDbLine
 10
54.58050443146936
 20
192.6634297275931
 30
0.0
 11
63.95550443146936
 21
192.6634297275931
 31
0.0
  0
LINE
  5
141C
330
21
100
AcDbEntity
  8
gaikei
100
AcDbLine
 10
64.08050443146939
 20
191.6634297275932
 30
0.0
 11
87.58050443146936
 21
191.6634297275931
 31
0.0
  0
DIMENSION
  5
156E
102
{ACAD_XDICTIONARY
360
157B
102
}
102
{ACAD_REACTORS
330
1585
102
}
330
21
100
AcDbEntity
  8
sumpo
100
AcDbDimension
  2
*D1
 10
26.77173013071449
 20
131.0435470042481
 30
0.0
 11
24.27173013071447
 21
151.0435470042481
 31
0.0
 70
    32
 71
     5
 42
40.0
  3
ISO-25-4mm
100
AcDbAlignedDimension
 13
41.58050443146936
 23
171.0435470042481
 33
0.0
 14
41.58050443146936
 24
131.0435470042481
 34
0.0
 50
90.0
100
AcDbRotatedDimension
  0
DIMENSION
  5
1586
102
{ACAD_XDICTIONARY
360
1593
102
}
102
{ACAD_REACTORS
330
159D
102
}
330
21
100
AcDbEntity
  8
sumpo
100
AcDbDimension
  2
*D2
 10
26.58232022041996
 20
191.6634297275931
 30
0.0
 11
24.08232022041993
 21
198.6634297275931
 31
0.0
 70
    32
 71
     5
 42
14.00000000000003
  3
ISO-25-4mm
100
AcDbAlignedDimension
 13
41.58050443146936
 23
205.6634297275932
 33
0.0
 14
41.58050443146939
 24
191.6634297275931
 34
0.0
 50
90.0
100
AcDbRotatedDimension
  0
DIMENSION
  5
15B6
102
{ACAD_XDICTIONARY
360
15C3
102
}
102
{ACAD_REACTORS
330
15CD
102
}
330
21
100
AcDbEntity
  8
sumpo
100
AcDbDimension
  2
*D3
 10
89.58050443146936
 20
118.0603069644754
 30
0.0
 11
64.58050443146936
 21
120.5603069644755
 31
0.0
 70
    32
 71
     5
 42
50.0
  3
ISO-25-4mm
100
AcDbAlignedDimension
 13
39.58050443146936
 23
133.0435470042481
 33
0.0
 14
89.58050443146936
 24
133.0435470042481
 34
0.0
100
AcDbRotatedDimension
  0
DIMENSION
  5
15CE
102
{ACAD_XDICTIONARY
360
15DB
102
}
102
{ACAD_REACTORS
330
15E5
102
}
330
21
100
AcDbEntity
  8
sumpo
100
AcDbDimension
  2
*D4
 10
169.5805044314693
 20
118.0603069644754
 30
0.0
 11
129.5805044314693
 21
120.5603069644755
 31
0.0
 70
    32
  1
3500
 71
     5
 42
79.99999999999997
  3
ISO-25-4mm
100
AcDbAlignedDimension
 13
89.58050443146936
 23
133.0435470042481
 33
0.0
 14
169.5805044314693
 24
148.293547004248
 34
0.0
100
AcDbRotatedDimension
  0
DIMENSION
  5
15E7
102
{ACAD_XDICTIONARY
360
15F4
102
}
102
{ACAD_REACTORS
330
15FE
102
}
330
21
100
AcDbEntity
  8
sumpo
100
AcDbDimension
  2
*D5
 10
184.8515341267062
 20
118.0603069644754
 30
0.0
 11
177.2160192790878
 21
120.5603069644755
 31
0.0
 70
    32
  1
30
 71
     5
 42
15.27102969523688
  3
ISO-25-4mm
100
AcDbAlignedDimension
 13
169.5805044314693
 23
148.293547004248
 33
0.0
 14
184.8515341267062
 24
147.382924949097
 34
0.0
100
AcDbRotatedDimension
  0
LINE
  5
164B
330
21
100
AcDbEntity
  8
sumpo
100
AcDbLine
 10
107.4751822355047
 20
245.8273297673744
 30
0.0
 11
115.0185390075963
 21
258.8928069562558
 31
0.0
  0
LINE
  5
164C
330
21
100
AcDbEntity
  8
sumpo
100
AcDbLine
 10
115.0185390075963
 20
258.8928069562558
 30
0.0
 11
140.5647012060631
 21
258.8928069562558
 31
0.0
  0
LINE
  5
164D
330
21
100
AcDbEntity
  8
sumpo
100
AcDbLine
 10
62.5029070063693
 20
261.0308546917332
 30
0.0
 11
70.64835867845693
 21
275.1391908383858
 31
0.0
  0
LINE
  5
164F
330
21
100
AcDbEntity
  8
sumpo
100
AcDbLine
 10
59.08050443146937
 20
245.7261441308347
 30
0.0
 11
43.71813001350949
 21
272.3345571476375
 31
0.0
  0
LINE
  5
1652
330
21
100
AcDbEntity
  8
sumpo
100
AcDbLine
 10
129.3579642502138
 20
245.2576431828733
 30
0.0
 11
138.8284964645374
 21
228.854200212947
 31
0.0
  0
LINE
  5
1654
330
21
100
AcDbEntity
  8
sumpo
100
AcDbLine
 10
58.97566987089345
 20
195.8983503374633
 30
0.0
 11
68.40590342971539
 21
179.5647066863426
 31
0.0
  0
TEXT
  5
1656
330
21
100
AcDbEntity
  8
sumpo
100
AcDbText
 10
116.5718866718723
 20
259.4476417761442
 30
0.0
 40
3.0
  1
マーカー（黄）
100
AcDbText
  0
TEXT
  5
1657
330
21
100
AcDbEntity
  8
sumpo
100
AcDbText
 10
140.3818441288134
 20
229.4090350328355
 30
0.0
 40
3.0
  1
リード線（MF-VCTF0.5m㎡）
100
AcDbText
  0
LINE
  5
1658
330
21
100
AcDbEntity
  8
sumpo
100
AcDbLine
 10
138.8284964645374
 20
228.854200212947
 30
0.0
 11
194.5122784781157
 21
228.854200212947
 31
0.0
  0
TEXT
  5
1659
330
21
100
AcDbEntity
  8
sumpo
100
AcDbText
 10
72.20170634273293
 20
275.6940256582744
 30
0.0
 40
3.0
  1
外装（PVC）
100
AcDbText
  0
LINE
  5
165A
330
21
100
AcDbEntity
  8
sumpo
100
AcDbLine
 10
70.64835867845693
 20
275.1391908383858
 30
0.0
 11
94.32426268931436
 21
275.1391908383858
 31
0.0
  0
TEXT
  5
165B
330
21
100
AcDbEntity
  8
sumpo
100
AcDbText
 10
69.9592510939914
 20
180.1195415062311
 30
0.0
 40
3.0
  1
電極（SUS403）
100
AcDbText
  0
LINE
  5
165C
330
21
100
AcDbEntity
  8
sumpo
100
AcDbLine
 10
68.40590342971539
 20
179.5647066863426
 30
0.0
 11
100.8846837773725
 21
179.5647066863426
 31
0.0
  0
TEXT
  5
165D
330
21
100
AcDbEntity
  8
sumpo
100
AcDbText
 10
23.45656203189341
 20
272.8893919675261
 30
0.0
 40
3.0
  1
φ4エア抜き
100
AcDbText
  0
LINE
  5
165E
330
21
100
AcDbEntity
  8
sumpo
100
AcDbLine
 10
21.90321436761741
 20
272.3345571476375
 30
0.0
 11
43.71813001350949
 21
272.3345571476375
 31
0.0
  0
LINE
  5
168E
330
21
100
AcDbEntity
  8
shiyouwaku
100
AcDbLine
 10
19.73018819151139
 20
102.9576900352225
 30
0.0
 11
19.73018819151139
 21
52.95769003522254
 31
0.0
  0
LINE
  5
1690
330
21
100
AcDbEntity
  8
shiyouwaku
100
AcDbLine
 10
64.73018819151139
 20
102.9576900352225
 30
0.0
 11
64.73018819151139
 21
52.95769003522254
 31
0.0
  0
LINE
  5
1692
330
21
100
AcDbEntity
  8
shiyouwaku
100
AcDbLine
 10
19.73018819151139
 20
102.9576900352225
 30
0.0
 11
184.7301881915115
 21
102.9576900352225
 31
0.0
  0
LINE
  5
1694
330
21
100
AcDbEntity
  8
shiyouwaku
100
AcDbLine
 10
19.73018819151139
 20
97.95769003522256
 30
0.0
 11
184.7301881915115
 21
97.95769003522257
 31
0.0
  0
LINE
  5
1695
330
21
100
AcDbEntity
  8
shiyouwaku
100
AcDbLine
 10
19.73018819151139
 20
92.95769003522256
 30
0.0
 11
184.7301881915114
 21
92.95769003522257
 31
0.0
  0
LINE
  5
1696
330
21
100
AcDbEntity
  8
shiyouwaku
100
AcDbLine
 10
19.73018819151139
 20
87.95769003522256
 30
0.0
 11
184.7301881915115
 21
87.95769003522256
 31
0.0
  0
TEXT
  5
169B
330
21
100
AcDbEntity
  8
moji
100
AcDbText
 10
33.83018819151139
 20
99.05769003522255
 30
0.0
 40
3.0
  1
項　　　目
 72
     4
 11
42.23018819151138
 21
100.4576900352225
 31
0.0
100
AcDbText
  0
TEXT
  5
169C
330
21
100
AcDbEntity
  8
moji
100
AcDbText
 10
104.3301881915114
 20
98.95769003522255
 30
0.0
 40
3.0
  1
仕　　　　様
 72
     4
 11
114.7301881915114
 21
100.4576900352225
 31
0.0
100
AcDbText
  0
TEXT
  5
169D
330
21
100
AcDbEntity
  8
moji
100
AcDbText
 10
35.43018819151139
 20
93.95769003522255
 30
0.0
 40
3.0
  1
電極構造
 72
     4
 11
42.23018819151138
 21
95.45769003522256
 31
0.0
100
AcDbText
  0
TEXT
  5
169E
330
21
100
AcDbEntity
  8
moji
100
AcDbText
 10
28.14447390579711
 20
88.95769003522255
 30
0.0
 40
3.0
  1
電極間抵抗（AC）
 72
     4
 11
42.23018819151138
 21
90.45769003522256
 31
0.0
100
AcDbText
  0
TEXT
  5
169F
330
21
100
AcDbEntity
  8
moji
100
AcDbText
 10
28.23018819151138
 20
83.95769003522255
 30
0.0
 40
3.0
  1
吸水（感度）特性
 72
     4
 11
42.23018819151138
 21
85.45769003522256
 31
0.0
100
AcDbText
  0
TEXT
  5
16A0
330
21
100
AcDbEntity
  8
moji
100
AcDbText
 10
66.56890922882258
 20
93.90470982678484
 30
0.0
 40
3.0
  1
材料：SUS304（厚さ1mm）
 11
66.56890922882258
 21
95.40470982678485
 31
0.0
100
AcDbText
 73
     2
  0
TEXT
  5
16A2
330
21
100
AcDbEntity
  8
moji
100
AcDbText
 10
66.56890922882258
 20
88.95769003522255
 30
0.0
 40
3.0
  1
1MΩ以上
 11
66.56890922882258
 21
90.45769003522256
 31
0.0
100
AcDbText
 73
     2
  0
TEXT
  5
16A3
330
21
100
AcDbEntity
  8
moji
100
AcDbText
 10
66.56890922882258
 20
83.95769003522255
 30
0.0
 40
3.0
  1
水位10mm以上で電極間抵抗が15kΩ以下
 11
66.56890922882258
 21
85.45769003522256
 31
0.0
100
AcDbText
 73
     2
  0
TEXT
  5
16A5
330
21
100
AcDbEntity
  8
moji
100
AcDbText
 10
66.56890922882258
 20
68.95769003522255
 30
0.0
 40
3.0
  1
漏水検知後、水が無くなれば瞬時に復帰、但し、漏水の中に導電性、
 11
66.56890922882258
 21
70.45769003522256
 31
0.0
100
AcDbText
 73
     2
  0
TEXT
  5
16A6
330
21
100
AcDbEntity
  8
moji
100
AcDbText
 10
66.56890922882258
 20
73.95769003522255
 30
0.0
 40
3.0
  1
高湿雰囲気中でも結露が無い限り電極間抵抗は20kΩ（5％）
 11
66.56890922882258
 21
75.45769003522256
 31
0.0
100
AcDbText
 73
     2
  0
TEXT
  5
16A7
330
21
100
AcDbEntity
  8
moji
100
AcDbText
 10
66.56890922882258
 20
78.90470982678485
 30
0.0
 40
3.0
  1
（水槽内にセンサ敷設し、水を1mm単位で注入した場合：市水）
 11
66.56890922882258
 21
80.40470982678485
 31
0.0
100
AcDbText
 73
     2
  0
LINE
  5
16A8
330
21
100
AcDbEntity
  8
shiyouwaku
100
AcDbLine
 10
19.73018819151139
 20
72.95769003522256
 30
0.0
 11
184.7301881915114
 21
72.95769003522256
 31
0.0
  0
LINE
  5
16A9
330
21
100
AcDbEntity
  8
shiyouwaku
100
AcDbLine
 10
19.73018819151139
 20
77.95769003522256
 30
0.0
 11
184.7301881915114
 21
77.95769003522256
 31
0.0
  0
TEXT
  5
16AB
330
21
100
AcDbEntity
  8
moji
100
AcDbText
 10
37.23018819151139
 20
68.95769003522255
 30
0.0
 40
3.0
  1
復帰性
 72
     4
 11
42.23018819151138
 21
70.45769003522256
 31
0.0
100
AcDbText
  0
TEXT
  5
16AC
330
21
100
AcDbEntity
  8
moji
100
AcDbText
 10
35.43018819151138
 20
73.95769003522255
 30
0.0
 40
3.0
  1
耐湿特性
 72
     4
 11
42.23018819151138
 21
75.45769003522256
 31
0.0
100
AcDbText
  0
LINE
  5
16AF
330
21
100
AcDbEntity
  8
shiyouwaku
100
AcDbLine
 10
184.7301881915115
 20
102.9576900352225
 30
0.0
 11
184.7301881915114
 21
52.95769003522254
 31
0.0
  0
TEXT
  5
16B0
330
21
100
AcDbEntity
  8
moji
100
AcDbText
 10
66.56890922882258
 20
63.90470982678485
 30
0.0
 40
3.0
  1
撥水性等の汚染物質が含まれている場合は電極を洗浄すれば再使用可
 11
66.56890922882258
 21
65.40470982678485
 31
0.0
100
AcDbText
 73
     2
  0
LINE
  5
16B1
330
21
100
AcDbEntity
  8
shiyouwaku
100
AcDbLine
 10
19.73018819151139
 20
62.95769003522256
 30
0.0
 11
184.7301881915114
 21
62.95769003522256
 31
0.0
  0
TEXT
  5
16B2
330
21
100
AcDbEntity
  8
moji
100
AcDbText
 10
66.56890922882258
 20
58.95769003522255
 30
0.0
 40
3.0
  1
連続仕様温度　60℃以下
 11
66.56890922882258
 21
60.45769003522256
 31
0.0
100
AcDbText
 73
     2
  0
TEXT
  5
16B3
330
21
100
AcDbEntity
  8
moji
100
AcDbText
 10
66.56890922882258
 20
53.95769003522255
 30
0.0
 40
3.0
  1
約300ｇ/本
 11
66.56890922882258
 21
55.45769003522256
 31
0.0
100
AcDbText
 73
     2
  0
LINE
  5
16B4
330
21
100
AcDbEntity
  8
shiyouwaku
100
AcDbLine
 10
19.73018819151139
 20
57.95769003522256
 30
0.0
 11
184.7301881915114
 21
57.95769003522256
 31
0.0
  0
TEXT
  5
16B5
330
21
100
AcDbEntity
  8
moji
100
AcDbText
 10
37.23018819151139
 20
58.85769003522256
 30
0.0
 40
3.0
  1
耐熱性
 72
     4
 11
42.23018819151138
 21
60.45769003522256
 31
0.0
100
AcDbText
  0
TEXT
  5
16B6
330
21
100
AcDbEntity
  8
moji
100
AcDbText
 10
39.03018819151139
 20
53.95769003522255
 30
0.0
 40
3.0
  1
重量
 72
     4
 11
42.23018819151138
 21
55.45769003522256
 31
0.0
100
AcDbText
  0
LINE
  5
16B9
330
21
100
AcDbEntity
  8
shiyouwaku
100
AcDbLine
 10
19.73018819151139
 20
52.95769003522255
 30
0.0
 11
184.7301881915114
 21
52.95769003522255
 31
0.0
  0
TEXT
  5
1765
330
21
100
AcDbEntity
  8
zubanmoji
100
AcDbText
 10
120.0321522389827
 20
28.47865043781633
 30
0.0
 40
3.0
  1
床置き型ポイントセンサ  外形図
 72
     1
 11
146.5321522389827
 21
29.97865043781633
 31
0.0
100
AcDbText
 73
     2
  0
TEXT
  5
17F5
330
21
100
AcDbEntity
  8
zubanmoji
100
AcDbText
 10
126.6750093818398
 20
16.47865043781633
 30
0.0
 40
3.0
  1
TS-KS-W1266-4
 72
     1
 11
146.5321522389827
 21
17.97865043781633
 31
0.0
100
AcDbText
 73
     2
  0
TEXT
  5
17F6
330
21
100
AcDbEntity
  8
zubanmoji
100
AcDbText
 10
101.7321522389827
 20
16.47865043781633
 30
0.0
 40
3.0
  1
図番
 72
     1
 11
105.0321522389827
 21
17.97865043781633
 31
0.0
100
AcDbText
 73
     2
  0
LINE
  5
17F7
330
21
100
AcDbEntity
  8
zubanwaku
100
AcDbLine
 10
99.0321522389827
 20
14.97865043781632
 30
0.0
 11
182.0321522389827
 21
14.97865043781633
 31
0.0
  0
LINE
  5
17F8
330
21
100
AcDbEntity
  8
zubanwaku
100
AcDbLine
 10
99.0321522389827
 20
32.97865043781633
 30
0.0
 11
99.0321522389827
 21
8.978650437816327
 31
0.0
  0
LINE
  5
17F9
330
21
100
AcDbEntity
  8
zubanwaku
100
AcDbLine
 10
99.0321522389827
 20
32.97865043781633
 30
0.0
 11
182.0321522389827
 21
32.97865043781634
 31
0.0
  0
LINE
  5
17FA
330
21
100
AcDbEntity
  8
zubanwaku
100
AcDbLine
 10
99.0321522389827
 20
26.97865043781633
 30
0.0
 11
182.0321522389827
 21
26.97865043781634
 31
0.0
  0
LINE
  5
17FB
330
21
100
AcDbEntity
  8
zubanwaku
100
AcDbLine
 10
99.0321522389827
 20
20.97865043781633
 30
0.0
 11
182.0321522389827
 21
20.97865043781633
 31
0.0
  0
LINE
  5
17FC
330
21
100
AcDbEntity
  8
zubanwaku
100
AcDbLine
 10
99.0321522389827
 20
8.978650437816327
 30
0.0
 11
182.0321522389827
 21
8.978650437816327
 31
0.0
  0
LINE
  5
17FD
330
21
100
AcDbEntity
  8
zubanwaku
100
AcDbLine
 10
111.0321522389827
 20
32.97865043781633
 30
0.0
 11
111.0321522389827
 21
14.97865043781632
 31
0.0
  0
LINE
  5
17FE
330
21
100
AcDbEntity
  8
zubanwaku
100
AcDbLine
 10
157.0321522389827
 20
26.97865043781634
 30
0.0
 11
157.0321522389827
 21
20.97865043781633
 31
0.0
  0
LINE
  5
17FF
330
21
100
AcDbEntity
  8
zubanwaku
100
AcDbLine
 10
169.0321522389827
 20
26.97865043781634
 30
0.0
 11
169.0321522389827
 21
20.97865043781633
 31
0.0
  0
LINE
  5
1800
330
21
100
AcDbEntity
  8
zubanwaku
100
AcDbLine
 10
182.0321522389827
 20
32.97865043781633
 30
0.0
 11
182.0321522389827
 21
8.978650437816327
 31
0.0
  0
TEXT
  5
1801
330
21
100
AcDbEntity
  8
zubanmoji
100
AcDbText
 10
101.8321522389827
 20
28.47865043781633
 30
0.0
 40
3.0
  1
名称
 72
     1
 11
105.0321522389827
 21
29.97865043781633
 31
0.0
100
AcDbText
 73
     2
  0
TEXT
  5
1803
330
21
100
AcDbEntity
  8
zubanmoji
100
AcDbText
 10
101.8321522389827
 20
22.47865043781633
 30
0.0
 40
3.0
  1
型式
 72
     1
 11
105.0321522389827
 21
23.97865043781633
 31
0.0
100
AcDbText
 73
     2
  0
TEXT
  5
1804
330
21
100
AcDbEntity
  8
zubanmoji
100
AcDbText
 10
122.3892950961255
 20
22.47865043781633
 30
0.0
 40
3.0
  1
AD-PA-N
 72
     1
 11
133.0321522389827
 21
23.97865043781633
 31
0.0
100
AcDbText
 73
     2
  0
TEXT
  5
1805
330
21
100
AcDbEntity
  8
zubanmoji
100
AcDbText
 10
159.8321522389827
 20
22.47865043781633
 30
0.0
 40
3.0
  1
単位
 72
     1
 11
163.0321522389827
 21
23.97865043781633
 31
0.0
100
AcDbText
 73
     2
  0
TEXT
  5
1806
330
21
100
AcDbEntity
  8
zubanmoji
100
AcDbText
 10
170.7464379532684
 20
22.47865043781633
 30
0.0
 40
3.0
  1
mm
 72
     1
 11
175.0321522389827
 21
23.97865043781633
 31
0.0
100
AcDbText
 73
     2
  0
TEXT
  5
1807
330
21
100
AcDbEntity
  8
zubanmoji
100
AcDbText
 10
109.6493678909359
 20
10.9664218098492
 30
0.0
 40
2.0
  1
TATSUTA ELECTRIC WIRE & CABLE CO., LTD. 
 72
     1
 11
141.8969869385549
 21
11.9664218098492
 31
0.0
100
AcDbText
 73
     2
  0
VIEWPORT
  5
17AD
330
17A6
100
AcDbEntity
 67
     1
  8
0
100
AcDbViewport
 10
100.8062472343445
 20
142.6527438163757
 30
0.0
 40
505.8960447012031
 41
314.1924854736328
 68
     1
 69
     1
 12
100.8062472343445
 22
142.6527438163757
 13
0.0
 23
0.0
 14
10.0
 24
10.0
 15
10.0
 25
10.0
 16
0.0
 26
0.0
 36
1.0
 17
0.0
 27
0.0
 37
0.0
 42
50.0
 43
0.0
 44
0.0
 45
314.1924854736328
 50
0.0
 51
0.0
 72
  1000
 90
    32800
  1

281
     0
 71
     1
 74
     0
110
0.0
120
0.0
130
0.0
111
1.0
121
0.0
131
0.0
112
0.0
122
1.0
132
0.0
 79
     0
146
0.0
170
     0
  0
VIEWPORT
  5
17AF
330
17A6
100
AcDbEntity
 67
     1
  8
moji
100
AcDbViewport
 10
100.8062531948089
 20
143.6899125576019
 30
0.0
 40
161.2900051116943
 41
229.9038600921631
 68
     2
 69
     2
 12
107.1212333348135
 22
144.1378518426278
 13
0.0
 23
0.0
 14
10.0
 24
10.0
 15
10.0
 25
10.0
 16
0.0
 26
0.0
 36
1.0
 17
0.0
 27
0.0
 37
0.0
 42
50.0
 43
0.0
 44
0.0
 45
272.0642198173772
 50
0.0
 51
0.0
 72
  1000
 90
    32864
  1

281
     0
 71
     1
 74
     0
110
0.0
120
0.0
130
0.0
111
1.0
121
0.0
131
0.0
112
0.0
122
1.0
132
0.0
 79
     0
146
0.0
170
     0
  0
ENDSEC
  0
SECTION
  2
OBJECTS
  0
DICTIONARY
  5
C
330
0
100
AcDbDictionary
281
     1
  3
ACAD_COLOR
350
1C
  3
ACAD_GROUP
350
D
  3
ACAD_LAYOUT
350
1A
  3
ACAD_MATERIAL
350
1B
  3
ACAD_MLEADERSTYLE
350
1850
  3
ACAD_MLINESTYLE
350
17
  3
ACAD_PLOTSETTINGS
350
19
  3
ACAD_PLOTSTYLENAME
350
E
  3
ACAD_SCALELIST
350
182E
  3
ACAD_TABLESTYLE
350
182C
  3
ACAD_VISUALSTYLE
350
181B
  3
ACDB_RECOMPOSE_DATA
350
1873
  3
AcDbVariableDictionary
350
186D
  0
DICTIONARY
  5
5C
330
2
100
AcDbDictionary
280
     1
281
     1
  3
ACAD_LAYERFILTERS
360
89B
  3
ACAD_LAYERSTATES
360
5D
  0
DICTIONARY
  5
185B
330
10
100
AcDbDictionary
280
     1
281
     1
  3
ADSK_XREC_LAYER_RECONCILED
360
185C
  0
DICTIONARY
  5
185D
330
2D
100
AcDbDictionary
280
     1
281
     1
  3
ADSK_XREC_LAYER_RECONCILED
360
185E
  0
DICTIONARY
  5
185F
330
2E
100
AcDbDictionary
280
     1
281
     1
  3
ADSK_XREC_LAYER_RECONCILED
360
1860
  0
DICTIONARY
  5
1861
330
2F
100
AcDbDictionary
280
     1
281
     1
  3
ADSK_XREC_LAYER_RECONCILED
360
1862
  0
DICTIONARY
  5
1863
330
30
100
AcDbDictionary
280
     1
281
     1
  3
ADSK_XREC_LAYER_RECONCILED
360
1864
  0
DICTIONARY
  5
1865
330
48
100
AcDbDictionary
280
     1
281
     1
  3
ADSK_XREC_LAYER_RECONCILED
360
1866
  0
DICTIONARY
  5
1867
330
B26
100
AcDbDictionary
280
     1
281
     1
  3
ADSK_XREC_LAYER_RECONCILED
360
1868
  0
DICTIONARY
  5
1869
330
B29
100
AcDbDictionary
280
     1
281
     1
  3
ADSK_XREC_LAYER_RECONCILED
360
186A
  0
DICTIONARY
  5
186B
330
B2A
100
AcDbDictionary
280
     1
281
     1
  3
ADSK_XREC_LAYER_RECONCILED
360
186C
  0
DICTIONARY
  5
157B
330
156E
100
AcDbDictionary
280
     1
281
     1
  3
ACAD_DIMASSOC
360
1585
  0
DICTIONARY
  5
1593
330
1586
100
AcDbDictionary
280
     1
281
     1
  3
ACAD_DIMASSOC
360
159D
  0
DICTIONARY
  5
15C3
330
15B6
100
AcDbDictionary
280
     1
281
     1
  3
ACAD_DIMASSOC
360
15CD
  0
DICTIONARY
  5
15DB
330
15CE
100
AcDbDictionary
280
     1
281
     1
  3
ACAD_DIMASSOC
360
15E5
  0
DICTIONARY
  5
15F4
330
15E7
100
AcDbDictionary
280
     1
281
     1
  3
ACAD_DIMASSOC
360
15FE
  0
DICTIONARY
  5
1C
102
{ACAD_REACTORS
330
C
102
}
330
C
100
AcDbDictionary
281
     1
  0
DICTIONARY
  5
D
102
{ACAD_REACTORS
330
C
102
}
330
C
100
AcDbDictionary
281
     1
  3
*A1
350
AE8
  0
DICTIONARY
  5
1A
102
{ACAD_REACTORS
330
C
102
}
330
C
100
AcDbDictionary
281
     1
  3
Model
350
24
  3
レイアウト1
350
17A7
  0
DICTIONARY
  5
1B
102
{ACAD_REACTORS
330
C
102
}
330
C
100
AcDbDictionary
281
     1
  3
ByBlock
350
1813
  3
ByLayer
350
180B
  3
Global
350
55
  0
DICTIONARY
  5
1850
102
{ACAD_REACTORS
330
C
102
}
330
C
100
AcDbDictionary
281
     1
  3
Standard
350
1851
  0
DICTIONARY
  5
17
102
{ACAD_REACTORS
330
C
102
}
330
C
100
AcDbDictionary
281
     1
  3
Standard
350
18
  0
DICTIONARY
  5
19
102
{ACAD_REACTORS
330
C
102
}
330
C
100
AcDbDictionary
281
     1
  0
ACDBDICTIONARYWDFLT
  5
E
102
{ACAD_REACTORS
330
C
102
}
330
C
100
AcDbDictionary
281
     1
  3
Normal
350
F
100
AcDbDictionaryWithDefault
340
F
  0
DICTIONARY
  5
182E
102
{ACAD_REACTORS
330
C
102
}
330
C
100
AcDbDictionary
281
     1
  3
A0
350
182F
  3
A1
350
1830
  3
A2
350
1831
  3
A3
350
1832
  3
A4
350
1833
  3
A5
350
1834
  3
A6
350
1835
  3
A7
350
1836
  3
A8
350
1837
  3
A9
350
1838
  3
B0
350
1839
  3
B1
350
183A
  3
B2
350
183B
  3
B3
350
183C
  3
B4
350
183D
  3
B5
350
183E
  3
B6
350
183F
  3
B7
350
1840
  3
B8
350
1841
  3
B9
350
1842
  3
C0
350
1843
  3
C1
350
1844
  3
C2
350
1845
  3
C3
350
1846
  3
C4
350
1847
  3
C5
350
1848
  3
C6
350
1849
  3
C7
350
184A
  3
C8
350
184B
  3
C9
350
184C
  3
D0
350
184D
  3
D1
350
184E
  3
D2
350
184F
  0
DICTIONARY
  5
182C
102
{ACAD_REACTORS
330
C
102
}
330
C
100
AcDbDictionary
281
     1
  3
Standard
350
182D
  0
DICTIONARY
  5
181B
102
{ACAD_REACTORS
330
C
102
}
330
C
100
AcDbDictionary
281
     1
  3
2dWireframe
350
1821
  3
3D Hidden
350
1823
  3
3dWireframe
350
1822
  3
Basic
350
1820
  3
Brighten
350
1827
  3
ColorChange
350
182B
  3
Conceptual
350
1824
  3
Dim
350
1826
  3
Facepattern
350
182A
  3
Flat
350
181C
  3
FlatWithEdges
350
181D
  3
Gouraud
350
181E
  3
GouraudWithEdges
350
181F
  3
Linepattern
350
1829
  3
Realistic
350
1825
  3
Thicken
350
1828
  0
XRECORD
  5
1873
102
{ACAD_REACTORS
330
C
102
}
330
C
100
AcDbXrecord
280
     1
 90
        1
330
182D
  0
DICTIONARY
  5
186D
102
{ACAD_REACTORS
330
C
102
}
330
C
100
AcDbDictionary
281
     1
  3
CANNOSCALE
350
1870
  3
CMLEADERSTYLE
350
186F
  3
CTABLESTYLE
350
186E
  0
DICTIONARY
  5
89B
102
{ACAD_REACTORS
330
5C
102
}
330
5C
100
AcDbDictionary
281
     1
  0
DICTIONARY
  5
5D
102
{ACAD_REACTORS
330
5C
102
}
330
5C
100
AcDbDictionary
281
     1
  0
XRECORD
  5
185C
102
{ACAD_REACTORS
330
185B
102
}
330
185B
100
AcDbXrecord
280
     1
290
     1
  0
XRECORD
  5
185E
102
{ACAD_REACTORS
330
185D
102
}
330
185D
100
AcDbXrecord
280
     1
290
     1
  0
XRECORD
  5
1860
102
{ACAD_REACTORS
330
185F
102
}
330
185F
100
AcDbXrecord
280
     1
290
     1
  0
XRECORD
  5
1862
102
{ACAD_REACTORS
330
1861
102
}
330
1861
100
AcDbXrecord
280
     1
290
     1
  0
XRECORD
  5
1864
102
{ACAD_REACTORS
330
1863
102
}
330
1863
100
AcDbXrecord
280
     1
290
     1
  0
XRECORD
  5
1866
102
{ACAD_REACTORS
330
1865
102
}
330
1865
100
AcDbXrecord
280
     1
290
     1
  0
XRECORD
  5
1868
102
{ACAD_REACTORS
330
1867
102
}
330
1867
100
AcDbXrecord
280
     1
290
     1
  0
XRECORD
  5
186A
102
{ACAD_REACTORS
330
1869
102
}
330
1869
100
AcDbXrecord
280
     1
290
     1
  0
XRECORD
  5
186C
102
{ACAD_REACTORS
330
186B
102
}
330
186B
100
AcDbXrecord
280
     1
290
     1
  0
DIMASSOC
  5
1585
102
{ACAD_REACTORS
330
157B
102
}
330
157B
100
AcDbDimAssoc
330
156E
 90
        3
 70
     0
 71
     0
  1
AcDbOsnapPointRef
 72
    13
331
1307
 73
     2
 91
        0
 40
1.570796326794896
 10
0.0
 20
0.0
 30
2.000000000000000E+50
 75
     0
  1
AcDbOsnapPointRef
 72
     1
331
1308
 73
     2
 91
        0
 40
4.712388980384689
 10
0.0
 20
0.0
 30
2.000000000000000E+50
 75
     0
  0
DIMASSOC
  5
159D
102
{ACAD_REACTORS
330
1593
102
}
330
1593
100
AcDbDimAssoc
330
1586
 90
        3
 70
     0
 71
     0
  1
AcDbOsnapPointRef
 72
    13
331
1306
 73
     2
 91
        0
 40
1.570796326794896
 10
0.0
 20
0.0
 30
2.000000000000000E+50
 75
     0
  1
AcDbOsnapPointRef
 72
     8
331
12F3
 73
     2
 91
        0
 40
0.0000000000000011
 10
0.0
 20
0.0
 30
0.0
 75
     1
  1
AcDbOsnapPointRef
 72
    13
331
1306
 73
     2
 91
        0
 40
1.570796326794896
 10
0.0
 20
0.0
 30
2.000000000000000E+50
 75
     0
  0
DIMASSOC
  5
15CD
102
{ACAD_REACTORS
330
15C3
102
}
330
15C3
100
AcDbDimAssoc
330
15B6
 90
        3
 70
     0
 71
     0
  1
AcDbOsnapPointRef
 72
    13
331
1308
 73
     2
 91
        0
 40
3.141592653589793
 10
0.0
 20
0.0
 30
2.000000000000000E+50
 75
     0
  1
AcDbOsnapPointRef
 72
     1
331
1309
 73
     2
 91
        0
 40
6.283185307179586
 10
0.0
 20
0.0
 30
2.000000000000000E+50
 75
     0
  0
DIMASSOC
  5
15E5
102
{ACAD_REACTORS
330
15DB
102
}
330
15DB
100
AcDbDimAssoc
330
15CE
 90
        3
 70
     0
 71
     0
  1
AcDbOsnapPointRef
 72
     1
331
1309
 73
     2
 91
        0
 40
6.283185307179586
 10
0.0
 20
0.0
 30
2.000000000000000E+50
 75
     0
  1
AcDbOsnapPointRef
 72
    13
331
1404
 73
     2
 91
        0
 40
0.0
 10
0.0
 20
0.0
 30
2.000000000000000E+50
 75
     0
  0
DIMASSOC
  5
15FE
102
{ACAD_REACTORS
330
15F4
102
}
330
15F4
100
AcDbDimAssoc
330
15E7
 90
        3
 70
     0
 71
     0
  1
AcDbOsnapPointRef
 72
    13
331
1404
 73
     2
 91
        0
 40
0.0
 10
0.0
 20
0.0
 30
2.000000000000000E+50
 75
     0
  1
AcDbOsnapPointRef
 72
    13
331
140F
 73
     2
 91
        0
 40
0.0
 10
0.0
 20
0.0
 30
2.000000000000000E+50
 75
     0
  0
GROUP
  5
AE8
102
{ACAD_REACTORS
330
D
102
}
330
D
100
AcDbGroup
300

 70
     1
 71
     1
  0
LAYOUT
  5
24
102
{ACAD_REACTORS
330
1A
102
}
330
1A
100
AcDbPlotSettings
  1

  2
none_device
  4
Letter_(8.50_x_11.00_Inches)
  6

 40
6.349999904632568
 41
6.349999904632568
 42
6.350006103515625
 43
6.350006103515625
 44
215.8999938964844
 45
279.3999938964844
 46
0.0
 47
0.0
 48
0.0
 49
0.0
140
0.0
141
0.0
142
1.0
143
1.0
 70
 11952
 72
     1
 73
     1
 74
     0
  7

 75
     0
147
1.0
 76
     0
 77
     2
 78
   300
148
-83.36161879895561
149
0.0
100
AcDbLayout
  1
Model
 70
     1
 71
     0
 10
0.0
 20
0.0
 11
12.0
 21
9.0
 12
0.0
 22
0.0
 32
0.0
 14
0.0
 24
0.0
 34
0.0
 15
0.0
 25
0.0
 35
0.0
146
0.0
 13
0.0
 23
0.0
 33
0.0
 16
1.0
 26
0.0
 36
0.0
 17
0.0
 27
1.0
 37
0.0
 76
     0
330
21
331
1809
  0
LAYOUT
  5
17A7
102
{ACAD_REACTORS
330
1A
102
}
330
1A
100
AcDbPlotSettings
  1

  2
Canon MP990 series Printer
  4
A4
  6

 40
4.180416584014892
 41
5.831417560577392
 42
4.180404663085937
 43
3.757080078125
 44
209.9733276367187
 45
296.9683227539062
 46
0.0
 47
0.0
 48
0.0
 49
0.0
140
0.0
141
0.0
142
1.0
143
1.0
 70
   688
 72
     1
 73
     0
 74
     5
  7

 75
    16
147
1.0
 76
     1
 77
     2
 78
   300
148
0.0
149
0.0
100
AcDbLayout
  1
レイアウト1
 70
     1
 71
     1
 10
-4.180416584014892
 20
-5.831417560577392
 11
205.7929110527039
 21
291.1369051933288
 12
0.0
 22
0.0
 32
0.0
 14
20.1612506389618
 24
28.73798251152038
 34
0.0
 15
181.4512557506561
 25
258.6418426036835
 35
0.0
146
0.0
 13
0.0
 23
0.0
 33
0.0
 16
1.0
 26
0.0
 36
0.0
 17
0.0
 27
1.0
 37
0.0
 76
     0
330
17A6
331
17AD
  0
MATERIAL
  5
1813
102
{ACAD_XDICTIONARY
360
1814
102
}
102
{ACAD_REACTORS
330
1B
102
}
330
1B
100
AcDbMaterial
  1
ByBlock
 72
     0
 43
0.0008202099737533
 43
0.0
 43
0.0
 43
0.0
 43
0.0
 43
0.0008202099737533
 43
0.0
 43
0.0
 43
0.0
 43
0.0
 43
1.0
 43
0.0
 43
0.0
 43
0.0
 43
0.0
 43
1.0
 77
     0
 47
0.0008202099737533
 47
0.0
 47
0.0
 47
0.0
 47
0.0
 47
0.0008202099737533
 47
0.0
 47
0.0
 47
0.0
 47
0.0
 47
1.0
 47
0.0
 47
0.0
 47
0.0
 47
0.0
 47
1.0
171
     0
 49
0.0008202099737533
 49
0.0
 49
0.0
 49
0.0
 49
0.0
 49
0.0008202099737533
 49
0.0
 49
0.0
 49
0.0
 49
0.0
 49
1.0
 49
0.0
 49
0.0
 49
0.0
 49
0.0
 49
1.0
175
     0
142
0.0008202099737533
142
0.0
142
0.0
142
0.0
142
0.0
142
0.0008202099737533
142
0.0
142
0.0
142
0.0
142
0.0
142
1.0
142
0.0
142
0.0
142
0.0
142
0.0
142
1.0
179
     0
144
0.0008202099737533
144
0.0
144
0.0
144
0.0
144
0.0
144
0.0008202099737533
144
0.0
144
0.0
144
0.0
144
0.0
144
1.0
144
0.0
144
0.0
144
0.0
144
0.0
144
1.0
147
0.0008202099737533
147
0.0
147
0.0
147
0.0
147
0.0
147
0.0008202099737533
147
0.0
147
0.0
147
0.0
147
0.0
147
1.0
147
0.0
147
0.0
147
0.0
147
0.0
147
1.0
  0
MATERIAL
  5
180B
102
{ACAD_XDICTIONARY
360
180C
102
}
102
{ACAD_REACTORS
330
1B
102
}
330
1B
100
AcDbMaterial
  1
ByLayer
 72
     0
 43
0.0008202099737533
 43
0.0
 43
0.0
 43
0.0
 43
0.0
 43
0.0008202099737533
 43
0.0
 43
0.0
 43
0.0
 43
0.0
 43
1.0
 43
0.0
 43
0.0
 43
0.0
 43
0.0
 43
1.0
 77
     0
 47
0.0008202099737533
 47
0.0
 47
0.0
 47
0.0
 47
0.0
 47
0.0008202099737533
 47
0.0
 47
0.0
 47
0.0
 47
0.0
 47
1.0
 47
0.0
 47
0.0
 47
0.0
 47
0.0
 47
1.0
171
     0
 49
0.0008202099737533
 49
0.0
 49
0.0
 49
0.0
 49
0.0
 49
0.0008202099737533
 49
0.0
 49
0.0
 49
0.0
 49
0.0
 49
1.0
 49
0.0
 49
0.0
 49
0.0
 49
0.0
 49
1.0
175
     0
142
0.0008202099737533
142
0.0
142
0.0
142
0.0
142
0.0
142
0.0008202099737533
142
0.0
142
0.0
142
0.0
142
0.0
142
1.0
142
0.0
142
0.0
142
0.0
142
0.0
142
1.0
179
     0
144
0.0008202099737533
144
0.0
144
0.0
144
0.0
144
0.0
144
0.0008202099737533
144
0.0
144
0.0
144
0.0
144
0.0
144
1.0
144
0.0
144
0.0
144
0.0
144
0.0
144
1.0
147
0.0008202099737533
147
0.0
147
0.0
147
0.0
147
0.0
147
0.0008202099737533
147
0.0
147
0.0
147
0.0
147
0.0
147
1.0
147
0.0
147
0.0
147
0.0
147
0.0
147
1.0
  0
MATERIAL
  5
55
102
{ACAD_XDICTIONARY
360
56
102
}
102
{ACAD_REACTORS
330
1B
102
}
330
1B
100
AcDbMaterial
  1
Global
 43
0.0208000000566244
 43
0.0
 43
0.0
 43
0.0
 43
0.0
 43
0.0208000000566244
 43
0.0
 43
0.0
 43
0.0
 43
0.0
 43
1.0
 43
0.0
 43
0.0
 43
0.0
 43
0.0
 43
1.0
 49
0.0208000000566244
 49
0.0
 49
0.0
 49
0.0
 49
0.0
 49
0.0208000000566244
 49
0.0
 49
0.0
 49
0.0
 49
0.0
 49
1.0
 49
0.0
 49
0.0
 49
0.0
 49
0.0
 49
1.0
142
0.0208000000566244
142
0.0
142
0.0
142
0.0
142
0.0
142
0.0208000000566244
142
0.0
142
0.0
142
0.0
142
0.0
142
1.0
142
0.0
142
0.0
142
0.0
142
0.0
142
1.0
144
0.0208000000566244
144
0.0
144
0.0
144
0.0
144
0.0
144
0.0208000000566244
144
0.0
144
0.0
144
0.0
144
0.0
144
1.0
144
0.0
144
0.0
144
0.0
144
0.0
144
1.0
1001
ACAD
1070
    -1
1070
     3
1070
     0
1000

1071
        0
1070
     0
  0
MLEADERSTYLE
  5
1851
102
{ACAD_REACTORS
330
1850
102
}
330
1850
100
AcDbMLeaderStyle
170
     2
171
     1
172
     0
 90
        2
 40
0.0
 41
0.0
173
     1
 91
-1056964608
340
14
 92
       -2
290
     1
 42
2.0
291
     1
 43
0.36
  3
Standard
 44
4.0
300

342
11
174
     1
178
     6
175
     1
176
     0
 93
-1056964608
 45
4.0
292
     0
297
     0
 46
4.0
 94
-1056964608
 47
1.0
 49
1.0
140
1.0
293
     1
141
0.0
294
     1
177
     0
142
1.0
295
     0
296
     0
143
0.125
1001
ACAD_MLEADERVER
1070
     2
  0
MLINESTYLE
  5
18
102
{ACAD_REACTORS
330
17
102
}
330
17
100
AcDbMlineStyle
  2
STANDARD
 70
     0
  3

 62
   256
 51
90.0
 52
90.0
 71
     2
 49
0.5
 62
   256
  6
BYLAYER
 49
-0.5
 62
   256
  6
BYLAYER
  0
ACDBPLACEHOLDER
  5
F
102
{ACAD_REACTORS
330
E
102
}
330
E
  0
SCALE
  5
182F
102
{ACAD_REACTORS
330
182E
102
}
330
182E
100
AcDbScale
 70
     0
300
1:1
140
1.0
141
1.0
290
     1
  0
SCALE
  5
1830
102
{ACAD_REACTORS
330
182E
102
}
330
182E
100
AcDbScale
 70
     0
300
1:2
140
1.0
141
2.0
290
     0
  0
SCALE
  5
1831
102
{ACAD_REACTORS
330
182E
102
}
330
182E
100
AcDbScale
 70
     0
300
1:4
140
1.0
141
4.0
290
     0
  0
SCALE
  5
1832
102
{ACAD_REACTORS
330
182E
102
}
330
182E
100
AcDbScale
 70
     0
300
1:5
140
1.0
141
5.0
290
     0
  0
SCALE
  5
1833
102
{ACAD_REACTORS
330
182E
102
}
330
182E
100
AcDbScale
 70
     0
300
1:8
140
1.0
141
8.0
290
     0
  0
SCALE
  5
1834
102
{ACAD_REACTORS
330
182E
102
}
330
182E
100
AcDbScale
 70
     0
300
1:10
140
1.0
141
10.0
290
     0
  0
SCALE
  5
1835
102
{ACAD_REACTORS
330
182E
102
}
330
182E
100
AcDbScale
 70
     0
300
1:16
140
1.0
141
16.0
290
     0
  0
SCALE
  5
1836
102
{ACAD_REACTORS
330
182E
102
}
330
182E
100
AcDbScale
 70
     0
300
1:20
140
1.0
141
20.0
290
     0
  0
SCALE
  5
1837
102
{ACAD_REACTORS
330
182E
102
}
330
182E
100
AcDbScale
 70
     0
300
1:30
140
1.0
141
30.0
290
     0
  0
SCALE
  5
1838
102
{ACAD_REACTORS
330
182E
102
}
330
182E
100
AcDbScale
 70
     0
300
1:40
140
1.0
141
40.0
290
     0
  0
SCALE
  5
1839
102
{ACAD_REACTORS
330
182E
102
}
330
182E
100
AcDbScale
 70
     0
300
1:50
140
1.0
141
50.0
290
     0
  0
SCALE
  5
183A
102
{ACAD_REACTORS
330
182E
102
}
330
182E
100
AcDbScale
 70
     0
300
1:100
140
1.0
141
100.0
290
     0
  0
SCALE
  5
183B
102
{ACAD_REACTORS
330
182E
102
}
330
182E
100
AcDbScale
 70
     0
300
2:1
140
2.0
141
1.0
290
     0
  0
SCALE
  5
183C
102
{ACAD_REACTORS
330
182E
102
}
330
182E
100
AcDbScale
 70
     0
300
4:1
140
4.0
141
1.0
290
     0
  0
SCALE
  5
183D
102
{ACAD_REACTORS
330
182E
102
}
330
182E
100
AcDbScale
 70
     0
300
8:1
140
8.0
141
1.0
290
     0
  0
SCALE
  5
183E
102
{ACAD_REACTORS
330
182E
102
}
330
182E
100
AcDbScale
 70
     0
300
10:1
140
10.0
141
1.0
290
     0
  0
SCALE
  5
183F
102
{ACAD_REACTORS
330
182E
102
}
330
182E
100
AcDbScale
 70
     0
300
100:1
140
100.0
141
1.0
290
     0
  0
SCALE
  5
1840
102
{ACAD_REACTORS
330
182E
102
}
330
182E
100
AcDbScale
 70
     0
300
1/128" = 1'-0"
140
0.0078125
141
12.0
290
     0
  0
SCALE
  5
1841
102
{ACAD_REACTORS
330
182E
102
}
330
182E
100
AcDbScale
 70
     0
300
1/64" = 1'-0"
140
0.015625
141
12.0
290
     0
  0
SCALE
  5
1842
102
{ACAD_REACTORS
330
182E
102
}
330
182E
100
AcDbScale
 70
     0
300
1/32" = 1'-0"
140
0.03125
141
12.0
290
     0
  0
SCALE
  5
1843
102
{ACAD_REACTORS
330
182E
102
}
330
182E
100
AcDbScale
 70
     0
300
1/16" = 1'-0"
140
0.0625
141
12.0
290
     0
  0
SCALE
  5
1844
102
{ACAD_REACTORS
330
182E
102
}
330
182E
100
AcDbScale
 70
     0
300
3/32" = 1'-0"
140
0.09375
141
12.0
290
     0
  0
SCALE
  5
1845
102
{ACAD_REACTORS
330
182E
102
}
330
182E
100
AcDbScale
 70
     0
300
1/8" = 1'-0"
140
0.125
141
12.0
290
     0
  0
SCALE
  5
1846
102
{ACAD_REACTORS
330
182E
102
}
330
182E
100
AcDbScale
 70
     0
300
3/16" = 1'-0"
140
0.1875
141
12.0
290
     0
  0
SCALE
  5
1847
102
{ACAD_REACTORS
330
182E
102
}
330
182E
100
AcDbScale
 70
     0
300
1/4" = 1'-0"
140
0.25
141
12.0
290
     0
  0
SCALE
  5
1848
102
{ACAD_REACTORS
330
182E
102
}
330
182E
100
AcDbScale
 70
     0
300
3/8" = 1'-0"
140
0.375
141
12.0
290
     0
  0
SCALE
  5
1849
102
{ACAD_REACTORS
330
182E
102
}
330
182E
100
AcDbScale
 70
     0
300
1/2" = 1'-0"
140
0.5
141
12.0
290
     0
  0
SCALE
  5
184A
102
{ACAD_REACTORS
330
182E
102
}
330
182E
100
AcDbScale
 70
     0
300
3/4" = 1'-0"
140
0.75
141
12.0
290
     0
  0
SCALE
  5
184B
102
{ACAD_REACTORS
330
182E
102
}
330
182E
100
AcDbScale
 70
     0
300
1" = 1'-0"
140
1.0
141
12.0
290
     0
  0
SCALE
  5
184C
102
{ACAD_REACTORS
330
182E
102
}
330
182E
100
AcDbScale
 70
     0
300
1-1/2" = 1'-0"
140
1.5
141
12.0
290
     0
  0
SCALE
  5
184D
102
{ACAD_REACTORS
330
182E
102
}
330
182E
100
AcDbScale
 70
     0
300
3" = 1'-0"
140
3.0
141
12.0
290
     0
  0
SCALE
  5
184E
102
{ACAD_REACTORS
330
182E
102
}
330
182E
100
AcDbScale
 70
     0
300
6" = 1'-0"
140
6.0
141
12.0
290
     0
  0
SCALE
  5
184F
102
{ACAD_REACTORS
330
182E
102
}
330
182E
100
AcDbScale
 70
     0
300
1'-0" = 1'-0"
140
12.0
141
12.0
290
     0
  0
TABLESTYLE
  5
182D
102
{ACAD_XDICTIONARY
360
1871
102
}
102
{ACAD_REACTORS
330
182C
102
}
330
182C
100
AcDbTableStyle
  3
Standard
 70
     0
 71
     0
 40
1.5
 41
1.5
280
     0
281
     0
  7
Standard
140
4.5
170
     2
 62
     0
 63
     7
283
     0
274
    -2
284
     1
 64
     0
275
    -2
285
     1
 65
     0
276
    -2
286
     1
 66
     0
277
    -2
287
     1
 67
     0
278
    -2
288
     1
 68
     0
279
    -2
289
     1
 69
     0
  7
Standard
140
6.0
170
     5
 62
     0
 63
     7
283
     0
274
    -2
284
     1
 64
     0
275
    -2
285
     1
 65
     0
276
    -2
286
     1
 66
     0
277
    -2
287
     1
 67
     0
278
    -2
288
     1
 68
     0
279
    -2
289
     1
 69
     0
  7
Standard
140
4.5
170
     5
 62
     0
 63
     7
283
     0
274
    -2
284
     1
 64
     0
275
    -2
285
     1
 65
     0
276
    -2
286
     1
 66
     0
277
    -2
287
     1
 67
     0
278
    -2
288
     1
 68
     0
279
    -2
289
     1
 69
     0
  0
VISUALSTYLE
  5
1821
102
{ACAD_REACTORS
330
181B
102
}
330
181B
100
AcDbVisualStyle
  2
2dWireframe
 70
     4
 71
     0
 72
     2
 73
     0
 90
        0
 40
-0.6
 41
-30.0
 62
     5
 63
     7
421
 16777215
 74
     1
 91
        4
 64
     7
 65
   257
 75
     1
175
     1
 42
1.0
 92
        0
 66
   257
 43
1.0
 76
     1
 77
     6
 78
     2
 67
     7
 79
     5
170
     0
171
     0
290
     0
174
     0
 93
        1
 44
0.0
173
     0
291
     0
 45
0.0
1001
ACAD
1000
AcDbSavedByObjectVersion
1070
     0
  0
VISUALSTYLE
  5
1823
102
{ACAD_REACTORS
330
181B
102
}
330
181B
100
AcDbVisualStyle
  2
3D Hidden
 70
     6
 71
     1
 72
     2
 73
     2
 90
        0
 40
-0.6
 41
-30.0
 62
     5
 63
     7
421
 16777215
 74
     2
 91
        2
 64
     7
 65
   257
 75
     2
175
     1
 42
40.0
 92
        0
 66
   257
 43
1.0
 76
     1
 77
     6
 78
     2
 67
     7
 79
     3
170
     0
171
     0
290
     0
174
     0
 93
        1
 44
0.0
173
     0
291
     0
 45
0.0
1001
ACAD
1000
AcDbSavedByObjectVersion
1070
     0
  0
VISUALSTYLE
  5
1822
102
{ACAD_REACTORS
330
181B
102
}
330
181B
100
AcDbVisualStyle
  2
3dWireframe
 70
     5
 71
     0
 72
     2
 73
     0
 90
        0
 40
-0.6
 41
-30.0
 62
     5
 63
     7
421
 16777215
 74
     1
 91
        4
 64
     7
 65
   257
 75
     1
175
     1
 42
1.0
 92
        0
 66
   257
 43
1.0
 76
     1
 77
     6
 78
     2
 67
     7
 79
     5
170
     0
171
     0
290
     0
174
     0
 93
        1
 44
0.0
173
     0
291
     0
 45
0.0
1001
ACAD
1000
AcDbSavedByObjectVersion
1070
     0
  0
VISUALSTYLE
  5
1820
102
{ACAD_REACTORS
330
181B
102
}
330
181B
100
AcDbVisualStyle
  2
Basic
 70
     7
 71
     1
 72
     0
 73
     1
 90
        0
 40
-0.6
 41
-30.0
 62
     5
 63
     7
421
 16777215
 74
     0
 91
        4
 64
     7
 65
   257
 75
     1
175
     1
 42
1.0
 92
        8
 66
     7
 43
1.0
 76
     1
 77
     6
 78
     2
 67
     7
 79
     5
170
     0
171
     0
290
     0
174
     0
 93
        1
 44
0.0
173
     0
291
     1
 45
0.0
1001
ACAD
1000
AcDbSavedByObjectVersion
1070
     0
  0
VISUALSTYLE
  5
1827
102
{ACAD_REACTORS
330
181B
102
}
330
181B
100
AcDbVisualStyle
  2
Brighten
 70
    12
 71
     2
 72
     2
 73
     0
 90
        0
 40
-0.6
 41
-30.0
 62
     5
 63
     7
421
 16777215
 74
     1
 91
        4
 64
     7
 65
   257
 75
     1
175
     1
 42
1.0
 92
        8
 66
     7
 43
1.0
 76
     1
 77
     6
 78
     2
 67
     7
 79
     5
170
     0
171
     0
290
     0
174
     0
 93
        1
 44
50.0
173
     0
291
     1
 45
0.0
1001
ACAD
1000
AcDbSavedByObjectVersion
1070
     0
  0
VISUALSTYLE
  5
182B
102
{ACAD_REACTORS
330
181B
102
}
330
181B
100
AcDbVisualStyle
  2
ColorChange
 70
    16
 71
     2
 72
     2
 73
     3
 90
        0
 40
-0.6
 41
-30.0
 62
     5
 63
     8
421
  8421504
 74
     1
 91
        4
 64
     7
 65
   257
 75
     1
175
     1
 42
1.0
 92
        8
 66
     8
424
  8421504
 43
1.0
 76
     1
 77
     6
 78
     2
 67
     7
 79
     5
170
     0
171
     0
290
     0
174
     0
 93
        1
 44
0.0
173
     0
291
     1
 45
0.0
1001
ACAD
1000
AcDbSavedByObjectVersion
1070
     0
  0
VISUALSTYLE
  5
1824
102
{ACAD_REACTORS
330
181B
102
}
330
181B
100
AcDbVisualStyle
  2
Conceptual
 70
     9
 71
     3
 72
     2
 73
     0
 90
        0
 40
-0.6
 41
-30.0
 62
     5
 63
     7
421
 16777215
 74
     2
 91
        2
 64
     7
 65
   257
 75
     1
175
     1
 42
40.0
 92
        8
 66
     7
 43
1.0
 76
     1
 77
     6
 78
     2
 67
     7
 79
     3
170
     0
171
     0
290
     0
174
     0
 93
        1
 44
0.0
173
     0
291
     0
 45
0.0
1001
ACAD
1000
AcDbSavedByObjectVersion
1070
     0
  0
VISUALSTYLE
  5
1826
102
{ACAD_REACTORS
330
181B
102
}
330
181B
100
AcDbVisualStyle
  2
Dim
 70
    11
 71
     2
 72
     2
 73
     0
 90
        0
 40
-0.6
 41
-30.0
 62
     5
 63
     7
421
 16777215
 74
     1
 91
        4
 64
     7
 65
   257
 75
     1
175
     1
 42
1.0
 92
        8
 66
     7
 43
1.0
 76
     1
 77
     6
 78
     2
 67
     7
 79
     5
170
     0
171
     0
290
     0
174
     0
 93
        1
 44
-50.0
173
     0
291
     1
 45
0.0
1001
ACAD
1000
AcDbSavedByObjectVersion
1070
     0
  0
VISUALSTYLE
  5
182A
102
{ACAD_REACTORS
330
181B
102
}
330
181B
100
AcDbVisualStyle
  2
Facepattern
 70
    15
 71
     2
 72
     2
 73
     0
 90
        0
 40
-0.6
 41
-30.0
 62
     5
 63
     7
421
 16777215
 74
     1
 91
        4
 64
     7
 65
   257
 75
     1
175
     1
 42
1.0
 92
        8
 66
     7
 43
1.0
 76
     1
 77
     6
 78
     2
 67
     7
 79
     5
170
     0
171
     0
290
     0
174
     0
 93
        1
 44
0.0
173
     0
291
     1
 45
0.0
1001
ACAD
1000
AcDbSavedByObjectVersion
1070
     0
  0
VISUALSTYLE
  5
181C
102
{ACAD_REACTORS
330
181B
102
}
330
181B
100
AcDbVisualStyle
  2
Flat
 70
     0
 71
     2
 72
     1
 73
     1
 90
        2
 40
-0.6
 41
30.0
 62
     5
 63
     7
421
 16777215
 74
     0
 91
        4
 64
     7
 65
   257
 75
     1
175
     1
 42
1.0
 92
        8
 66
     7
 43
1.0
 76
     1
 77
     6
 78
     2
 67
     7
 79
     5
170
     0
171
     0
290
     0
174
     0
 93
       13
 44
0.0
173
     0
291
     1
 45
0.0
1001
ACAD
1000
AcDbSavedByObjectVersion
1070
     0
  0
VISUALSTYLE
  5
181D
102
{ACAD_REACTORS
330
181B
102
}
330
181B
100
AcDbVisualStyle
  2
FlatWithEdges
 70
     1
 71
     2
 72
     1
 73
     1
 90
        2
 40
-0.6
 41
30.0
 62
     5
 63
     7
421
 16777215
 74
     1
 91
        4
 64
     7
 65
   257
 75
     1
175
     1
 42
1.0
 92
        0
 66
   257
 43
1.0
 76
     1
 77
     6
 78
     2
 67
     7
 79
     5
170
     0
171
     0
290
     0
174
     0
 93
       13
 44
0.0
173
     0
291
     1
 45
0.0
1001
ACAD
1000
AcDbSavedByObjectVersion
1070
     0
  0
VISUALSTYLE
  5
181E
102
{ACAD_REACTORS
330
181B
102
}
330
181B
100
AcDbVisualStyle
  2
Gouraud
 70
     2
 71
     2
 72
     2
 73
     1
 90
        2
 40
-0.6
 41
30.0
 62
     5
 63
     7
421
 16777215
 74
     0
 91
        4
 64
     7
 65
   257
 75
     1
175
     1
 42
1.0
 92
        0
 66
     7
 43
1.0
 76
     1
 77
     6
 78
     2
 67
     7
 79
     5
170
     0
171
     0
290
     0
174
     0
 93
       13
 44
0.0
173
     0
291
     1
 45
0.0
1001
ACAD
1000
AcDbSavedByObjectVersion
1070
     0
  0
VISUALSTYLE
  5
181F
102
{ACAD_REACTORS
330
181B
102
}
330
181B
100
AcDbVisualStyle
  2
GouraudWithEdges
 70
     3
 71
     2
 72
     2
 73
     1
 90
        2
 40
-0.6
 41
30.0
 62
     5
 63
     7
421
 16777215
 74
     1
 91
        4
 64
     7
 65
   257
 75
     1
175
     1
 42
1.0
 92
        0
 66
   257
 43
1.0
 76
     1
 77
     6
 78
     2
 67
     7
 79
     5
170
     0
171
     0
290
     0
174
     0
 93
       13
 44
0.0
173
     0
291
     1
 45
0.0
1001
ACAD
1000
AcDbSavedByObjectVersion
1070
     0
  0
VISUALSTYLE
  5
1829
102
{ACAD_REACTORS
330
181B
102
}
330
181B
100
AcDbVisualStyle
  2
Linepattern
 70
    14
 71
     2
 72
     2
 73
     0
 90
        0
 40
-0.6
 41
-30.0
 62
     5
 63
     7
421
 16777215
 74
     1
 91
        4
 64
     7
 65
   257
 75
     7
175
     7
 42
1.0
 92
        8
 66
     7
 43
1.0
 76
     1
 77
     6
 78
     2
 67
     7
 79
     5
170
     0
171
     0
290
     0
174
     0
 93
        1
 44
0.0
173
     0
291
     1
 45
0.0
1001
ACAD
1000
AcDbSavedByObjectVersion
1070
     0
  0
VISUALSTYLE
  5
1825
102
{ACAD_REACTORS
330
181B
102
}
330
181B
100
AcDbVisualStyle
  2
Realistic
 70
     8
 71
     2
 72
     2
 73
     0
 90
        0
 40
-0.6
 41
-30.0
 62
     5
 63
     7
421
 16777215
 74
     1
 91
        0
 64
     7
 65
   257
 75
     1
175
     1
 42
1.0
 92
        8
 66
     8
424
  7895160
 43
1.0
 76
     1
 77
     6
 78
     2
 67
     7
 79
     5
170
     0
171
     0
290
     0
174
     0
 93
       13
 44
0.0
173
     0
291
     0
 45
0.0
1001
ACAD
1000
AcDbSavedByObjectVersion
1070
     0
  0
VISUALSTYLE
  5
1828
102
{ACAD_REACTORS
330
181B
102
}
330
181B
100
AcDbVisualStyle
  2
Thicken
 70
    13
 71
     2
 72
     2
 73
     0
 90
        0
 40
-0.6
 41
-30.0
 62
     5
 63
     7
421
 16777215
 74
     1
 91
        4
 64
     7
 65
   257
 75
     1
175
     1
 42
1.0
 92
       12
 66
     7
 43
1.0
 76
     1
 77
     6
 78
     2
 67
     7
 79
     5
170
     0
171
     0
290
     0
174
     0
 93
        1
 44
0.0
173
     0
291
     1
 45
0.0
1001
ACAD
1000
AcDbSavedByObjectVersion
1070
     0
  0
DICTIONARYVAR
  5
1870
102
{ACAD_REACTORS
330
186D
102
}
330
186D
100
DictionaryVariables
280
     0
  1
1:1
  0
DICTIONARYVAR
  5
186F
102
{ACAD_REACTORS
330
186D
102
}
330
186D
100
DictionaryVariables
280
     0
  1
STANDARD
  0
DICTIONARYVAR
  5
186E
102
{ACAD_REACTORS
330
186D
102
}
330
186D
100
DictionaryVariables
280
     0
  1
STANDARD
  0
DICTIONARY
  5
1814
330
1813
100
AcDbDictionary
280
     1
281
     1
  3
ACAD_XREC_ROUNDTRIP
360
1876
  3
BUMPTILE
360
1816
  3
DIFFUSETILE
360
1815
  3
OPACITYTILE
360
1819
  3
REFLECTIONTILE
360
1818
  3
REFRACTIONTILE
360
181A
  3
SPECULARTILE
360
1817
  0
DICTIONARY
  5
180C
330
180B
100
AcDbDictionary
280
     1
281
     1
  3
ACAD_XREC_ROUNDTRIP
360
1875
  3
BUMPTILE
360
180E
  3
DIFFUSETILE
360
180D
  3
OPACITYTILE
360
1811
  3
REFLECTIONTILE
360
1810
  3
REFRACTIONTILE
360
1812
  3
SPECULARTILE
360
180F
  0
DICTIONARY
  5
56
330
55
100
AcDbDictionary
280
     1
281
     1
  3
ACAD_XREC_ROUNDTRIP
360
1874
  3
BUMPTILE
360
58
  3
DIFFUSETILE
360
59
  3
OPACITYTILE
360
5A
  3
REFLECTIONTILE
360
5B
  0
DICTIONARY
  5
1871
330
182D
100
AcDbDictionary
280
     1
281
     1
  3
ACAD_ROUNDTRIP_2008_TABLESTYLE_CELLSTYLEMAP
360
1872
  3
ACAD_XREC_ROUNDTRIP
360
1877
  0
XRECORD
  5
1876
102
{ACAD_REACTORS
330
1814
102
}
330
1814
100
AcDbXrecord
280
     1
102
MATERIAL
148
0.0
149
0.0
149
0.0
 93
        0
 94
      127
282
     0
 72
     0
 77
     0
171
     0
175
     0
179
     0
273
     0
  0
XRECORD
  5
1816
102
{ACAD_REACTORS
330
1814
102
}
330
1814
100
AcDbXrecord
280
     1
270
     1
271
     1
  0
XRECORD
  5
1815
102
{ACAD_REACTORS
330
1814
102
}
330
1814
100
AcDbXrecord
280
     1
270
     1
271
     1
  0
XRECORD
  5
1819
102
{ACAD_REACTORS
330
1814
102
}
330
1814
100
AcDbXrecord
280
     1
270
     1
271
     1
  0
XRECORD
  5
1818
102
{ACAD_REACTORS
330
1814
102
}
330
1814
100
AcDbXrecord
280
     1
270
     1
271
     1
  0
XRECORD
  5
181A
102
{ACAD_REACTORS
330
1814
102
}
330
1814
100
AcDbXrecord
280
     1
270
     1
271
     1
  0
XRECORD
  5
1817
102
{ACAD_REACTORS
330
1814
102
}
330
1814
100
AcDbXrecord
280
     1
270
     1
271
     1
  0
XRECORD
  5
1875
102
{ACAD_REACTORS
330
180C
102
}
330
180C
100
AcDbXrecord
280
     1
102
MATERIAL
148
0.0
149
0.0
149
0.0
 93
        0
 94
      127
282
     0
 72
     0
 77
     0
171
     0
175
     0
179
     0
273
     0
  0
XRECORD
  5
180E
102
{ACAD_REACTORS
330
180C
102
}
330
180C
100
AcDbXrecord
280
     1
270
     1
271
     1
  0
XRECORD
  5
180D
102
{ACAD_REACTORS
330
180C
102
}
330
180C
100
AcDbXrecord
280
     1
270
     1
271
     1
  0
XRECORD
  5
1811
102
{ACAD_REACTORS
330
180C
102
}
330
180C
100
AcDbXrecord
280
     1
270
     1
271
     1
  0
XRECORD
  5
1810
102
{ACAD_REACTORS
330
180C
102
}
330
180C
100
AcDbXrecord
280
     1
270
     1
271
     1
  0
XRECORD
  5
1812
102
{ACAD_REACTORS
330
180C
102
}
330
180C
100
AcDbXrecord
280
     1
270
     1
271
     1
  0
XRECORD
  5
180F
102
{ACAD_REACTORS
330
180C
102
}
330
180C
100
AcDbXrecord
280
     1
270
     1
271
     1
  0
XRECORD
  5
1874
102
{ACAD_REACTORS
330
56
102
}
330
56
100
AcDbXrecord
280
     1
102
MATERIAL
148
0.0
149
0.0
149
0.0
 93
        0
 94
       63
282
     0
 72
     1
 77
     1
171
     1
175
     1
179
     1
273
     0
  0
XRECORD
  5
58
102
{ACAD_REACTORS
330
56
102
}
330
56
100
AcDbXrecord
280
     1
270
     1
271
     1
  0
XRECORD
  5
59
102
{ACAD_REACTORS
330
56
102
}
330
56
100
AcDbXrecord
280
     1
270
     1
271
     1
  0
XRECORD
  5
5A
102
{ACAD_REACTORS
330
56
102
}
330
56
100
AcDbXrecord
280
     1
270
     1
271
     1
  0
XRECORD
  5
5B
102
{ACAD_REACTORS
330
56
102
}
330
56
100
AcDbXrecord
280
     1
270
     1
271
     1
  0
CELLSTYLEMAP
  5
1872
102
{ACAD_REACTORS
330
1871
102
}
330
1871
100
AcDbCellStyleMap
 90
        3
300
CELLSTYLE
  1
TABLEFORMAT_BEGIN
 90
        5
170
     1
 91
        0
 92
    32768
 62
   257
 93
        1
300
CONTENTFORMAT
  1
CONTENTFORMAT_BEGIN
 90
        0
 91
        0
 92
      512
 93
        0
300

 40
0.0
140
1.0
 94
        5
 62
     0
340
11
144
6.0
309
CONTENTFORMAT_END
171
     1
301
MARGIN
  1
CELLMARGIN_BEGIN
 40
1.5
 40
1.5
 40
1.5
 40
1.5
 40
4.5
 40
4.5
309
CELLMARGIN_END
 94
        6
 95
        1
302
GRIDFORMAT
  1
GRIDFORMAT_BEGIN
 90
        0
 91
        1
 62
     0
 92
       -2
340
0
 93
        0
 40
1.125
309
GRIDFORMAT_END
 95
        2
302
GRIDFORMAT
  1
GRIDFORMAT_BEGIN
 90
        0
 91
        1
 62
     0
 92
       -2
340
0
 93
        0
 40
1.125
309
GRIDFORMAT_END
 95
        4
302
GRIDFORMAT
  1
GRIDFORMAT_BEGIN
 90
        0
 91
        1
 62
     0
 92
       -2
340
0
 93
        0
 40
1.125
309
GRIDFORMAT_END
 95
        8
302
GRIDFORMAT
  1
GRIDFORMAT_BEGIN
 90
        0
 91
        1
 62
     0
 92
       -2
340
0
 93
        0
 40
1.125
309
GRIDFORMAT_END
 95
       16
302
GRIDFORMAT
  1
GRIDFORMAT_BEGIN
 90
        0
 91
        1
 62
     0
 92
       -2
340
0
 93
        0
 40
1.125
309
GRIDFORMAT_END
 95
       32
302
GRIDFORMAT
  1
GRIDFORMAT_BEGIN
 90
        0
 91
        1
 62
     0
 92
       -2
340
0
 93
        0
 40
1.125
309
GRIDFORMAT_END
309
TABLEFORMAT_END
  1
CELLSTYLE_BEGIN
 90
        1
 91
        1
300
_TITLE
309
CELLSTYLE_END
300
CELLSTYLE
  1
TABLEFORMAT_BEGIN
 90
        5
170
     1
 91
        0
 92
        0
 62
   257
 93
        1
300
CONTENTFORMAT
  1
CONTENTFORMAT_BEGIN
 90
        0
 91
        0
 92
      512
 93
        0
300

 40
0.0
140
1.0
 94
        5
 62
     0
340
11
144
4.5
309
CONTENTFORMAT_END
171
     1
301
MARGIN
  1
CELLMARGIN_BEGIN
 40
1.5
 40
1.5
 40
1.5
 40
1.5
 40
4.5
 40
4.5
309
CELLMARGIN_END
 94
        6
 95
        1
302
GRIDFORMAT
  1
GRIDFORMAT_BEGIN
 90
        0
 91
        1
 62
     0
 92
       -2
340
0
 93
        0
 40
1.125
309
GRIDFORMAT_END
 95
        2
302
GRIDFORMAT
  1
GRIDFORMAT_BEGIN
 90
        0
 91
        1
 62
     0
 92
       -2
340
0
 93
        0
 40
1.125
309
GRIDFORMAT_END
 95
        4
302
GRIDFORMAT
  1
GRIDFORMAT_BEGIN
 90
        0
 91
        1
 62
     0
 92
       -2
340
0
 93
        0
 40
1.125
309
GRIDFORMAT_END
 95
        8
302
GRIDFORMAT
  1
GRIDFORMAT_BEGIN
 90
        0
 91
        1
 62
     0
 92
       -2
340
0
 93
        0
 40
1.125
309
GRIDFORMAT_END
 95
       16
302
GRIDFORMAT
  1
GRIDFORMAT_BEGIN
 90
        0
 91
        1
 62
     0
 92
       -2
340
0
 93
        0
 40
1.125
309
GRIDFORMAT_END
 95
       32
302
GRIDFORMAT
  1
GRIDFORMAT_BEGIN
 90
        0
 91
        1
 62
     0
 92
       -2
340
0
 93
        0
 40
1.125
309
GRIDFORMAT_END
309
TABLEFORMAT_END
  1
CELLSTYLE_BEGIN
 90
        2
 91
        1
300
_HEADER
309
CELLSTYLE_END
300
CELLSTYLE
  1
TABLEFORMAT_BEGIN
 90
        5
170
     1
 91
        0
 92
        0
 62
   257
 93
        1
300
CONTENTFORMAT
  1
CONTENTFORMAT_BEGIN
 90
        0
 91
        0
 92
      512
 93
        0
300

 40
0.0
140
1.0
 94
        2
 62
     0
340
11
144
4.5
309
CONTENTFORMAT_END
171
     1
301
MARGIN
  1
CELLMARGIN_BEGIN
 40
1.5
 40
1.5
 40
1.5
 40
1.5
 40
4.5
 40
4.5
309
CELLMARGIN_END
 94
        6
 95
        1
302
GRIDFORMAT
  1
GRIDFORMAT_BEGIN
 90
        0
 91
        1
 62
     0
 92
       -2
340
0
 93
        0
 40
1.125
309
GRIDFORMAT_END
 95
        2
302
GRIDFORMAT
  1
GRIDFORMAT_BEGIN
 90
        0
 91
        1
 62
     0
 92
       -2
340
0
 93
        0
 40
1.125
309
GRIDFORMAT_END
 95
        4
302
GRIDFORMAT
  1
GRIDFORMAT_BEGIN
 90
        0
 91
        1
 62
     0
 92
       -2
340
0
 93
        0
 40
1.125
309
GRIDFORMAT_END
 95
        8
302
GRIDFORMAT
  1
GRIDFORMAT_BEGIN
 90
        0
 91
        1
 62
     0
 92
       -2
340
0
 93
        0
 40
1.125
309
GRIDFORMAT_END
 95
       16
302
GRIDFORMAT
  1
GRIDFORMAT_BEGIN
 90
        0
 91
        1
 62
     0
 92
       -2
340
0
 93
        0
 40
1.125
309
GRIDFORMAT_END
 95
       32
302
GRIDFORMAT
  1
GRIDFORMAT_BEGIN
 90
        0
 91
        1
 62
     0
 92
       -2
340
0
 93
        0
 40
1.125
309
GRIDFORMAT_END
309
TABLEFORMAT_END
  1
CELLSTYLE_BEGIN
 90
        3
 91
        2
300
_DATA
309
CELLSTYLE_END
  0
XRECORD
  5
1877
102
{ACAD_REACTORS
330
1871
102
}
330
1871
100
AcDbXrecord
280
     1
102
ACAD_ROUNDTRIP_PRE2007_TABLESTYLE
 90
      512
 91
        0
  1

 92
      512
 93
        0
  2

 94
      512
 95
        0
  3

  0
ENDSEC
  0
EOF
