  0
SECTION
  2
HEADER
  9
$ACADVER
  1
AC1015
  9
$ACADMAINTVER
 70
     6
  9
$DWGCODEPAGE
  3
ANSI_932
  9
$INSBASE
 10
0.0
 20
0.0
 30
0.0
  9
$EXTMIN
 10
-0.100006
 20
-0.100006
 30
0.0
  9
$EXTMAX
 10
402.0
 20
285.452606
 30
0.0
  9
$LIMMIN
 10
0.0
 20
0.0
  9
$LIMMAX
 10
12.0
 20
9.0
  9
$ORTHOMODE
 70
     0
  9
$REGENMODE
 70
     1
  9
$FILLMODE
 70
     1
  9
$QTEXTMODE
 70
     0
  9
$MIRRTEXT
 70
     1
  9
$LTSCALE
 40
4.931782
  9
$ATTMODE
 70
     1
  9
$TEXTSIZE
 40
3.2
  9
$TRACEWID
 40
1.0
  9
$TEXTSTYLE
  7
Standard
  9
$CLAYER
  8
0
  9
$CELTYPE
  6
ByLayer
  9
$CECOLOR
 62
   256
  9
$CELTSCALE
 40
1.0
  9
$DISPSILH
 70
     0
  9
$DIMSCALE
 40
1.0
  9
$DIMASZ
 40
2.5
  9
$DIMEXO
 40
0.625
  9
$DIMDLI
 40
3.75
  9
$DIMRND
 40
0.0
  9
$DIMDLE
 40
0.0
  9
$DIMEXE
 40
1.25
  9
$DIMTP
 40
0.0
  9
$DIMTM
 40
0.0
  9
$DIMTXT
 40
2.5
  9
$DIMCEN
 40
0.09
  9
$DIMTSZ
 40
0.0
  9
$DIMTOL
 70
     0
  9
$DIMLIM
 70
     0
  9
$DIMTIH
 70
     0
  9
$DIMTOH
 70
     0
  9
$DIMSE1
 70
     0
  9
$DIMSE2
 70
     0
  9
$DIMTAD
 70
     0
  9
$DIMZIN
 70
     8
  9
$DIMBLK
  1

  9
$DIMASO
 70
     1
  9
$DIMSHO
 70
     0
  9
$DIMPOST
  1

  9
$DIMAPOST
  1

  9
$DIMALT
 70
     0
  9
$DIMALTD
 70
     3
  9
$DIMALTF
 40
0.03937
  9
$DIMLFAC
 40
1.0
  9
$DIMTOFL
 70
     1
  9
$DIMTVP
 40
0.0
  9
$DIMTIX
 70
     0
  9
$DIMSOXD
 70
     0
  9
$DIMSAH
 70
     0
  9
$DIMBLK1
  1

  9
$DIMBLK2
  1

  9
$DIMSTYLE
  2
ISO-25
  9
$DIMCLRD
 70
     0
  9
$DIMCLRE
 70
     0
  9
$DIMCLRT
 70
     0
  9
$DIMTFAC
 40
1.0
  9
$DIMGAP
 40
0.625
  9
$DIMJUST
 70
     0
  9
$DIMSD1
 70
     0
  9
$DIMSD2
 70
     0
  9
$DIMTOLJ
 70
     0
  9
$DIMTZIN
 70
     8
  9
$DIMALTZ
 70
     0
  9
$DIMALTTZ
 70
     0
  9
$DIMUPT
 70
     0
  9
$DIMDEC
 70
     2
  9
$DIMTDEC
 70
     2
  9
$DIMALTU
 70
     2
  9
$DIMALTTD
 70
     3
  9
$DIMTXSTY
  7
Standard
  9
$DIMAUNIT
 70
     0
  9
$DIMADEC
 70
     0
  9
$DIMALTRND
 40
0.0
  9
$DIMAZIN
 70
     0
  9
$DIMDSEP
 70
    44
  9
$DIMATFIT
 70
     3
  9
$DIMFRAC
 70
     0
  9
$DIMLDRBLK
  1

  9
$DIMLUNIT
 70
     2
  9
$DIMLWD
 70
    -2
  9
$DIMLWE
 70
    -2
  9
$DIMTMOVE
 70
     0
  9
$LUNITS
 70
     2
  9
$LUPREC
 70
     4
  9
$SKETCHINC
 40
1.0
  9
$FILLETRAD
 40
0.0
  9
$AUNITS
 70
     0
  9
$AUPREC
 70
     0
  9
$MENU
  1
.
  9
$ELEVATION
 40
0.0
  9
$PELEVATION
 40
0.0
  9
$THICKNESS
 40
0.0
  9
$LIMCHECK
 70
     0
  9
$CHAMFERA
 40
10.0
  9
$CHAMFERB
 40
10.0
  9
$CHAMFERC
 40
20.0
  9
$CHAMFERD
 40
0.0
  9
$SKPOLY
 70
     0
  9
$TDCREATE
 40
2456793.60830809
  9
$TDUCREATE
 40
2456793.23330809
  9
$TDUPDATE
 40
2456793.608308102
  9
$TDUUPDATE
 40
2456793.233308102
  9
$TDINDWG
 40
0.0000000116
  9
$TDUSRTIMER
 40
0.0000000116
  9
$USRTIMER
 70
     1
  9
$ANGBASE
 50
0.0
  9
$ANGDIR
 70
     0
  9
$PDMODE
 70
     0
  9
$PDSIZE
 40
0.0
  9
$PLINEWID
 40
0.0
  9
$SPLFRAME
 70
     0
  9
$SPLINETYPE
 70
     6
  9
$SPLINESEGS
 70
     8
  9
$HANDSEED
  5
4D0
  9
$SURFTAB1
 70
     6
  9
$SURFTAB2
 70
     6
  9
$SURFTYPE
 70
     6
  9
$SURFU
 70
     6
  9
$SURFV
 70
     6
  9
$UCSBASE
  2

  9
$UCSNAME
  2

  9
$UCSORG
 10
0.0
 20
0.0
 30
0.0
  9
$UCSXDIR
 10
1.0
 20
0.0
 30
0.0
  9
$UCSYDIR
 10
0.0
 20
1.0
 30
0.0
  9
$UCSORTHOREF
  2

  9
$UCSORTHOVIEW
 70
     0
  9
$UCSORGTOP
 10
0.0
 20
0.0
 30
0.0
  9
$UCSORGBOTTOM
 10
0.0
 20
0.0
 30
0.0
  9
$UCSORGLEFT
 10
0.0
 20
0.0
 30
0.0
  9
$UCSORGRIGHT
 10
0.0
 20
0.0
 30
0.0
  9
$UCSORGFRONT
 10
0.0
 20
0.0
 30
0.0
  9
$UCSORGBACK
 10
0.0
 20
0.0
 30
0.0
  9
$PUCSBASE
  2

  9
$PUCSNAME
  2

  9
$PUCSORG
 10
0.0
 20
0.0
 30
0.0
  9
$PUCSXDIR
 10
1.0
 20
0.0
 30
0.0
  9
$PUCSYDIR
 10
0.0
 20
1.0
 30
0.0
  9
$PUCSORTHOREF
  2

  9
$PUCSORTHOVIEW
 70
     0
  9
$PUCSORGTOP
 10
0.0
 20
0.0
 30
0.0
  9
$PUCSORGBOTTOM
 10
0.0
 20
0.0
 30
0.0
  9
$PUCSORGLEFT
 10
0.0
 20
0.0
 30
0.0
  9
$PUCSORGRIGHT
 10
0.0
 20
0.0
 30
0.0
  9
$PUCSORGFRONT
 10
0.0
 20
0.0
 30
0.0
  9
$PUCSORGBACK
 10
0.0
 20
0.0
 30
0.0
  9
$USERI1
 70
     0
  9
$USERI2
 70
     0
  9
$USERI3
 70
     0
  9
$USERI4
 70
     0
  9
$USERI5
 70
     0
  9
$USERR1
 40
0.0
  9
$USERR2
 40
0.0
  9
$USERR3
 40
0.0
  9
$USERR4
 40
0.0
  9
$USERR5
 40
0.0
  9
$WORLDVIEW
 70
     1
  9
$SHADEDGE
 70
     3
  9
$SHADEDIF
 70
    70
  9
$TILEMODE
 70
     1
  9
$MAXACTVP
 70
    64
  9
$PINSBASE
 10
0.0
 20
0.0
 30
0.0
  9
$PLIMCHECK
 70
     0
  9
$PEXTMIN
 10
1.000000E+20
 20
1.000000E+20
 30
0.0
  9
$PEXTMAX
 10
-1.000000E+20
 20
-1.000000E+20
 30
0.0
  9
$PLIMMIN
 10
0.0
 20
0.0
  9
$PLIMMAX
 10
12.0
 20
9.0
  9
$UNITMODE
 70
     0
  9
$VISRETAIN
 70
     1
  9
$PLINEGEN
 70
     0
  9
$PSLTSCALE
 70
     1
  9
$TREEDEPTH
 70
  3020
  9
$CMLSTYLE
  2
Standard
  9
$CMLJUST
 70
     0
  9
$CMLSCALE
 40
20.0
  9
$PROXYGRAPHICS
 70
     1
  9
$MEASUREMENT
 70
     1
  9
$CELWEIGHT
370
    -1
  9
$ENDCAPS
280
     0
  9
$JOINSTYLE
280
     0
  9
$LWDISPLAY
290
     0
  9
$INSUNITS
 70
     4
  9
$HYPERLINKBASE
  1

  9
$STYLESHEET
  1

  9
$XEDIT
290
     1
  9
$CEPSNTYPE
380
     0
  9
$PSTYLEMODE
290
     1
  9
$FINGERPRINTGUID
  2
{261848C3-5EA1-4439-A803-A23FD4589027}
  9
$VERSIONGUID
  2
{FAEB1C32-E019-11D5-929B-00C0DF256EC4}
  9
$EXTNAMES
290
     1
  9
$PSVPSCALE
 40
0.0
  9
$OLESTARTUP
290
     0
  0
ENDSEC
  0
SECTION
  2
CLASSES
  0
CLASS
  1
ACDBDICTIONARYWDFLT
  2
AcDbDictionaryWithDefault
  3
ObjectDBX Classes
 90
        0
280
     0
281
     0
  0
CLASS
  1
VISUALSTYLE
  2
AcDbVisualStyle
  3
ObjectDBX Classes
 90
     4095
280
     0
281
     0
  0
CLASS
  1
SCALE
  2
AcDbScale
  3
ObjectDBX Classes
 90
     1153
280
     0
281
     0
  0
CLASS
  1
DICTIONARYVAR
  2
AcDbDictionaryVar
  3
ObjectDBX Classes
 90
        0
280
     0
281
     0
  0
CLASS
  1
ACDBPLACEHOLDER
  2
AcDbPlaceHolder
  3
ObjectDBX Classes
 90
        0
280
     0
281
     0
  0
CLASS
  1
LAYOUT
  2
AcDbLayout
  3
ObjectDBX Classes
 90
        0
280
     0
281
     0
  0
ENDSEC
  0
SECTION
  2
TABLES
  0
TABLE
  2
VPORT
  5
8
330
0
100
AcDbSymbolTable
 70
     1
  0
VPORT
  5
29
330
8
100
AcDbSymbolTableRecord
100
AcDbViewportTableRecord
  2
*Active
 70
     0
 10
0.0
 20
0.0
 11
1.0
 21
1.0
 12
200.949997
 22
142.6763
 13
0.0
 23
0.0
 14
1.0
 24
1.0
 15
0.0
 25
0.0
 16
0.0
 26
0.0
 36
1.0
 17
0.0
 27
0.0
 37
0.0
 40
288.408138
 41
1.691288
 42
50.0
 43
0.0
 44
0.0
 50
0.0
 51
0.0
 71
     0
 72
  1000
 73
     1
 74
     3
 75
     0
 76
     0
 77
     0
 78
     0
281
     0
 65
     1
110
0.0
120
0.0
130
0.0
111
1.0
121
0.0
131
0.0
112
0.0
122
1.0
132
0.0
 79
     0
146
0.0
  0
ENDTAB
  0
TABLE
  2
LTYPE
  5
5
330
0
100
AcDbSymbolTable
 70
     5
  0
LTYPE
  5
14
330
5
100
AcDbSymbolTableRecord
100
AcDbLinetypeTableRecord
  2
ByBlock
 70
     0
  3

 72
    65
 73
     0
 40
0.0
  0
LTYPE
  5
15
330
5
100
AcDbSymbolTableRecord
100
AcDbLinetypeTableRecord
  2
ByLayer
 70
     0
  3

 72
    65
 73
     0
 40
0.0
  0
LTYPE
  5
16
330
5
100
AcDbSymbolTableRecord
100
AcDbLinetypeTableRecord
  2
Continuous
 70
     0
  3
Solid line
 72
    65
 73
     0
 40
0.0
  0
LTYPE
  5
3B
330
5
100
AcDbSymbolTableRecord
100
AcDbLinetypeTableRecord
  2
DASHED
 70
     0
  3
DASHED
 72
    83
 73
     2
 40
0.75
 49
0.5
 74
     0
 49
-0.25
 74
     0
  0
LTYPE
  5
3C
330
5
100
AcDbSymbolTableRecord
100
AcDbLinetypeTableRecord
  2
HIDDEN
 70
     0
  3
HIDDEN
 72
    83
 73
     2
 40
0.375
 49
0.25
 74
     0
 49
-0.125
 74
     0
  0
LTYPE
  5
3D
330
5
100
AcDbSymbolTableRecord
100
AcDbLinetypeTableRecord
  2
CENTER
 70
     0
  3
CENTER
 72
    83
 73
     4
 40
2.0
 49
1.25
 74
     0
 49
-0.25
 74
     0
 49
0.25
 74
     0
 49
-0.25
 74
     0
  0
LTYPE
  5
3E
330
5
100
AcDbSymbolTableRecord
100
AcDbLinetypeTableRecord
  2
PHANTOM
 70
     0
  3
PHANTOM
 72
    83
 73
     6
 40
2.5
 49
1.25
 74
     0
 49
-0.25
 74
     0
 49
0.25
 74
     0
 49
-0.25
 74
     0
 49
0.25
 74
     0
 49
-0.25
 74
     0
  0
ENDTAB
  0
TABLE
  2
LAYER
  5
2
330
0
100
AcDbSymbolTable
 70
     8
  0
LAYER
  5
10
330
2
100
AcDbSymbolTableRecord
100
AcDbLayerTableRecord
  2
0
 70
     0
 62
     7
  6
Continuous
370
    -3
390
F
  0
LAYER
  5
3F
330
2
100
AcDbSymbolTableRecord
100
AcDbLayerTableRecord
  2
001
 70
     0
 62
     7
  6
Continuous
370
    -3
390
F
  0
LAYER
  5
40
330
2
100
AcDbSymbolTableRecord
100
AcDbLayerTableRecord
  2
gaikei
 70
     0
 62
     7
  6
Continuous
370
    -3
390
F
  0
LAYER
  5
41
330
2
100
AcDbSymbolTableRecord
100
AcDbLayerTableRecord
  2
sumpo
 70
     0
 62
     7
  6
Continuous
370
    -3
390
F
  0
LAYER
  5
42
330
2
100
AcDbSymbolTableRecord
100
AcDbLayerTableRecord
  2
moji
 70
     0
 62
     7
  6
Continuous
370
    -3
390
F
  0
LAYER
  5
43
330
2
100
AcDbSymbolTableRecord
100
AcDbLayerTableRecord
  2
shiyouwaku
 70
     0
 62
     7
  6
Continuous
370
    -3
390
F
  0
LAYER
  5
44
330
2
100
AcDbSymbolTableRecord
100
AcDbLayerTableRecord
  2
zubanwaku
 70
     0
 62
     7
  6
Continuous
370
    -3
390
F
  0
LAYER
  5
45
330
2
100
AcDbSymbolTableRecord
100
AcDbLayerTableRecord
  2
zubanmoji
 70
     0
 62
     7
  6
Continuous
370
    -3
390
F
  0
ENDTAB
  0
TABLE
  2
STYLE
  5
3
330
0
100
AcDbSymbolTable
 70
     2
  0
STYLE
  5
11
330
3
100
AcDbSymbolTableRecord
100
AcDbTextStyleTableRecord
  2
Standard
 70
     0
 40
0.0
 41
1.0
 50
0.0
 71
     0
 42
0.2
  3
TXT
  4
BIGFONT
  0
STYLE
  5
46
330
3
100
AcDbSymbolTableRecord
100
AcDbTextStyleTableRecord
  2
TATEGAKI
 70
     4
 40
1.0
 41
1.0
 50
0.0
 71
     0
 42
0.2
  3
TXT
  4
BIGFONT
  0
ENDTAB
  0
TABLE
  2
VIEW
  5
6
330
0
100
AcDbSymbolTable
 70
     0
  0
ENDTAB
  0
TABLE
  2
UCS
  5
7
330
0
100
AcDbSymbolTable
 70
     0
  0
ENDTAB
  0
TABLE
  2
APPID
  5
9
330
0
100
AcDbSymbolTable
 70
     1
  0
APPID
  5
12
330
9
100
AcDbSymbolTableRecord
100
AcDbRegAppTableRecord
  2
ACAD
 70
     0
  0
ENDTAB
  0
TABLE
  2
DIMSTYLE
  5
A
330
0
100
AcDbSymbolTable
 70
     2
100
AcDbDimStyleTable
  0
DIMSTYLE
105
27
330
A
100
AcDbSymbolTableRecord
100
AcDbDimStyleTableRecord
  2
ISO-25
 70
     0
 41
2.5
 42
0.625
 43
3.75
 44
1.25
 73
     0
 74
     0
 77
     1
 78
     8
140
2.5
141
2.5
143
0.03937
147
0.625
171
     3
172
     1
271
     2
272
     2
274
     3
278
    44
283
     0
284
     8
340
11
  0
DIMSTYLE
105
47
102
{ACAD_REACTORS
330
2A5
330
2A6
330
2B3
330
2B4
330
2CC
330
2CD
330
2CE
330
2CF
330
2D1
330
2EA
102
}
330
A
100
AcDbSymbolTableRecord
100
AcDbDimStyleTableRecord
  2
Standard
 70
     0
 41
1.0
 42
0.3
 44
1.0
 73
     0
 74
     0
 77
     1
 78
     8
 79
     2
140
1.8
146
0.6
147
1.0
172
     1
179
     4
340
11
  0
ENDTAB
  0
TABLE
  2
BLOCK_RECORD
  5
1
330
0
100
AcDbSymbolTable
 70
    19
  0
BLOCK_RECORD
  5
1F
330
1
100
AcDbSymbolTableRecord
100
AcDbBlockTableRecord
  2
*Model_Space
340
22
  0
BLOCK_RECORD
  5
1B
330
1
100
AcDbSymbolTableRecord
100
AcDbBlockTableRecord
  2
*Paper_Space
340
1E
  0
BLOCK_RECORD
  5
23
330
1
100
AcDbSymbolTableRecord
100
AcDbBlockTableRecord
  2
*Paper_Space0
340
26
  0
BLOCK_RECORD
  5
48
330
1
100
AcDbSymbolTableRecord
100
AcDbBlockTableRecord
  2
DTL0001-1
340
0
102
{BLKREFS
331
29F
102
}
  0
BLOCK_RECORD
  5
4C
330
1
100
AcDbSymbolTableRecord
100
AcDbBlockTableRecord
  2
DTL0001-2
340
0
102
{BLKREFS
331
2A0
102
}
  0
BLOCK_RECORD
  5
153
330
1
100
AcDbSymbolTableRecord
100
AcDbBlockTableRecord
  2
JZB-3
340
0
102
{BLKREFS
331
2A1
102
}
  0
BLOCK_RECORD
  5
161
330
1
100
AcDbSymbolTableRecord
100
AcDbBlockTableRecord
  2
JZB-4
340
0
102
{BLKREFS
331
2A2
102
}
  0
BLOCK_RECORD
  5
16F
330
1
100
AcDbSymbolTableRecord
100
AcDbBlockTableRecord
  2
JZB-5
340
0
102
{BLKREFS
331
2A3
102
}
  0
BLOCK_RECORD
  5
17D
330
1
100
AcDbSymbolTableRecord
100
AcDbBlockTableRecord
  2
JZB-6
340
0
102
{BLKREFS
331
2A4
102
}
  0
BLOCK_RECORD
  5
18B
330
1
100
AcDbSymbolTableRecord
100
AcDbBlockTableRecord
  2
*D7
340
0
  0
BLOCK_RECORD
  5
1C2
330
1
100
AcDbSymbolTableRecord
100
AcDbBlockTableRecord
  2
*D8
340
0
  0
BLOCK_RECORD
  5
1D7
330
1
100
AcDbSymbolTableRecord
100
AcDbBlockTableRecord
  2
*D9
340
0
  0
BLOCK_RECORD
  5
1ED
330
1
100
AcDbSymbolTableRecord
100
AcDbBlockTableRecord
  2
*D10
340
0
  0
BLOCK_RECORD
  5
201
330
1
100
AcDbSymbolTableRecord
100
AcDbBlockTableRecord
  2
*D11
340
0
  0
BLOCK_RECORD
  5
217
330
1
100
AcDbSymbolTableRecord
100
AcDbBlockTableRecord
  2
*D12
340
0
  0
BLOCK_RECORD
  5
22B
330
1
100
AcDbSymbolTableRecord
100
AcDbBlockTableRecord
  2
*D13
340
0
  0
BLOCK_RECORD
  5
241
330
1
100
AcDbSymbolTableRecord
100
AcDbBlockTableRecord
  2
*D14
340
0
  0
BLOCK_RECORD
  5
255
330
1
100
AcDbSymbolTableRecord
100
AcDbBlockTableRecord
  2
DIM-7
340
0
102
{BLKREFS
331
2D0
102
}
  0
BLOCK_RECORD
  5
263
330
1
100
AcDbSymbolTableRecord
100
AcDbBlockTableRecord
  2
*D16
340
0
  0
BLOCK_RECORD
  5
27B
330
1
100
AcDbSymbolTableRecord
100
AcDbBlockTableRecord
  2
DIM-8
340
0
102
{BLKREFS
331
2D2
102
}
  0
BLOCK_RECORD
  5
289
330
1
100
AcDbSymbolTableRecord
100
AcDbBlockTableRecord
  2
*D18
340
0
  0
ENDTAB
  0
ENDSEC
  0
SECTION
  2
BLOCKS
  0
BLOCK
  5
20
330
1F
100
AcDbEntity
  8
0
100
AcDbBlockBegin
  2
*Model_Space
 70
     0
 10
0.0
 20
0.0
 30
0.0
  3
*Model_Space
  1

  0
ENDBLK
  5
21
330
1F
100
AcDbEntity
  8
0
100
AcDbBlockEnd
  0
BLOCK
  5
1C
330
1B
100
AcDbEntity
 67
     1
  8
0
100
AcDbBlockBegin
  2
*Paper_Space
 70
     0
 10
0.0
 20
0.0
 30
0.0
  3
*Paper_Space
  1

  0
ENDBLK
  5
1D
330
1B
100
AcDbEntity
 67
     1
  8
0
100
AcDbBlockEnd
  0
BLOCK
  5
24
330
23
100
AcDbEntity
  8
0
100
AcDbBlockBegin
  2
*Paper_Space0
 70
     0
 10
0.0
 20
0.0
 30
0.0
  3
*Paper_Space0
  1

  0
ENDBLK
  5
25
330
23
100
AcDbEntity
  8
0
100
AcDbBlockEnd
  0
BLOCK
  5
49
330
48
100
AcDbEntity
  8
0
100
AcDbBlockBegin
  2
DTL0001-1
 70
     0
 10
0.0
 20
0.0
 30
0.0
  3
DTL0001-1
  1

  0
LINE
  5
4B
330
48
100
AcDbEntity
  8
001
370
    30
100
AcDbLine
 10
18.0
 20
278.5
 30
0.0
 11
18.0
 21
18.5
 31
0.0
  0
ENDBLK
  5
4A
330
48
100
AcDbEntity
  8
0
100
AcDbBlockEnd
  0
BLOCK
  5
4D
330
4C
100
AcDbEntity
  8
0
100
AcDbBlockBegin
  2
DTL0001-2
 70
     0
 10
0.0
 20
0.0
 30
0.0
  3
DTL0001-2
  1

  0
LINE
  5
4F
330
4C
100
AcDbEntity
  8
001
370
    30
100
AcDbLine
 10
18.0
 20
278.5
 30
0.0
 11
402.0
 21
278.5
 31
0.0
  0
LINE
  5
50
330
4C
100
AcDbEntity
  8
001
370
    30
100
AcDbLine
 10
18.0
 20
18.5
 30
0.0
 11
402.0
 21
18.5
 31
0.0
  0
LINE
  5
51
330
4C
100
AcDbEntity
  8
001
370
    30
100
AcDbLine
 10
402.0
 20
278.5
 30
0.0
 11
402.0
 21
18.5
 31
0.0
  0
LINE
  5
52
330
4C
100
AcDbEntity
  8
001
370
    30
100
AcDbLine
 10
54.0
 20
18.5
 30
0.0
 11
228.0
 21
18.5
 31
0.0
  0
LINE
  5
53
330
4C
100
AcDbEntity
  8
001
370
    30
100
AcDbLine
 10
184.999855
 20
285.452615
 30
0.0
 11
192.0352
 21
285.452615
 31
0.0
  0
LINE
  5
54
330
4C
100
AcDbEntity
  8
001
370
    30
100
AcDbLine
 10
184.999855
 20
283.977694
 30
0.0
 11
187.592095
 21
283.977694
 31
0.0
  0
LINE
  5
55
330
4C
100
AcDbEntity
  8
001
370
    30
100
AcDbLine
 10
187.592095
 20
279.547385
 30
0.0
 11
189.441713
 21
279.547385
 31
0.0
  0
LINE
  5
56
330
4C
100
AcDbEntity
  8
001
370
    30
100
AcDbLine
 10
184.999855
 20
285.452615
 30
0.0
 11
184.999855
 21
283.977694
 31
0.0
  0
LINE
  5
57
330
4C
100
AcDbEntity
  8
001
370
    30
100
AcDbLine
 10
187.592095
 20
283.977694
 30
0.0
 11
187.592095
 21
279.547385
 31
0.0
  0
LINE
  5
58
330
4C
100
AcDbEntity
  8
001
370
    30
100
AcDbLine
 10
189.441713
 20
283.977694
 30
0.0
 11
189.441713
 21
279.547385
 31
0.0
  0
LINE
  5
59
330
4C
100
AcDbEntity
  8
001
370
    30
100
AcDbLine
 10
192.0352
 20
285.452615
 30
0.0
 11
192.0352
 21
283.977694
 31
0.0
  0
LINE
  5
5A
330
4C
100
AcDbEntity
  8
001
370
    30
100
AcDbLine
 10
189.441713
 20
283.977694
 30
0.0
 11
192.0352
 21
283.977694
 31
0.0
  0
LINE
  5
5B
330
4C
100
AcDbEntity
  8
001
370
    30
100
AcDbLine
 10
194.4195
 20
285.452615
 30
0.0
 11
196.704125
 21
285.452615
 31
0.0
  0
LINE
  5
5C
330
4C
100
AcDbEntity
  8
001
370
    30
100
AcDbLine
 10
191.716524
 20
279.547385
 30
0.0
 11
193.815983
 21
279.547385
 31
0.0
  0
LINE
  5
5D
330
4C
100
AcDbEntity
  8
001
370
    30
100
AcDbLine
 10
191.716524
 20
279.547385
 30
0.0
 11
194.4195
 21
285.452615
 31
0.0
  0
LINE
  5
5E
330
4C
100
AcDbEntity
  8
001
370
    30
100
AcDbLine
 10
196.704125
 20
285.452615
 30
0.0
 11
199.41641
 21
279.547385
 31
0.0
  0
LINE
  5
5F
330
4C
100
AcDbEntity
  8
001
370
    30
100
AcDbLine
 10
193.815983
 20
279.547385
 30
0.0
 11
194.155407
 21
280.288931
 31
0.0
  0
LINE
  5
60
330
4C
100
AcDbEntity
  8
001
370
    30
100
AcDbLine
 10
195.570218
 20
283.379888
 30
0.0
 11
196.486015
 21
281.386001
 31
0.0
  0
LINE
  5
61
330
4C
100
AcDbEntity
  8
001
370
    30
100
AcDbLine
 10
194.657565
 20
281.386001
 30
0.0
 11
196.486015
 21
281.386001
 31
0.0
  0
LINE
  5
62
330
4C
100
AcDbEntity
  8
001
370
    30
100
AcDbLine
 10
194.155407
 20
280.288931
 30
0.0
 11
196.989902
 21
280.288931
 31
0.0
  0
LINE
  5
63
330
4C
100
AcDbEntity
  8
001
370
    30
100
AcDbLine
 10
197.330496
 20
279.547385
 30
0.0
 11
199.41641
 21
279.547385
 31
0.0
  0
LINE
  5
64
330
4C
100
AcDbEntity
  8
001
370
    30
100
AcDbLine
 10
196.989902
 20
280.288931
 30
0.0
 11
197.330496
 21
279.547385
 31
0.0
  0
LINE
  5
65
330
4C
100
AcDbEntity
  8
001
370
    30
100
AcDbLine
 10
194.657565
 20
281.386001
 30
0.0
 11
195.570218
 21
283.379888
 31
0.0
  0
LINE
  5
66
330
4C
100
AcDbEntity
  8
001
370
    30
100
AcDbLine
 10
198.370384
 20
285.452615
 30
0.0
 11
205.405729
 21
285.452615
 31
0.0
  0
LINE
  5
67
330
4C
100
AcDbEntity
  8
001
370
    30
100
AcDbLine
 10
198.370384
 20
283.977694
 30
0.0
 11
200.962624
 21
283.977694
 31
0.0
  0
LINE
  5
68
330
4C
100
AcDbEntity
  8
001
370
    30
100
AcDbLine
 10
200.962624
 20
279.547385
 30
0.0
 11
202.812242
 21
279.547385
 31
0.0
  0
LINE
  5
69
330
4C
100
AcDbEntity
  8
001
370
    30
100
AcDbLine
 10
198.370384
 20
285.452615
 30
0.0
 11
198.370384
 21
283.977694
 31
0.0
  0
LINE
  5
6A
330
4C
100
AcDbEntity
  8
001
370
    30
100
AcDbLine
 10
200.962624
 20
283.977694
 30
0.0
 11
200.962624
 21
279.547385
 31
0.0
  0
LINE
  5
6B
330
4C
100
AcDbEntity
  8
001
370
    30
100
AcDbLine
 10
202.812242
 20
283.977694
 30
0.0
 11
202.812242
 21
279.547385
 31
0.0
  0
LINE
  5
6C
330
4C
100
AcDbEntity
  8
001
370
    30
100
AcDbLine
 10
205.405729
 20
285.452615
 30
0.0
 11
205.405729
 21
283.977694
 31
0.0
  0
LINE
  5
6D
330
4C
100
AcDbEntity
  8
001
370
    30
100
AcDbLine
 10
202.812242
 20
283.977694
 30
0.0
 11
205.405729
 21
283.977694
 31
0.0
  0
LINE
  5
6E
330
4C
100
AcDbEntity
  8
001
370
    30
100
AcDbLine
 10
210.128169
 20
284.003858
 30
0.0
 11
211.949766
 21
284.003858
 31
0.0
  0
LINE
  5
6F
330
4C
100
AcDbEntity
  8
001
370
    30
100
AcDbLine
 10
205.791878
 20
281.044983
 30
0.0
 11
207.613474
 21
281.044983
 31
0.0
  0
LINE
  5
70
330
4C
100
AcDbEntity
  8
001
370
    30
100
AcDbLine
 10
213.190797
 20
285.452615
 30
0.0
 11
213.190797
 21
281.765651
 31
0.0
  0
LINE
  5
71
330
4C
100
AcDbEntity
  8
001
370
    30
100
AcDbLine
 10
215.016692
 20
285.452615
 30
0.0
 11
215.016692
 21
281.765652
 31
0.0
  0
LINE
  5
72
330
4C
100
AcDbEntity
  8
001
370
    30
100
AcDbLine
 10
218.006595
 20
285.452615
 30
0.0
 11
218.006595
 21
281.765652
 31
0.0
  0
LINE
  5
73
330
4C
100
AcDbEntity
  8
001
370
    30
100
AcDbLine
 10
219.83249
 20
285.452615
 30
0.0
 11
219.83249
 21
281.765651
 31
0.0
  0
LINE
  5
74
330
4C
100
AcDbEntity
  8
001
370
    30
100
AcDbLine
 10
220.58359
 20
283.977694
 30
0.0
 11
223.175829
 21
283.977694
 31
0.0
  0
LINE
  5
75
330
4C
100
AcDbEntity
  8
001
370
    30
100
AcDbLine
 10
220.58359
 20
285.452615
 30
0.0
 11
227.618934
 21
285.452615
 31
0.0
  0
LINE
  5
76
330
4C
100
AcDbEntity
  8
001
370
    30
100
AcDbLine
 10
213.190797
 20
285.452615
 30
0.0
 11
215.016692
 21
285.452615
 31
0.0
  0
LINE
  5
77
330
4C
100
AcDbEntity
  8
001
370
    30
100
AcDbLine
 10
218.006595
 20
285.452615
 30
0.0
 11
219.83249
 21
285.452615
 31
0.0
  0
LINE
  5
78
330
4C
100
AcDbEntity
  8
001
370
    30
100
AcDbLine
 10
223.175829
 20
279.547385
 30
0.0
 11
225.025447
 21
279.547385
 31
0.0
  0
LINE
  5
79
330
4C
100
AcDbEntity
  8
001
370
    30
100
AcDbLine
 10
220.58359
 20
285.452615
 30
0.0
 11
220.58359
 21
283.977694
 31
0.0
  0
LINE
  5
7A
330
4C
100
AcDbEntity
  8
001
370
    30
100
AcDbLine
 10
223.175829
 20
283.977694
 30
0.0
 11
223.175829
 21
279.547385
 31
0.0
  0
LINE
  5
7B
330
4C
100
AcDbEntity
  8
001
370
    30
100
AcDbLine
 10
225.025447
 20
283.977694
 30
0.0
 11
225.025447
 21
279.547385
 31
0.0
  0
LINE
  5
7C
330
4C
100
AcDbEntity
  8
001
370
    30
100
AcDbLine
 10
227.618934
 20
285.452615
 30
0.0
 11
227.618934
 21
283.977694
 31
0.0
  0
LINE
  5
7D
330
4C
100
AcDbEntity
  8
001
370
    30
100
AcDbLine
 10
225.025447
 20
283.977694
 30
0.0
 11
227.618934
 21
283.977694
 31
0.0
  0
LINE
  5
7E
330
4C
100
AcDbEntity
  8
001
370
    30
100
AcDbLine
 10
230.003234
 20
285.452615
 30
0.0
 11
232.287859
 21
285.452615
 31
0.0
  0
LINE
  5
7F
330
4C
100
AcDbEntity
  8
001
370
    30
100
AcDbLine
 10
227.300258
 20
279.547385
 30
0.0
 11
229.399717
 21
279.547385
 31
0.0
  0
LINE
  5
80
330
4C
100
AcDbEntity
  8
001
370
    30
100
AcDbLine
 10
227.300258
 20
279.547385
 30
0.0
 11
230.003234
 21
285.452615
 31
0.0
  0
LINE
  5
81
330
4C
100
AcDbEntity
  8
001
370
    30
100
AcDbLine
 10
232.287859
 20
285.452615
 30
0.0
 11
235.000145
 21
279.547385
 31
0.0
  0
LINE
  5
82
330
4C
100
AcDbEntity
  8
001
370
    30
100
AcDbLine
 10
229.399717
 20
279.547385
 30
0.0
 11
229.739142
 21
280.288931
 31
0.0
  0
LINE
  5
83
330
4C
100
AcDbEntity
  8
001
370
    30
100
AcDbLine
 10
231.153953
 20
283.379888
 30
0.0
 11
232.069749
 21
281.386001
 31
0.0
  0
LINE
  5
84
330
4C
100
AcDbEntity
  8
001
370
    30
100
AcDbLine
 10
230.241299
 20
281.386001
 30
0.0
 11
232.069749
 21
281.386001
 31
0.0
  0
LINE
  5
85
330
4C
100
AcDbEntity
  8
001
370
    30
100
AcDbLine
 10
229.739142
 20
280.288931
 30
0.0
 11
232.573636
 21
280.288931
 31
0.0
  0
LINE
  5
86
330
4C
100
AcDbEntity
  8
001
370
    30
100
AcDbLine
 10
232.91423
 20
279.547385
 30
0.0
 11
235.000145
 21
279.547385
 31
0.0
  0
LINE
  5
87
330
4C
100
AcDbEntity
  8
001
370
    30
100
AcDbLine
 10
232.573636
 20
280.288931
 30
0.0
 11
232.91423
 21
279.547385
 31
0.0
  0
LINE
  5
88
330
4C
100
AcDbEntity
  8
001
370
    30
100
AcDbLine
 10
230.241299
 20
281.386001
 30
0.0
 11
231.153953
 21
283.379888
 31
0.0
  0
POLYLINE
  5
89
330
4C
100
AcDbEntity
  8
001
370
    30
100
AcDb2dPolyline
 66
     1
 10
0.0
 20
0.0
 30
0.0
  0
VERTEX
  5
8B
330
89
100
AcDbEntity
  8
001
370
    30
100
AcDbVertex
100
AcDb2dVertex
 10
211.949766
 20
284.003858
 30
0.0
  0
VERTEX
  5
8C
330
89
100
AcDbEntity
  8
001
370
    30
100
AcDbVertex
100
AcDb2dVertex
 10
211.948507
 20
284.007935
 30
0.0
  0
VERTEX
  5
8D
330
89
100
AcDbEntity
  8
001
370
    30
100
AcDbVertex
100
AcDb2dVertex
 10
211.946653
 20
284.013868
 30
0.0
  0
VERTEX
  5
8E
330
89
100
AcDbEntity
  8
001
370
    30
100
AcDbVertex
100
AcDb2dVertex
 10
211.882512
 20
284.177245
 30
0.0
  0
VERTEX
  5
8F
330
89
100
AcDbEntity
  8
001
370
    30
100
AcDbVertex
100
AcDb2dVertex
 10
211.805746
 20
284.307017
 30
0.0
  0
VERTEX
  5
90
330
89
100
AcDbEntity
  8
001
370
    30
100
AcDbVertex
100
AcDb2dVertex
 10
211.699609
 20
284.446718
 30
0.0
  0
VERTEX
  5
91
330
89
100
AcDbEntity
  8
001
370
    30
100
AcDbVertex
100
AcDb2dVertex
 10
211.575663
 20
284.582073
 30
0.0
  0
VERTEX
  5
92
330
89
100
AcDbEntity
  8
001
370
    30
100
AcDbVertex
100
AcDb2dVertex
 10
211.042436
 20
284.969865
 30
0.0
  0
VERTEX
  5
93
330
89
100
AcDbEntity
  8
001
370
    30
100
AcDbVertex
100
AcDb2dVertex
 10
210.432462
 20
285.219354
 30
0.0
  0
VERTEX
  5
94
330
89
100
AcDbEntity
  8
001
370
    30
100
AcDbVertex
100
AcDb2dVertex
 10
209.927206
 20
285.349157
 30
0.0
  0
VERTEX
  5
95
330
89
100
AcDbEntity
  8
001
370
    30
100
AcDbVertex
100
AcDb2dVertex
 10
209.413174
 20
285.426164
 30
0.0
  0
VERTEX
  5
96
330
89
100
AcDbEntity
  8
001
370
    30
100
AcDbVertex
100
AcDb2dVertex
 10
209.142398
 20
285.446108
 30
0.0
  0
VERTEX
  5
97
330
89
100
AcDbEntity
  8
001
370
    30
100
AcDbVertex
100
AcDb2dVertex
 10
208.870822
 20
285.452615
 30
0.0
  0
VERTEX
  5
98
330
89
100
AcDbEntity
  8
001
370
    30
100
AcDbVertex
100
AcDb2dVertex
 10
208.599223
 20
285.445977
 30
0.0
  0
VERTEX
  5
99
330
89
100
AcDbEntity
  8
001
370
    30
100
AcDbVertex
100
AcDb2dVertex
 10
208.328469
 20
285.426164
 30
0.0
  0
VERTEX
  5
9A
330
89
100
AcDbEntity
  8
001
370
    30
100
AcDbVertex
100
AcDb2dVertex
 10
207.81473
 20
285.350142
 30
0.0
  0
VERTEX
  5
9B
330
89
100
AcDbEntity
  8
001
370
    30
100
AcDbVertex
100
AcDb2dVertex
 10
207.309181
 20
285.219354
 30
0.0
  0
VERTEX
  5
9C
330
89
100
AcDbEntity
  8
001
370
    30
100
AcDbVertex
100
AcDb2dVertex
 10
206.69754
 20
284.964459
 30
0.0
  0
VERTEX
  5
9D
330
89
100
AcDbEntity
  8
001
370
    30
100
AcDbVertex
100
AcDb2dVertex
 10
206.16598
 20
284.582073
 30
0.0
  0
VERTEX
  5
9E
330
89
100
AcDbEntity
  8
001
370
    30
100
AcDbVertex
100
AcDb2dVertex
 10
206.043325
 20
284.450897
 30
0.0
  0
VERTEX
  5
9F
330
89
100
AcDbEntity
  8
001
370
    30
100
AcDbVertex
100
AcDb2dVertex
 10
205.935897
 20
284.307017
 30
0.0
  0
VERTEX
  5
A0
330
89
100
AcDbEntity
  8
001
370
    30
100
AcDbVertex
100
AcDb2dVertex
 10
205.855415
 20
284.165224
 30
0.0
  0
VERTEX
  5
A1
330
89
100
AcDbEntity
  8
001
370
    30
100
AcDbVertex
100
AcDb2dVertex
 10
205.79499
 20
284.013868
 30
0.0
  0
VERTEX
  5
A2
330
89
100
AcDbEntity
  8
001
370
    30
100
AcDbVertex
100
AcDb2dVertex
 10
205.759721
 20
283.864476
 30
0.0
  0
VERTEX
  5
A3
330
89
100
AcDbEntity
  8
001
370
    30
100
AcDbVertex
100
AcDb2dVertex
 10
205.74754
 20
283.711532
 30
0.0
  0
VERTEX
  5
A4
330
89
100
AcDbEntity
  8
001
370
    30
100
AcDbVertex
100
AcDb2dVertex
 10
205.759697
 20
283.558587
 30
0.0
  0
VERTEX
  5
A5
330
89
100
AcDbEntity
  8
001
370
    30
100
AcDbVertex
100
AcDb2dVertex
 10
205.79499
 20
283.409196
 30
0.0
  0
VERTEX
  5
A6
330
89
100
AcDbEntity
  8
001
370
    30
100
AcDbVertex
100
AcDb2dVertex
 10
205.855494
 20
283.25784
 30
0.0
  0
VERTEX
  5
A7
330
89
100
AcDbEntity
  8
001
370
    30
100
AcDbVertex
100
AcDb2dVertex
 10
205.935897
 20
283.116046
 30
0.0
  0
VERTEX
  5
A8
330
89
100
AcDbEntity
  8
001
370
    30
100
AcDbVertex
100
AcDb2dVertex
 10
206.042992
 20
282.972167
 30
0.0
  0
VERTEX
  5
A9
330
89
100
AcDbEntity
  8
001
370
    30
100
AcDbVertex
100
AcDb2dVertex
 10
206.16598
 20
282.84099
 30
0.0
  0
VERTEX
  5
AA
330
89
100
AcDbEntity
  8
001
370
    30
100
AcDbVertex
100
AcDb2dVertex
 10
206.706609
 20
282.458599
 30
0.0
  0
VERTEX
  5
AB
330
89
100
AcDbEntity
  8
001
370
    30
100
AcDbVertex
100
AcDb2dVertex
 10
207.309181
 20
282.20371
 30
0.0
  0
VERTEX
  5
AC
330
89
100
AcDbEntity
  8
001
370
    30
100
AcDbVertex
100
AcDb2dVertex
 10
207.7858
 20
282.07294
 30
0.0
  0
VERTEX
  5
AD
330
89
100
AcDbEntity
  8
001
370
    30
100
AcDbVertex
100
AcDb2dVertex
 10
208.328469
 20
281.9969
 30
0.0
  0
VERTEX
  5
AE
330
89
100
AcDbEntity
  8
001
370
    30
100
AcDbVertex
100
AcDb2dVertex
 10
208.64496
 20
281.977057
 30
0.0
  0
VERTEX
  5
AF
330
89
100
AcDbEntity
  8
001
370
    30
100
AcDbVertex
100
AcDb2dVertex
 10
208.870822
 20
281.970449
 30
0.0
  0
SEQEND
  5
8A
330
89
100
AcDbEntity
  8
001
370
    30
  0
POLYLINE
  5
B0
330
4C
100
AcDbEntity
  8
001
370
    30
100
AcDb2dPolyline
 66
     1
 10
0.0
 20
0.0
 30
0.0
  0
VERTEX
  5
B2
330
B0
100
AcDbEntity
  8
001
370
    30
100
AcDbVertex
100
AcDb2dVertex
 10
210.128171
 20
284.003857
 30
0.0
  0
VERTEX
  5
B3
330
B0
100
AcDbEntity
  8
001
370
    30
100
AcDbVertex
100
AcDb2dVertex
 10
210.116112
 20
284.013862
 30
0.0
  0
VERTEX
  5
B4
330
B0
100
AcDbEntity
  8
001
370
    30
100
AcDbVertex
100
AcDb2dVertex
 10
210.098395
 20
284.028101
 30
0.0
  0
VERTEX
  5
B5
330
B0
100
AcDbEntity
  8
001
370
    30
100
AcDbVertex
100
AcDb2dVertex
 10
209.836665
 20
284.18339
 30
0.0
  0
VERTEX
  5
B6
330
B0
100
AcDbEntity
  8
001
370
    30
100
AcDbVertex
100
AcDb2dVertex
 10
209.579561
 20
284.259846
 30
0.0
  0
VERTEX
  5
B7
330
B0
100
AcDbEntity
  8
001
370
    30
100
AcDbVertex
100
AcDb2dVertex
 10
209.352222
 20
284.304847
 30
0.0
  0
VERTEX
  5
B8
330
B0
100
AcDbEntity
  8
001
370
    30
100
AcDbVertex
100
AcDb2dVertex
 10
209.116964
 20
284.335052
 30
0.0
  0
VERTEX
  5
B9
330
B0
100
AcDbEntity
  8
001
370
    30
100
AcDbVertex
100
AcDb2dVertex
 10
208.993732
 20
284.34255
 30
0.0
  0
VERTEX
  5
BA
330
B0
100
AcDbEntity
  8
001
370
    30
100
AcDbVertex
100
AcDb2dVertex
 10
208.870822
 20
284.344671
 30
0.0
  0
VERTEX
  5
BB
330
B0
100
AcDbEntity
  8
001
370
    30
100
AcDbVertex
100
AcDb2dVertex
 10
208.747684
 20
284.342207
 30
0.0
  0
VERTEX
  5
BC
330
B0
100
AcDbEntity
  8
001
370
    30
100
AcDbVertex
100
AcDb2dVertex
 10
208.624679
 20
284.335052
 30
0.0
  0
VERTEX
  5
BD
330
B0
100
AcDbEntity
  8
001
370
    30
100
AcDbVertex
100
AcDb2dVertex
 10
208.39235
 20
284.307392
 30
0.0
  0
VERTEX
  5
BE
330
B0
100
AcDbEntity
  8
001
370
    30
100
AcDbVertex
100
AcDb2dVertex
 10
208.162082
 20
284.259846
 30
0.0
  0
VERTEX
  5
BF
330
B0
100
AcDbEntity
  8
001
370
    30
100
AcDbVertex
100
AcDb2dVertex
 10
207.889175
 20
284.170149
 30
0.0
  0
VERTEX
  5
C0
330
B0
100
AcDbEntity
  8
001
370
    30
100
AcDbVertex
100
AcDb2dVertex
 10
207.643249
 20
284.028101
 30
0.0
  0
VERTEX
  5
C1
330
B0
100
AcDbEntity
  8
001
370
    30
100
AcDbVertex
100
AcDb2dVertex
 10
207.588246
 20
283.981001
 30
0.0
  0
VERTEX
  5
C2
330
B0
100
AcDbEntity
  8
001
370
    30
100
AcDbVertex
100
AcDb2dVertex
 10
207.538827
 20
283.928078
 30
0.0
  0
VERTEX
  5
C3
330
B0
100
AcDbEntity
  8
001
370
    30
100
AcDbVertex
100
AcDb2dVertex
 10
207.502693
 20
283.877237
 30
0.0
  0
VERTEX
  5
C4
330
B0
100
AcDbEntity
  8
001
370
    30
100
AcDbVertex
100
AcDb2dVertex
 10
207.474877
 20
283.821475
 30
0.0
  0
VERTEX
  5
C5
330
B0
100
AcDbEntity
  8
001
370
    30
100
AcDbVertex
100
AcDb2dVertex
 10
207.458972
 20
283.767463
 30
0.0
  0
VERTEX
  5
C6
330
B0
100
AcDbEntity
  8
001
370
    30
100
AcDbVertex
100
AcDb2dVertex
 10
207.453342
 20
283.711532
 30
0.0
  0
VERTEX
  5
C7
330
B0
100
AcDbEntity
  8
001
370
    30
100
AcDbVertex
100
AcDb2dVertex
 10
207.458964
 20
283.6556
 30
0.0
  0
VERTEX
  5
C8
330
B0
100
AcDbEntity
  8
001
370
    30
100
AcDbVertex
100
AcDb2dVertex
 10
207.474877
 20
283.601588
 30
0.0
  0
VERTEX
  5
C9
330
B0
100
AcDbEntity
  8
001
370
    30
100
AcDbVertex
100
AcDb2dVertex
 10
207.50272
 20
283.545826
 30
0.0
  0
VERTEX
  5
CA
330
B0
100
AcDbEntity
  8
001
370
    30
100
AcDbVertex
100
AcDb2dVertex
 10
207.538827
 20
283.494985
 30
0.0
  0
VERTEX
  5
CB
330
B0
100
AcDbEntity
  8
001
370
    30
100
AcDbVertex
100
AcDb2dVertex
 10
207.588123
 20
283.442063
 30
0.0
  0
VERTEX
  5
CC
330
B0
100
AcDbEntity
  8
001
370
    30
100
AcDbVertex
100
AcDb2dVertex
 10
207.643249
 20
283.394962
 30
0.0
  0
VERTEX
  5
CD
330
B0
100
AcDbEntity
  8
001
370
    30
100
AcDbVertex
100
AcDb2dVertex
 10
207.892991
 20
283.2529
 30
0.0
  0
VERTEX
  5
CE
330
B0
100
AcDbEntity
  8
001
370
    30
100
AcDbVertex
100
AcDb2dVertex
 10
208.162082
 20
283.163217
 30
0.0
  0
VERTEX
  5
CF
330
B0
100
AcDbEntity
  8
001
370
    30
100
AcDbVertex
100
AcDb2dVertex
 10
208.379458
 20
283.115719
 30
0.0
  0
VERTEX
  5
D0
330
B0
100
AcDbEntity
  8
001
370
    30
100
AcDbVertex
100
AcDb2dVertex
 10
208.624679
 20
283.088012
 30
0.0
  0
VERTEX
  5
D1
330
B0
100
AcDbEntity
  8
001
370
    30
100
AcDbVertex
100
AcDb2dVertex
 10
208.76833
 20
283.08078
 30
0.0
  0
VERTEX
  5
D2
330
B0
100
AcDbEntity
  8
001
370
    30
100
AcDbVertex
100
AcDb2dVertex
 10
208.870822
 20
283.078393
 30
0.0
  0
SEQEND
  5
B1
330
B0
100
AcDbEntity
  8
001
370
    30
  0
POLYLINE
  5
D3
330
4C
100
AcDbEntity
  8
001
370
    30
100
AcDb2dPolyline
 66
     1
 10
0.0
 20
0.0
 30
0.0
  0
VERTEX
  5
D5
330
D3
100
AcDbEntity
  8
001
370
    30
100
AcDbVertex
100
AcDb2dVertex
 10
205.791877
 20
281.044984
 30
0.0
  0
VERTEX
  5
D6
330
D3
100
AcDbEntity
  8
001
370
    30
100
AcDbVertex
100
AcDb2dVertex
 10
205.793137
 20
281.040906
 30
0.0
  0
VERTEX
  5
D7
330
D3
100
AcDbEntity
  8
001
370
    30
100
AcDbVertex
100
AcDb2dVertex
 10
205.79499
 20
281.034974
 30
0.0
  0
VERTEX
  5
D8
330
D3
100
AcDbEntity
  8
001
370
    30
100
AcDbVertex
100
AcDb2dVertex
 10
205.859131
 20
280.871596
 30
0.0
  0
VERTEX
  5
D9
330
D3
100
AcDbEntity
  8
001
370
    30
100
AcDbVertex
100
AcDb2dVertex
 10
205.935897
 20
280.741824
 30
0.0
  0
VERTEX
  5
DA
330
D3
100
AcDbEntity
  8
001
370
    30
100
AcDbVertex
100
AcDb2dVertex
 10
206.042034
 20
280.602123
 30
0.0
  0
VERTEX
  5
DB
330
D3
100
AcDbEntity
  8
001
370
    30
100
AcDbVertex
100
AcDb2dVertex
 10
206.16598
 20
280.466768
 30
0.0
  0
VERTEX
  5
DC
330
D3
100
AcDbEntity
  8
001
370
    30
100
AcDbVertex
100
AcDb2dVertex
 10
206.699207
 20
280.078977
 30
0.0
  0
VERTEX
  5
DD
330
D3
100
AcDbEntity
  8
001
370
    30
100
AcDbVertex
100
AcDb2dVertex
 10
207.309181
 20
279.829488
 30
0.0
  0
VERTEX
  5
DE
330
D3
100
AcDbEntity
  8
001
370
    30
100
AcDbVertex
100
AcDb2dVertex
 10
207.814438
 20
279.699684
 30
0.0
  0
VERTEX
  5
DF
330
D3
100
AcDbEntity
  8
001
370
    30
100
AcDbVertex
100
AcDb2dVertex
 10
208.328469
 20
279.622678
 30
0.0
  0
VERTEX
  5
E0
330
D3
100
AcDbEntity
  8
001
370
    30
100
AcDbVertex
100
AcDb2dVertex
 10
208.599245
 20
279.602733
 30
0.0
  0
VERTEX
  5
E1
330
D3
100
AcDbEntity
  8
001
370
    30
100
AcDbVertex
100
AcDb2dVertex
 10
208.870822
 20
279.596227
 30
0.0
  0
VERTEX
  5
E2
330
D3
100
AcDbEntity
  8
001
370
    30
100
AcDbVertex
100
AcDb2dVertex
 10
209.14242
 20
279.602864
 30
0.0
  0
VERTEX
  5
E3
330
D3
100
AcDbEntity
  8
001
370
    30
100
AcDbVertex
100
AcDb2dVertex
 10
209.413174
 20
279.622678
 30
0.0
  0
VERTEX
  5
E4
330
D3
100
AcDbEntity
  8
001
370
    30
100
AcDbVertex
100
AcDb2dVertex
 10
209.926913
 20
279.6987
 30
0.0
  0
VERTEX
  5
E5
330
D3
100
AcDbEntity
  8
001
370
    30
100
AcDbVertex
100
AcDb2dVertex
 10
210.432462
 20
279.829488
 30
0.0
  0
VERTEX
  5
E6
330
D3
100
AcDbEntity
  8
001
370
    30
100
AcDbVertex
100
AcDb2dVertex
 10
211.044104
 20
280.084383
 30
0.0
  0
VERTEX
  5
E7
330
D3
100
AcDbEntity
  8
001
370
    30
100
AcDbVertex
100
AcDb2dVertex
 10
211.575663
 20
280.466768
 30
0.0
  0
VERTEX
  5
E8
330
D3
100
AcDbEntity
  8
001
370
    30
100
AcDbVertex
100
AcDb2dVertex
 10
211.698318
 20
280.597945
 30
0.0
  0
VERTEX
  5
E9
330
D3
100
AcDbEntity
  8
001
370
    30
100
AcDbVertex
100
AcDb2dVertex
 10
211.805746
 20
280.741824
 30
0.0
  0
VERTEX
  5
EA
330
D3
100
AcDbEntity
  8
001
370
    30
100
AcDbVertex
100
AcDb2dVertex
 10
211.886228
 20
280.883618
 30
0.0
  0
VERTEX
  5
EB
330
D3
100
AcDbEntity
  8
001
370
    30
100
AcDbVertex
100
AcDb2dVertex
 10
211.946653
 20
281.034974
 30
0.0
  0
VERTEX
  5
EC
330
D3
100
AcDbEntity
  8
001
370
    30
100
AcDbVertex
100
AcDb2dVertex
 10
211.981922
 20
281.184365
 30
0.0
  0
VERTEX
  5
ED
330
D3
100
AcDbEntity
  8
001
370
    30
100
AcDbVertex
100
AcDb2dVertex
 10
211.994103
 20
281.33731
 30
0.0
  0
VERTEX
  5
EE
330
D3
100
AcDbEntity
  8
001
370
    30
100
AcDbVertex
100
AcDb2dVertex
 10
211.981946
 20
281.490254
 30
0.0
  0
VERTEX
  5
EF
330
D3
100
AcDbEntity
  8
001
370
    30
100
AcDbVertex
100
AcDb2dVertex
 10
211.946653
 20
281.639646
 30
0.0
  0
VERTEX
  5
F0
330
D3
100
AcDbEntity
  8
001
370
    30
100
AcDbVertex
100
AcDb2dVertex
 10
211.886149
 20
281.791002
 30
0.0
  0
VERTEX
  5
F1
330
D3
100
AcDbEntity
  8
001
370
    30
100
AcDbVertex
100
AcDb2dVertex
 10
211.805746
 20
281.932795
 30
0.0
  0
VERTEX
  5
F2
330
D3
100
AcDbEntity
  8
001
370
    30
100
AcDbVertex
100
AcDb2dVertex
 10
211.698651
 20
282.076675
 30
0.0
  0
VERTEX
  5
F3
330
D3
100
AcDbEntity
  8
001
370
    30
100
AcDbVertex
100
AcDb2dVertex
 10
211.575663
 20
282.207851
 30
0.0
  0
VERTEX
  5
F4
330
D3
100
AcDbEntity
  8
001
370
    30
100
AcDbVertex
100
AcDb2dVertex
 10
211.035034
 20
282.590243
 30
0.0
  0
VERTEX
  5
F5
330
D3
100
AcDbEntity
  8
001
370
    30
100
AcDbVertex
100
AcDb2dVertex
 10
210.432462
 20
282.845132
 30
0.0
  0
VERTEX
  5
F6
330
D3
100
AcDbEntity
  8
001
370
    30
100
AcDbVertex
100
AcDb2dVertex
 10
209.955843
 20
282.975901
 30
0.0
  0
VERTEX
  5
F7
330
D3
100
AcDbEntity
  8
001
370
    30
100
AcDbVertex
100
AcDb2dVertex
 10
209.413174
 20
283.051942
 30
0.0
  0
VERTEX
  5
F8
330
D3
100
AcDbEntity
  8
001
370
    30
100
AcDbVertex
100
AcDb2dVertex
 10
209.096683
 20
283.071785
 30
0.0
  0
VERTEX
  5
F9
330
D3
100
AcDbEntity
  8
001
370
    30
100
AcDbVertex
100
AcDb2dVertex
 10
208.870822
 20
283.078393
 30
0.0
  0
SEQEND
  5
D4
330
D3
100
AcDbEntity
  8
001
370
    30
  0
POLYLINE
  5
FA
330
4C
100
AcDbEntity
  8
001
370
    30
100
AcDb2dPolyline
 66
     1
 10
0.0
 20
0.0
 30
0.0
  0
VERTEX
  5
FC
330
FA
100
AcDbEntity
  8
001
370
    30
100
AcDbVertex
100
AcDb2dVertex
 10
207.613473
 20
281.044984
 30
0.0
  0
VERTEX
  5
FD
330
FA
100
AcDbEntity
  8
001
370
    30
100
AcDbVertex
100
AcDb2dVertex
 10
207.625531
 20
281.034979
 30
0.0
  0
VERTEX
  5
FE
330
FA
100
AcDbEntity
  8
001
370
    30
100
AcDbVertex
100
AcDb2dVertex
 10
207.643249
 20
281.02074
 30
0.0
  0
VERTEX
  5
FF
330
FA
100
AcDbEntity
  8
001
370
    30
100
AcDbVertex
100
AcDb2dVertex
 10
207.904978
 20
280.865452
 30
0.0
  0
VERTEX
  5
100
330
FA
100
AcDbEntity
  8
001
370
    30
100
AcDbVertex
100
AcDb2dVertex
 10
208.162082
 20
280.788995
 30
0.0
  0
VERTEX
  5
101
330
FA
100
AcDbEntity
  8
001
370
    30
100
AcDbVertex
100
AcDb2dVertex
 10
208.389421
 20
280.743995
 30
0.0
  0
VERTEX
  5
102
330
FA
100
AcDbEntity
  8
001
370
    30
100
AcDbVertex
100
AcDb2dVertex
 10
208.624679
 20
280.71379
 30
0.0
  0
VERTEX
  5
103
330
FA
100
AcDbEntity
  8
001
370
    30
100
AcDbVertex
100
AcDb2dVertex
 10
208.747911
 20
280.706292
 30
0.0
  0
VERTEX
  5
104
330
FA
100
AcDbEntity
  8
001
370
    30
100
AcDbVertex
100
AcDb2dVertex
 10
208.870822
 20
280.704171
 30
0.0
  0
VERTEX
  5
105
330
FA
100
AcDbEntity
  8
001
370
    30
100
AcDbVertex
100
AcDb2dVertex
 10
208.993959
 20
280.706635
 30
0.0
  0
VERTEX
  5
106
330
FA
100
AcDbEntity
  8
001
370
    30
100
AcDbVertex
100
AcDb2dVertex
 10
209.116964
 20
280.71379
 30
0.0
  0
VERTEX
  5
107
330
FA
100
AcDbEntity
  8
001
370
    30
100
AcDbVertex
100
AcDb2dVertex
 10
209.349293
 20
280.74145
 30
0.0
  0
VERTEX
  5
108
330
FA
100
AcDbEntity
  8
001
370
    30
100
AcDbVertex
100
AcDb2dVertex
 10
209.579561
 20
280.788995
 30
0.0
  0
VERTEX
  5
109
330
FA
100
AcDbEntity
  8
001
370
    30
100
AcDbVertex
100
AcDb2dVertex
 10
209.852469
 20
280.878693
 30
0.0
  0
VERTEX
  5
10A
330
FA
100
AcDbEntity
  8
001
370
    30
100
AcDbVertex
100
AcDb2dVertex
 10
210.098395
 20
281.02074
 30
0.0
  0
VERTEX
  5
10B
330
FA
100
AcDbEntity
  8
001
370
    30
100
AcDbVertex
100
AcDb2dVertex
 10
210.153397
 20
281.067841
 30
0.0
  0
VERTEX
  5
10C
330
FA
100
AcDbEntity
  8
001
370
    30
100
AcDbVertex
100
AcDb2dVertex
 10
210.202816
 20
281.120764
 30
0.0
  0
VERTEX
  5
10D
330
FA
100
AcDbEntity
  8
001
370
    30
100
AcDbVertex
100
AcDb2dVertex
 10
210.23895
 20
281.171605
 30
0.0
  0
VERTEX
  5
10E
330
FA
100
AcDbEntity
  8
001
370
    30
100
AcDbVertex
100
AcDb2dVertex
 10
210.266766
 20
281.227366
 30
0.0
  0
VERTEX
  5
10F
330
FA
100
AcDbEntity
  8
001
370
    30
100
AcDbVertex
100
AcDb2dVertex
 10
210.282671
 20
281.281378
 30
0.0
  0
VERTEX
  5
110
330
FA
100
AcDbEntity
  8
001
370
    30
100
AcDbVertex
100
AcDb2dVertex
 10
210.288301
 20
281.33731
 30
0.0
  0
VERTEX
  5
111
330
FA
100
AcDbEntity
  8
001
370
    30
100
AcDbVertex
100
AcDb2dVertex
 10
210.282679
 20
281.393241
 30
0.0
  0
VERTEX
  5
112
330
FA
100
AcDbEntity
  8
001
370
    30
100
AcDbVertex
100
AcDb2dVertex
 10
210.266766
 20
281.447253
 30
0.0
  0
VERTEX
  5
113
330
FA
100
AcDbEntity
  8
001
370
    30
100
AcDbVertex
100
AcDb2dVertex
 10
210.238923
 20
281.503015
 30
0.0
  0
VERTEX
  5
114
330
FA
100
AcDbEntity
  8
001
370
    30
100
AcDbVertex
100
AcDb2dVertex
 10
210.202816
 20
281.553856
 30
0.0
  0
VERTEX
  5
115
330
FA
100
AcDbEntity
  8
001
370
    30
100
AcDbVertex
100
AcDb2dVertex
 10
210.15352
 20
281.606778
 30
0.0
  0
VERTEX
  5
116
330
FA
100
AcDbEntity
  8
001
370
    30
100
AcDbVertex
100
AcDb2dVertex
 10
210.098395
 20
281.653879
 30
0.0
  0
VERTEX
  5
117
330
FA
100
AcDbEntity
  8
001
370
    30
100
AcDbVertex
100
AcDb2dVertex
 10
209.848652
 20
281.795941
 30
0.0
  0
VERTEX
  5
118
330
FA
100
AcDbEntity
  8
001
370
    30
100
AcDbVertex
100
AcDb2dVertex
 10
209.579561
 20
281.885624
 30
0.0
  0
VERTEX
  5
119
330
FA
100
AcDbEntity
  8
001
370
    30
100
AcDbVertex
100
AcDb2dVertex
 10
209.362185
 20
281.933122
 30
0.0
  0
VERTEX
  5
11A
330
FA
100
AcDbEntity
  8
001
370
    30
100
AcDbVertex
100
AcDb2dVertex
 10
209.116964
 20
281.96083
 30
0.0
  0
VERTEX
  5
11B
330
FA
100
AcDbEntity
  8
001
370
    30
100
AcDbVertex
100
AcDb2dVertex
 10
208.973313
 20
281.968062
 30
0.0
  0
VERTEX
  5
11C
330
FA
100
AcDbEntity
  8
001
370
    30
100
AcDbVertex
100
AcDb2dVertex
 10
208.870822
 20
281.970449
 30
0.0
  0
SEQEND
  5
FB
330
FA
100
AcDbEntity
  8
001
370
    30
  0
POLYLINE
  5
11D
330
4C
100
AcDbEntity
  8
001
370
    30
100
AcDb2dPolyline
 66
     1
 10
0.0
 20
0.0
 30
0.0
  0
VERTEX
  5
11F
330
11D
100
AcDbEntity
  8
001
370
    30
100
AcDbVertex
100
AcDb2dVertex
 10
213.190797
 20
281.765652
 30
0.0
  0
VERTEX
  5
120
330
11D
100
AcDbEntity
  8
001
370
    30
100
AcDbVertex
100
AcDb2dVertex
 10
213.203608
 20
281.602524
 30
0.0
  0
VERTEX
  5
121
330
11D
100
AcDbEntity
  8
001
370
    30
100
AcDbVertex
100
AcDb2dVertex
 10
213.241249
 20
281.380454
 30
0.0
  0
VERTEX
  5
122
330
11D
100
AcDbEntity
  8
001
370
    30
100
AcDbVertex
100
AcDb2dVertex
 10
213.304898
 20
281.18032
 30
0.0
  0
VERTEX
  5
123
330
11D
100
AcDbEntity
  8
001
370
    30
100
AcDbVertex
100
AcDb2dVertex
 10
213.391069
 20
281.00696
 30
0.0
  0
VERTEX
  5
124
330
11D
100
AcDbEntity
  8
001
370
    30
100
AcDbVertex
100
AcDb2dVertex
 10
213.504048
 20
280.828178
 30
0.0
  0
VERTEX
  5
125
330
11D
100
AcDbEntity
  8
001
370
    30
100
AcDbVertex
100
AcDb2dVertex
 10
213.635706
 20
280.656518
 30
0.0
  0
VERTEX
  5
126
330
11D
100
AcDbEntity
  8
001
370
    30
100
AcDbVertex
100
AcDb2dVertex
 10
214.190668
 20
280.17505
 30
0.0
  0
VERTEX
  5
127
330
11D
100
AcDbEntity
  8
001
370
    30
100
AcDbVertex
100
AcDb2dVertex
 10
214.851221
 20
279.844577
 30
0.0
  0
VERTEX
  5
128
330
11D
100
AcDbEntity
  8
001
370
    30
100
AcDbVertex
100
AcDb2dVertex
 10
215.386138
 20
279.678826
 30
0.0
  0
VERTEX
  5
129
330
11D
100
AcDbEntity
  8
001
370
    30
100
AcDbVertex
100
AcDb2dVertex
 10
215.934985
 20
279.581086
 30
0.0
  0
VERTEX
  5
12A
330
11D
100
AcDbEntity
  8
001
370
    30
100
AcDbVertex
100
AcDb2dVertex
 10
216.222766
 20
279.555788
 30
0.0
  0
VERTEX
  5
12B
330
11D
100
AcDbEntity
  8
001
370
    30
100
AcDbVertex
100
AcDb2dVertex
 10
216.511644
 20
279.547385
 30
0.0
  0
VERTEX
  5
12C
330
11D
100
AcDbEntity
  8
001
370
    30
100
AcDbVertex
100
AcDb2dVertex
 10
216.800522
 20
279.555788
 30
0.0
  0
VERTEX
  5
12D
330
11D
100
AcDbEntity
  8
001
370
    30
100
AcDbVertex
100
AcDb2dVertex
 10
217.088303
 20
279.581086
 30
0.0
  0
VERTEX
  5
12E
330
11D
100
AcDbEntity
  8
001
370
    30
100
AcDbVertex
100
AcDb2dVertex
 10
217.63715
 20
279.678826
 30
0.0
  0
VERTEX
  5
12F
330
11D
100
AcDbEntity
  8
001
370
    30
100
AcDbVertex
100
AcDb2dVertex
 10
218.172067
 20
279.844577
 30
0.0
  0
VERTEX
  5
130
330
11D
100
AcDbEntity
  8
001
370
    30
100
AcDbVertex
100
AcDb2dVertex
 10
218.83262
 20
280.17505
 30
0.0
  0
VERTEX
  5
131
330
11D
100
AcDbEntity
  8
001
370
    30
100
AcDbVertex
100
AcDb2dVertex
 10
219.387581
 20
280.656518
 30
0.0
  0
VERTEX
  5
132
330
11D
100
AcDbEntity
  8
001
370
    30
100
AcDbVertex
100
AcDb2dVertex
 10
219.519239
 20
280.828178
 30
0.0
  0
VERTEX
  5
133
330
11D
100
AcDbEntity
  8
001
370
    30
100
AcDbVertex
100
AcDb2dVertex
 10
219.632219
 20
281.00696
 30
0.0
  0
VERTEX
  5
134
330
11D
100
AcDbEntity
  8
001
370
    30
100
AcDbVertex
100
AcDb2dVertex
 10
219.71839
 20
281.18032
 30
0.0
  0
VERTEX
  5
135
330
11D
100
AcDbEntity
  8
001
370
    30
100
AcDbVertex
100
AcDb2dVertex
 10
219.782039
 20
281.380454
 30
0.0
  0
VERTEX
  5
136
330
11D
100
AcDbEntity
  8
001
370
    30
100
AcDbVertex
100
AcDb2dVertex
 10
219.819679
 20
281.602524
 30
0.0
  0
VERTEX
  5
137
330
11D
100
AcDbEntity
  8
001
370
    30
100
AcDbVertex
100
AcDb2dVertex
 10
219.83249
 20
281.765652
 30
0.0
  0
SEQEND
  5
11E
330
11D
100
AcDbEntity
  8
001
370
    30
  0
POLYLINE
  5
138
330
4C
100
AcDbEntity
  8
001
370
    30
100
AcDb2dPolyline
 66
     1
 10
0.0
 20
0.0
 30
0.0
  0
VERTEX
  5
13A
330
138
100
AcDbEntity
  8
001
370
    30
100
AcDbVertex
100
AcDb2dVertex
 10
215.016692
 20
281.765652
 30
0.0
  0
VERTEX
  5
13B
330
138
100
AcDbEntity
  8
001
370
    30
100
AcDbVertex
100
AcDb2dVertex
 10
215.022449
 20
281.689425
 30
0.0
  0
VERTEX
  5
13C
330
138
100
AcDbEntity
  8
001
370
    30
100
AcDbVertex
100
AcDb2dVertex
 10
215.039404
 20
281.585581
 30
0.0
  0
VERTEX
  5
13D
330
138
100
AcDbEntity
  8
001
370
    30
100
AcDbVertex
100
AcDb2dVertex
 10
215.068009
 20
281.49219
 30
0.0
  0
VERTEX
  5
13E
330
138
100
AcDbEntity
  8
001
370
    30
100
AcDbVertex
100
AcDb2dVertex
 10
215.106849
 20
281.410981
 30
0.0
  0
VERTEX
  5
13F
330
138
100
AcDbEntity
  8
001
370
    30
100
AcDbVertex
100
AcDb2dVertex
 10
215.157596
 20
281.327528
 30
0.0
  0
VERTEX
  5
140
330
138
100
AcDbEntity
  8
001
370
    30
100
AcDbVertex
100
AcDb2dVertex
 10
215.216978
 20
281.247158
 30
0.0
  0
VERTEX
  5
141
330
138
100
AcDbEntity
  8
001
370
    30
100
AcDbVertex
100
AcDb2dVertex
 10
215.465786
 20
281.023046
 30
0.0
  0
VERTEX
  5
142
330
138
100
AcDbEntity
  8
001
370
    30
100
AcDbVertex
100
AcDb2dVertex
 10
215.764168
 20
280.867594
 30
0.0
  0
VERTEX
  5
143
330
138
100
AcDbEntity
  8
001
370
    30
100
AcDbVertex
100
AcDb2dVertex
 10
216.004673
 20
280.790154
 30
0.0
  0
VERTEX
  5
144
330
138
100
AcDbEntity
  8
001
370
    30
100
AcDbVertex
100
AcDb2dVertex
 10
216.252048
 20
280.744418
 30
0.0
  0
VERTEX
  5
145
330
138
100
AcDbEntity
  8
001
370
    30
100
AcDbVertex
100
AcDb2dVertex
 10
216.381589
 20
280.732595
 30
0.0
  0
VERTEX
  5
146
330
138
100
AcDbEntity
  8
001
370
    30
100
AcDbVertex
100
AcDb2dVertex
 10
216.511644
 20
280.728664
 30
0.0
  0
VERTEX
  5
147
330
138
100
AcDbEntity
  8
001
370
    30
100
AcDbVertex
100
AcDb2dVertex
 10
216.641699
 20
280.732595
 30
0.0
  0
VERTEX
  5
148
330
138
100
AcDbEntity
  8
001
370
    30
100
AcDbVertex
100
AcDb2dVertex
 10
216.771239
 20
280.744418
 30
0.0
  0
VERTEX
  5
149
330
138
100
AcDbEntity
  8
001
370
    30
100
AcDbVertex
100
AcDb2dVertex
 10
217.018615
 20
280.790154
 30
0.0
  0
VERTEX
  5
14A
330
138
100
AcDbEntity
  8
001
370
    30
100
AcDbVertex
100
AcDb2dVertex
 10
217.25912
 20
280.867594
 30
0.0
  0
VERTEX
  5
14B
330
138
100
AcDbEntity
  8
001
370
    30
100
AcDbVertex
100
AcDb2dVertex
 10
217.557501
 20
281.023046
 30
0.0
  0
VERTEX
  5
14C
330
138
100
AcDbEntity
  8
001
370
    30
100
AcDbVertex
100
AcDb2dVertex
 10
217.80631
 20
281.247158
 30
0.0
  0
VERTEX
  5
14D
330
138
100
AcDbEntity
  8
001
370
    30
100
AcDbVertex
100
AcDb2dVertex
 10
217.865692
 20
281.327528
 30
0.0
  0
VERTEX
  5
14E
330
138
100
AcDbEntity
  8
001
370
    30
100
AcDbVertex
100
AcDb2dVertex
 10
217.916439
 20
281.410981
 30
0.0
  0
VERTEX
  5
14F
330
138
100
AcDbEntity
  8
001
370
    30
100
AcDbVertex
100
AcDb2dVertex
 10
217.955279
 20
281.49219
 30
0.0
  0
VERTEX
  5
150
330
138
100
AcDbEntity
  8
001
370
    30
100
AcDbVertex
100
AcDb2dVertex
 10
217.983884
 20
281.585581
 30
0.0
  0
VERTEX
  5
151
330
138
100
AcDbEntity
  8
001
370
    30
100
AcDbVertex
100
AcDb2dVertex
 10
218.000839
 20
281.689425
 30
0.0
  0
VERTEX
  5
152
330
138
100
AcDbEntity
  8
001
370
    30
100
AcDbVertex
100
AcDb2dVertex
 10
218.006595
 20
281.765652
 30
0.0
  0
SEQEND
  5
139
330
138
100
AcDbEntity
  8
001
370
    30
  0
ENDBLK
  5
4E
330
4C
100
AcDbEntity
  8
0
100
AcDbBlockEnd
  0
BLOCK
  5
154
330
153
100
AcDbEntity
  8
0
100
AcDbBlockBegin
  2
JZB-3
 70
     0
 10
0.0
 20
0.0
 30
0.0
  3
JZB-3
  1

  0
LINE
  5
156
330
153
100
AcDbEntity
  8
001
370
    30
100
AcDbLine
 10
89.433257
 20
58.621244
 30
0.0
 11
94.933257
 21
58.621244
 31
0.0
  0
LINE
  5
157
330
153
100
AcDbEntity
  8
001
370
    30
100
AcDbLine
 10
92.583257
 20
59.521244
 30
0.0
 11
92.583257
 21
60.621244
 31
0.0
  0
LINE
  5
158
330
153
100
AcDbEntity
  8
001
370
    30
100
AcDbLine
 10
91.783257
 20
59.521244
 30
0.0
 11
91.783257
 21
60.621244
 31
0.0
  0
LINE
  5
159
330
153
100
AcDbEntity
  8
001
370
    30
100
AcDbLine
 10
91.783257
 20
59.521244
 30
0.0
 11
92.583257
 21
59.521244
 31
0.0
  0
LINE
  5
15A
330
153
100
AcDbEntity
  8
001
370
    30
100
AcDbLine
 10
89.433257
 20
58.621244
 30
0.0
 11
89.472269
 21
59.365624
 31
0.0
  0
LINE
  5
15B
330
153
100
AcDbEntity
  8
001
370
    30
100
AcDbLine
 10
94.933257
 20
58.621244
 30
0.0
 11
94.894246
 21
59.365624
 31
0.0
  0
ARC
  5
15C
330
153
100
AcDbEntity
  8
001
370
    30
100
AcDbCircle
 10
92.183257
 20
53.632682
 30
0.0
 40
7.0
100
AcDbArc
 50
93.275829
 51
105.860995
  0
ARC
  5
15D
330
153
100
AcDbEntity
  8
001
370
    30
100
AcDbCircle
 10
92.183257
 20
53.632682
 30
0.0
 40
7.0
100
AcDbArc
 50
74.139005
 51
86.724171
  0
ARC
  5
15E
330
153
100
AcDbEntity
  8
001
370
    30
100
AcDbCircle
 10
90.570761
 20
59.308055
 30
0.0
 40
1.1
100
AcDbArc
 50
105.860995
 51
177.0
  0
ARC
  5
15F
330
153
100
AcDbEntity
  8
001
370
    30
100
AcDbCircle
 10
93.795753
 20
59.308055
 30
0.0
 40
1.1
100
AcDbArc
 50
3.0
 51
74.139005
  0
LINE
  5
160
330
153
100
AcDbEntity
  8
001
  6
CENTER
 62
   253
370
     9
100
AcDbLine
 10
92.183257
 20
60.621244
 30
0.0
 11
92.183257
 21
52.921244
 31
0.0
  0
ENDBLK
  5
155
330
153
100
AcDbEntity
  8
0
100
AcDbBlockEnd
  0
BLOCK
  5
162
330
161
100
AcDbEntity
  8
0
100
AcDbBlockBegin
  2
JZB-4
 70
     0
 10
0.0
 20
0.0
 30
0.0
  3
JZB-4
  1

  0
LINE
  5
164
330
161
100
AcDbEntity
  8
001
  6
CENTER
 62
   253
370
     9
100
AcDbLine
 10
85.11134
 20
60.621244
 30
0.0
 11
85.11134
 21
52.921244
 31
0.0
  0
LINE
  5
165
330
161
100
AcDbEntity
  8
001
370
    30
100
AcDbLine
 10
82.36134
 20
58.621244
 30
0.0
 11
87.86134
 21
58.621244
 31
0.0
  0
LINE
  5
166
330
161
100
AcDbEntity
  8
001
370
    30
100
AcDbLine
 10
85.51134
 20
59.521244
 30
0.0
 11
85.51134
 21
60.621244
 31
0.0
  0
LINE
  5
167
330
161
100
AcDbEntity
  8
001
370
    30
100
AcDbLine
 10
84.71134
 20
59.521244
 30
0.0
 11
84.71134
 21
60.621244
 31
0.0
  0
LINE
  5
168
330
161
100
AcDbEntity
  8
001
370
    30
100
AcDbLine
 10
84.71134
 20
59.521244
 30
0.0
 11
85.51134
 21
59.521244
 31
0.0
  0
LINE
  5
169
330
161
100
AcDbEntity
  8
001
370
    30
100
AcDbLine
 10
82.36134
 20
58.621244
 30
0.0
 11
82.400352
 21
59.365624
 31
0.0
  0
LINE
  5
16A
330
161
100
AcDbEntity
  8
001
370
    30
100
AcDbLine
 10
87.86134
 20
58.621244
 30
0.0
 11
87.822329
 21
59.365624
 31
0.0
  0
ARC
  5
16B
330
161
100
AcDbEntity
  8
001
370
    30
100
AcDbCircle
 10
85.11134
 20
53.632682
 30
0.0
 40
7.0
100
AcDbArc
 50
93.275829
 51
105.860995
  0
ARC
  5
16C
330
161
100
AcDbEntity
  8
001
370
    30
100
AcDbCircle
 10
85.11134
 20
53.632682
 30
0.0
 40
7.0
100
AcDbArc
 50
74.139005
 51
86.724171
  0
ARC
  5
16D
330
161
100
AcDbEntity
  8
001
370
    30
100
AcDbCircle
 10
83.498844
 20
59.308055
 30
0.0
 40
1.1
100
AcDbArc
 50
105.860995
 51
177.0
  0
ARC
  5
16E
330
161
100
AcDbEntity
  8
001
370
    30
100
AcDbCircle
 10
86.723836
 20
59.308055
 30
0.0
 40
1.1
100
AcDbArc
 50
3.0
 51
74.139005
  0
ENDBLK
  5
163
330
161
100
AcDbEntity
  8
0
100
AcDbBlockEnd
  0
BLOCK
  5
170
330
16F
100
AcDbEntity
  8
0
100
AcDbBlockBegin
  2
JZB-5
 70
     0
 10
0.0
 20
0.0
 30
0.0
  3
JZB-5
  1

  0
LINE
  5
172
330
16F
100
AcDbEntity
  8
001
  6
CENTER
 62
   253
370
     9
100
AcDbLine
 10
99.61134
 20
72.121244
 30
0.0
 11
99.61134
 21
64.421244
 31
0.0
  0
LINE
  5
173
330
16F
100
AcDbEntity
  8
001
370
    30
100
AcDbLine
 10
96.86134
 20
70.121244
 30
0.0
 11
102.36134
 21
70.121244
 31
0.0
  0
LINE
  5
174
330
16F
100
AcDbEntity
  8
001
370
    30
100
AcDbLine
 10
100.01134
 20
71.021244
 30
0.0
 11
100.01134
 21
72.121244
 31
0.0
  0
LINE
  5
175
330
16F
100
AcDbEntity
  8
001
370
    30
100
AcDbLine
 10
99.21134
 20
71.021244
 30
0.0
 11
99.21134
 21
72.121244
 31
0.0
  0
LINE
  5
176
330
16F
100
AcDbEntity
  8
001
370
    30
100
AcDbLine
 10
99.21134
 20
71.021244
 30
0.0
 11
100.01134
 21
71.021244
 31
0.0
  0
LINE
  5
177
330
16F
100
AcDbEntity
  8
001
370
    30
100
AcDbLine
 10
96.86134
 20
70.121244
 30
0.0
 11
96.900352
 21
70.865624
 31
0.0
  0
LINE
  5
178
330
16F
100
AcDbEntity
  8
001
370
    30
100
AcDbLine
 10
102.36134
 20
70.121244
 30
0.0
 11
102.322329
 21
70.865624
 31
0.0
  0
ARC
  5
179
330
16F
100
AcDbEntity
  8
001
370
    30
100
AcDbCircle
 10
99.61134
 20
65.132682
 30
0.0
 40
7.0
100
AcDbArc
 50
93.275829
 51
105.860995
  0
ARC
  5
17A
330
16F
100
AcDbEntity
  8
001
370
    30
100
AcDbCircle
 10
99.61134
 20
65.132682
 30
0.0
 40
7.0
100
AcDbArc
 50
74.139005
 51
86.724171
  0
ARC
  5
17B
330
16F
100
AcDbEntity
  8
001
370
    30
100
AcDbCircle
 10
97.998844
 20
70.808055
 30
0.0
 40
1.1
100
AcDbArc
 50
105.860995
 51
177.0
  0
ARC
  5
17C
330
16F
100
AcDbEntity
  8
001
370
    30
100
AcDbCircle
 10
101.223836
 20
70.808055
 30
0.0
 40
1.1
100
AcDbArc
 50
3.0
 51
74.139005
  0
ENDBLK
  5
171
330
16F
100
AcDbEntity
  8
0
100
AcDbBlockEnd
  0
BLOCK
  5
17E
330
17D
100
AcDbEntity
  8
0
100
AcDbBlockBegin
  2
JZB-6
 70
     0
 10
0.0
 20
0.0
 30
0.0
  3
JZB-6
  1

  0
LINE
  5
180
330
17D
100
AcDbEntity
  8
001
  6
CENTER
 62
   253
370
     9
100
AcDbLine
 10
85.11134
 20
72.121244
 30
0.0
 11
85.11134
 21
64.421244
 31
0.0
  0
LINE
  5
181
330
17D
100
AcDbEntity
  8
001
370
    30
100
AcDbLine
 10
82.36134
 20
70.121244
 30
0.0
 11
87.86134
 21
70.121244
 31
0.0
  0
LINE
  5
182
330
17D
100
AcDbEntity
  8
001
370
    30
100
AcDbLine
 10
85.51134
 20
71.021244
 30
0.0
 11
85.51134
 21
72.121244
 31
0.0
  0
LINE
  5
183
330
17D
100
AcDbEntity
  8
001
370
    30
100
AcDbLine
 10
84.71134
 20
71.021244
 30
0.0
 11
84.71134
 21
72.121244
 31
0.0
  0
LINE
  5
184
330
17D
100
AcDbEntity
  8
001
370
    30
100
AcDbLine
 10
84.71134
 20
71.021244
 30
0.0
 11
85.51134
 21
71.021244
 31
0.0
  0
LINE
  5
185
330
17D
100
AcDbEntity
  8
001
370
    30
100
AcDbLine
 10
82.36134
 20
70.121244
 30
0.0
 11
82.400352
 21
70.865624
 31
0.0
  0
LINE
  5
186
330
17D
100
AcDbEntity
  8
001
370
    30
100
AcDbLine
 10
87.86134
 20
70.121244
 30
0.0
 11
87.822329
 21
70.865624
 31
0.0
  0
ARC
  5
187
330
17D
100
AcDbEntity
  8
001
370
    30
100
AcDbCircle
 10
85.11134
 20
65.132682
 30
0.0
 40
7.0
100
AcDbArc
 50
93.275829
 51
105.860995
  0
ARC
  5
188
330
17D
100
AcDbEntity
  8
001
370
    30
100
AcDbCircle
 10
85.11134
 20
65.132682
 30
0.0
 40
7.0
100
AcDbArc
 50
74.139005
 51
86.724171
  0
ARC
  5
189
330
17D
100
AcDbEntity
  8
001
370
    30
100
AcDbCircle
 10
83.498844
 20
70.808055
 30
0.0
 40
1.1
100
AcDbArc
 50
105.860995
 51
177.0
  0
ARC
  5
18A
330
17D
100
AcDbEntity
  8
001
370
    30
100
AcDbCircle
 10
86.723836
 20
70.808055
 30
0.0
 40
1.1
100
AcDbArc
 50
3.0
 51
74.139005
  0
ENDBLK
  5
17F
330
17D
100
AcDbEntity
  8
0
100
AcDbBlockEnd
  0
BLOCK
  5
18C
330
18B
100
AcDbEntity
  8
0
100
AcDbBlockBegin
  2
*D7
 70
     1
 10
0.0
 20
0.0
 30
0.0
  3
*D7
  1

  0
LINE
  5
18E
330
18B
100
AcDbEntity
  8
001
 62
     4
370
    30
100
AcDbLine
 10
202.497167
 20
54.70728
 30
0.0
 11
192.593234
 21
54.70728
 31
0.0
  0
LINE
  5
18F
330
18B
100
AcDbEntity
  8
001
 62
     4
370
    30
100
AcDbLine
 10
199.974936
 20
113.70728
 30
0.0
 11
192.593234
 21
113.70728
 31
0.0
  0
LINE
  5
190
330
18B
100
AcDbEntity
  8
001
 62
     4
370
    30
100
AcDbLine
 10
194.093234
 20
54.70728
 30
0.0
 11
194.093234
 21
113.70728
 31
0.0
  0
POLYLINE
  5
191
330
18B
100
AcDbEntity
  8
001
 62
     4
370
    30
100
AcDb2dPolyline
 66
     1
 10
0.0
 20
0.0
 30
0.0
  0
VERTEX
  5
193
330
191
100
AcDbEntity
  8
001
 62
     4
370
    30
100
AcDbVertex
100
AcDb2dVertex
 10
194.412069
 20
56.20728
 30
0.0
  0
VERTEX
  5
194
330
191
100
AcDbEntity
  8
001
 62
     4
370
    30
100
AcDbVertex
100
AcDb2dVertex
 10
194.093234
 20
54.70728
 30
0.0
  0
VERTEX
  5
195
330
191
100
AcDbEntity
  8
001
 62
     4
370
    30
100
AcDbVertex
100
AcDb2dVertex
 10
193.774399
 20
56.20728
 30
0.0
  0
SEQEND
  5
192
330
191
100
AcDbEntity
  8
001
370
    30
  0
POLYLINE
  5
196
330
18B
100
AcDbEntity
  8
001
 62
     4
370
    30
100
AcDb2dPolyline
 66
     1
 10
0.0
 20
0.0
 30
0.0
  0
VERTEX
  5
198
330
196
100
AcDbEntity
  8
001
 62
     4
370
    30
100
AcDbVertex
100
AcDb2dVertex
 10
193.774399
 20
112.20728
 30
0.0
  0
VERTEX
  5
199
330
196
100
AcDbEntity
  8
001
 62
     4
370
    30
100
AcDbVertex
100
AcDb2dVertex
 10
194.093234
 20
113.70728
 30
0.0
  0
VERTEX
  5
19A
330
196
100
AcDbEntity
  8
001
 62
     4
370
    30
100
AcDbVertex
100
AcDb2dVertex
 10
194.412069
 20
112.20728
 30
0.0
  0
SEQEND
  5
197
330
196
100
AcDbEntity
  8
001
370
    30
  0
TEXT
  5
19B
330
18B
100
AcDbEntity
  8
001
 62
     4
370
    30
100
AcDbText
 10
192.593234
 20
79.83328
 30
0.0
 40
2.7
  1
５９
 50
90.000003
 41
0.583333
100
AcDbText
  0
TEXT
  5
1BE
330
18B
100
AcDbEntity
  8
001
 62
     4
370
    30
100
AcDbText
 10
192.053234
 20
83.88328
 30
0.0
 40
1.62
  1
%%p０．３
 50
90.000003
 41
0.608696
100
AcDbText
  0
POINT
  5
1BF
330
18B
100
AcDbEntity
  8
001
 62
     4
370
    30
100
AcDbPoint
 10
202.497167
 20
54.70728
 30
0.0
  0
POINT
  5
1C0
330
18B
100
AcDbEntity
  8
001
 62
     4
370
    30
100
AcDbPoint
 10
199.974936
 20
113.70728
 30
0.0
  0
POINT
  5
1C1
330
18B
100
AcDbEntity
  8
001
 62
     4
370
    30
100
AcDbPoint
 10
194.093234
 20
113.70728
 30
0.0
  0
ENDBLK
  5
18D
330
18B
100
AcDbEntity
  8
0
100
AcDbBlockEnd
  0
BLOCK
  5
1C3
330
1C2
100
AcDbEntity
  8
0
100
AcDbBlockBegin
  2
*D8
 70
     1
 10
0.0
 20
0.0
 30
0.0
  3
*D8
  1

  0
LINE
  5
1C5
330
1C2
100
AcDbEntity
  8
001
 62
     4
370
    30
100
AcDbLine
 10
218.447167
 20
50.754912
 30
0.0
 11
218.447167
 21
40.374534
 31
0.0
  0
LINE
  5
1C6
330
1C2
100
AcDbEntity
  8
001
 62
     4
370
    30
100
AcDbLine
 10
203.447167
 20
53.75728
 30
0.0
 11
203.447167
 21
40.374534
 31
0.0
  0
LINE
  5
1C7
330
1C2
100
AcDbEntity
  8
001
 62
     4
370
    30
100
AcDbLine
 10
218.447167
 20
41.874534
 30
0.0
 11
203.447167
 21
41.874534
 31
0.0
  0
POLYLINE
  5
1C8
330
1C2
100
AcDbEntity
  8
001
 62
     4
370
    30
100
AcDb2dPolyline
 66
     1
 10
0.0
 20
0.0
 30
0.0
  0
VERTEX
  5
1CA
330
1C8
100
AcDbEntity
  8
001
 62
     4
370
    30
100
AcDbVertex
100
AcDb2dVertex
 10
216.947167
 20
42.193368
 30
0.0
  0
VERTEX
  5
1CB
330
1C8
100
AcDbEntity
  8
001
 62
     4
370
    30
100
AcDbVertex
100
AcDb2dVertex
 10
218.447167
 20
41.874534
 30
0.0
  0
VERTEX
  5
1CC
330
1C8
100
AcDbEntity
  8
001
 62
     4
370
    30
100
AcDbVertex
100
AcDb2dVertex
 10
216.947167
 20
41.555699
 30
0.0
  0
SEQEND
  5
1C9
330
1C8
100
AcDbEntity
  8
001
370
    30
  0
POLYLINE
  5
1CD
330
1C2
100
AcDbEntity
  8
001
 62
     4
370
    30
100
AcDb2dPolyline
 66
     1
 10
0.0
 20
0.0
 30
0.0
  0
VERTEX
  5
1CF
330
1CD
100
AcDbEntity
  8
001
 62
     4
370
    30
100
AcDbVertex
100
AcDb2dVertex
 10
204.947167
 20
41.555699
 30
0.0
  0
VERTEX
  5
1D0
330
1CD
100
AcDbEntity
  8
001
 62
     4
370
    30
100
AcDbVertex
100
AcDb2dVertex
 10
203.447167
 20
41.874534
 30
0.0
  0
VERTEX
  5
1D1
330
1CD
100
AcDbEntity
  8
001
 62
     4
370
    30
100
AcDbVertex
100
AcDb2dVertex
 10
204.947167
 20
42.193368
 30
0.0
  0
SEQEND
  5
1CE
330
1CD
100
AcDbEntity
  8
001
370
    30
  0
TEXT
  5
1D2
330
1C2
100
AcDbEntity
  8
001
 62
     4
370
    30
100
AcDbText
 10
206.573167
 20
43.374534
 30
0.0
 40
2.7
  1
１５
 41
0.583333
100
AcDbText
  0
TEXT
  5
1D3
330
1C2
100
AcDbEntity
  8
001
 62
     4
370
    30
100
AcDbText
 10
210.623168
 20
43.914534
 30
0.0
 40
1.62
  1
%%p０．２
 41
0.608696
100
AcDbText
  0
POINT
  5
1D4
330
1C2
100
AcDbEntity
  8
001
 62
     4
370
    30
100
AcDbPoint
 10
218.447167
 20
50.754912
 30
0.0
  0
POINT
  5
1D5
330
1C2
100
AcDbEntity
  8
001
 62
     4
370
    30
100
AcDbPoint
 10
203.447167
 20
53.75728
 30
0.0
  0
POINT
  5
1D6
330
1C2
100
AcDbEntity
  8
001
 62
     4
370
    30
100
AcDbPoint
 10
203.447167
 20
41.874534
 30
0.0
  0
ENDBLK
  5
1C4
330
1C2
100
AcDbEntity
  8
0
100
AcDbBlockEnd
  0
BLOCK
  5
1D8
330
1D7
100
AcDbEntity
  8
0
100
AcDbBlockBegin
  2
*D9
 70
     1
 10
0.0
 20
0.0
 30
0.0
  3
*D9
  1

  0
LINE
  5
1DA
330
1D7
100
AcDbEntity
  8
001
 62
     4
370
    30
100
AcDbLine
 10
215.052924
 20
174.773847
 30
0.0
 11
215.052924
 21
164.031404
 31
0.0
  0
LINE
  5
1DB
330
1D7
100
AcDbEntity
  8
001
 62
     4
370
    30
100
AcDbLine
 10
221.052924
 20
174.773847
 30
0.0
 11
221.052924
 21
164.031404
 31
0.0
  0
LINE
  5
1DC
330
1D7
100
AcDbEntity
  8
001
 62
     4
370
    30
100
AcDbLine
 10
215.052924
 20
165.531404
 30
0.0
 11
221.052924
 21
165.531404
 31
0.0
  0
POLYLINE
  5
1DD
330
1D7
100
AcDbEntity
  8
001
 62
     4
370
    30
100
AcDb2dPolyline
 66
     1
 10
0.0
 20
0.0
 30
0.0
  0
VERTEX
  5
1DF
330
1DD
100
AcDbEntity
  8
001
 62
     4
370
    30
100
AcDbVertex
100
AcDb2dVertex
 10
213.552924
 20
165.850238
 30
0.0
  0
VERTEX
  5
1E0
330
1DD
100
AcDbEntity
  8
001
 62
     4
370
    30
100
AcDbVertex
100
AcDb2dVertex
 10
215.052924
 20
165.531404
 30
0.0
  0
VERTEX
  5
1E1
330
1DD
100
AcDbEntity
  8
001
 62
     4
370
    30
100
AcDbVertex
100
AcDb2dVertex
 10
213.552924
 20
165.212569
 30
0.0
  0
SEQEND
  5
1DE
330
1DD
100
AcDbEntity
  8
001
370
    30
  0
POLYLINE
  5
1E2
330
1D7
100
AcDbEntity
  8
001
 62
     4
370
    30
100
AcDb2dPolyline
 66
     1
 10
0.0
 20
0.0
 30
0.0
  0
VERTEX
  5
1E4
330
1E2
100
AcDbEntity
  8
001
 62
     4
370
    30
100
AcDbVertex
100
AcDb2dVertex
 10
222.552924
 20
165.212569
 30
0.0
  0
VERTEX
  5
1E5
330
1E2
100
AcDbEntity
  8
001
 62
     4
370
    30
100
AcDbVertex
100
AcDb2dVertex
 10
221.052924
 20
165.531404
 30
0.0
  0
VERTEX
  5
1E6
330
1E2
100
AcDbEntity
  8
001
 62
     4
370
    30
100
AcDbVertex
100
AcDb2dVertex
 10
222.552924
 20
165.850238
 30
0.0
  0
SEQEND
  5
1E3
330
1E2
100
AcDbEntity
  8
001
370
    30
  0
TEXT
  5
1E7
330
1D7
100
AcDbEntity
  8
001
 62
     4
370
    30
100
AcDbText
 10
216.972924
 20
167.031404
 30
0.0
 40
2.7
  1
６
 41
0.583333
100
AcDbText
  0
POINT
  5
1E8
330
1D7
100
AcDbEntity
  8
001
 62
     4
370
    30
100
AcDbPoint
 10
215.052924
 20
174.773847
 30
0.0
  0
POINT
  5
1E9
330
1D7
100
AcDbEntity
  8
001
 62
     4
370
    30
100
AcDbPoint
 10
221.052924
 20
174.773847
 30
0.0
  0
POINT
  5
1EA
330
1D7
100
AcDbEntity
  8
001
 62
     4
370
    30
100
AcDbPoint
 10
221.052924
 20
165.531404
 30
0.0
  0
LINE
  5
1EB
330
1D7
100
AcDbEntity
  8
001
 62
     4
370
    30
100
AcDbLine
 10
215.052924
 20
165.531404
 30
0.0
 11
212.352924
 21
165.531404
 31
0.0
  0
LINE
  5
1EC
330
1D7
100
AcDbEntity
  8
001
 62
     4
370
    30
100
AcDbLine
 10
221.052924
 20
165.531404
 30
0.0
 11
223.752924
 21
165.531404
 31
0.0
  0
ENDBLK
  5
1D9
330
1D7
100
AcDbEntity
  8
0
100
AcDbBlockEnd
  0
BLOCK
  5
1EE
330
1ED
100
AcDbEntity
  8
0
100
AcDbBlockBegin
  2
*D10
 70
     1
 10
0.0
 20
0.0
 30
0.0
  3
*D10
  1

  0
LINE
  5
1F0
330
1ED
100
AcDbEntity
  8
001
 62
     4
370
    30
100
AcDbLine
 10
204.552924
 20
176.273847
 30
0.0
 11
204.552924
 21
157.232795
 31
0.0
  0
LINE
  5
1F1
330
1ED
100
AcDbEntity
  8
001
 62
     4
370
    30
100
AcDbLine
 10
221.052924
 20
174.773847
 30
0.0
 11
221.052924
 21
157.232795
 31
0.0
  0
LINE
  5
1F2
330
1ED
100
AcDbEntity
  8
001
 62
     4
370
    30
100
AcDbLine
 10
204.552924
 20
158.732795
 30
0.0
 11
221.052924
 21
158.732795
 31
0.0
  0
POLYLINE
  5
1F3
330
1ED
100
AcDbEntity
  8
001
 62
     4
370
    30
100
AcDb2dPolyline
 66
     1
 10
0.0
 20
0.0
 30
0.0
  0
VERTEX
  5
1F5
330
1F3
100
AcDbEntity
  8
001
 62
     4
370
    30
100
AcDbVertex
100
AcDb2dVertex
 10
206.052924
 20
158.41396
 30
0.0
  0
VERTEX
  5
1F6
330
1F3
100
AcDbEntity
  8
001
 62
     4
370
    30
100
AcDbVertex
100
AcDb2dVertex
 10
204.552924
 20
158.732795
 30
0.0
  0
VERTEX
  5
1F7
330
1F3
100
AcDbEntity
  8
001
 62
     4
370
    30
100
AcDbVertex
100
AcDb2dVertex
 10
206.052924
 20
159.05163
 30
0.0
  0
SEQEND
  5
1F4
330
1F3
100
AcDbEntity
  8
001
370
    30
  0
POLYLINE
  5
1F8
330
1ED
100
AcDbEntity
  8
001
 62
     4
370
    30
100
AcDb2dPolyline
 66
     1
 10
0.0
 20
0.0
 30
0.0
  0
VERTEX
  5
1FA
330
1F8
100
AcDbEntity
  8
001
 62
     4
370
    30
100
AcDbVertex
100
AcDb2dVertex
 10
219.552924
 20
159.05163
 30
0.0
  0
VERTEX
  5
1FB
330
1F8
100
AcDbEntity
  8
001
 62
     4
370
    30
100
AcDbVertex
100
AcDb2dVertex
 10
221.052924
 20
158.732795
 30
0.0
  0
VERTEX
  5
1FC
330
1F8
100
AcDbEntity
  8
001
 62
     4
370
    30
100
AcDbVertex
100
AcDb2dVertex
 10
219.552924
 20
158.41396
 30
0.0
  0
SEQEND
  5
1F9
330
1F8
100
AcDbEntity
  8
001
370
    30
  0
TEXT
  5
1FD
330
1ED
100
AcDbEntity
  8
001
 62
     4
370
    30
100
AcDbText
 10
208.887924
 20
160.232795
 30
0.0
 40
2.7
  1
１６．５
 41
0.583333
100
AcDbText
  0
POINT
  5
1FE
330
1ED
100
AcDbEntity
  8
001
 62
     4
370
    30
100
AcDbPoint
 10
204.552924
 20
176.273847
 30
0.0
  0
POINT
  5
1FF
330
1ED
100
AcDbEntity
  8
001
 62
     4
370
    30
100
AcDbPoint
 10
221.052924
 20
174.773847
 30
0.0
  0
POINT
  5
200
330
1ED
100
AcDbEntity
  8
001
 62
     4
370
    30
100
AcDbPoint
 10
221.052924
 20
158.732795
 30
0.0
  0
ENDBLK
  5
1EF
330
1ED
100
AcDbEntity
  8
0
100
AcDbBlockEnd
  0
BLOCK
  5
202
330
201
100
AcDbEntity
  8
0
100
AcDbBlockBegin
  2
*D11
 70
     1
 10
0.0
 20
0.0
 30
0.0
  3
*D11
  1

  0
LINE
  5
204
330
201
100
AcDbEntity
  8
001
 62
     4
370
    30
100
AcDbLine
 10
221.402924
 20
171.223847
 30
0.0
 11
231.934299
 21
171.223847
 31
0.0
  0
LINE
  5
205
330
201
100
AcDbEntity
  8
001
 62
     4
370
    30
100
AcDbLine
 10
221.502924
 20
175.223847
 30
0.0
 11
231.934299
 21
175.223847
 31
0.0
  0
LINE
  5
206
330
201
100
AcDbEntity
  8
001
 62
     4
370
    30
100
AcDbLine
 10
230.434299
 20
171.223847
 30
0.0
 11
230.434299
 21
175.223847
 31
0.0
  0
POLYLINE
  5
207
330
201
100
AcDbEntity
  8
001
 62
     4
370
    30
100
AcDb2dPolyline
 66
     1
 10
0.0
 20
0.0
 30
0.0
  0
VERTEX
  5
209
330
207
100
AcDbEntity
  8
001
 62
     4
370
    30
100
AcDbVertex
100
AcDb2dVertex
 10
230.115464
 20
169.723847
 30
0.0
  0
VERTEX
  5
20A
330
207
100
AcDbEntity
  8
001
 62
     4
370
    30
100
AcDbVertex
100
AcDb2dVertex
 10
230.434299
 20
171.223847
 30
0.0
  0
VERTEX
  5
20B
330
207
100
AcDbEntity
  8
001
 62
     4
370
    30
100
AcDbVertex
100
AcDb2dVertex
 10
230.753134
 20
169.723847
 30
0.0
  0
SEQEND
  5
208
330
207
100
AcDbEntity
  8
001
370
    30
  0
POLYLINE
  5
20C
330
201
100
AcDbEntity
  8
001
 62
     4
370
    30
100
AcDb2dPolyline
 66
     1
 10
0.0
 20
0.0
 30
0.0
  0
VERTEX
  5
20E
330
20C
100
AcDbEntity
  8
001
 62
     4
370
    30
100
AcDbVertex
100
AcDb2dVertex
 10
230.753134
 20
176.723847
 30
0.0
  0
VERTEX
  5
20F
330
20C
100
AcDbEntity
  8
001
 62
     4
370
    30
100
AcDbVertex
100
AcDb2dVertex
 10
230.434299
 20
175.223847
 30
0.0
  0
VERTEX
  5
210
330
20C
100
AcDbEntity
  8
001
 62
     4
370
    30
100
AcDbVertex
100
AcDb2dVertex
 10
230.115464
 20
176.723847
 30
0.0
  0
SEQEND
  5
20D
330
20C
100
AcDbEntity
  8
001
370
    30
  0
TEXT
  5
211
330
201
100
AcDbEntity
  8
001
 62
     4
370
    30
100
AcDbText
 10
228.934299
 20
172.143847
 30
0.0
 40
2.7
  1
４
 50
90.000003
 41
0.583333
100
AcDbText
  0
POINT
  5
212
330
201
100
AcDbEntity
  8
001
 62
     4
370
    30
100
AcDbPoint
 10
221.402924
 20
171.223847
 30
0.0
  0
POINT
  5
213
330
201
100
AcDbEntity
  8
001
 62
     4
370
    30
100
AcDbPoint
 10
221.502924
 20
175.223847
 30
0.0
  0
POINT
  5
214
330
201
100
AcDbEntity
  8
001
 62
     4
370
    30
100
AcDbPoint
 10
230.434299
 20
175.223847
 30
0.0
  0
LINE
  5
215
330
201
100
AcDbEntity
  8
001
 62
     4
370
    30
100
AcDbLine
 10
230.434299
 20
171.223847
 30
0.0
 11
230.434299
 21
168.523847
 31
0.0
  0
LINE
  5
216
330
201
100
AcDbEntity
  8
001
 62
     4
370
    30
100
AcDbLine
 10
230.434299
 20
175.223847
 30
0.0
 11
230.434299
 21
177.923847
 31
0.0
  0
ENDBLK
  5
203
330
201
100
AcDbEntity
  8
0
100
AcDbBlockEnd
  0
BLOCK
  5
218
330
217
100
AcDbEntity
  8
0
100
AcDbBlockBegin
  2
*D12
 70
     1
 10
0.0
 20
0.0
 30
0.0
  3
*D12
  1

  0
LINE
  5
21A
330
217
100
AcDbEntity
  8
001
 62
     4
370
    30
100
AcDbLine
 10
221.502924
 20
228.923847
 30
0.0
 11
233.813658
 21
228.923847
 31
0.0
  0
LINE
  5
21B
330
217
100
AcDbEntity
  8
001
 62
     4
370
    30
100
AcDbLine
 10
221.502924
 20
193.523847
 30
0.0
 11
233.813658
 21
193.523847
 31
0.0
  0
LINE
  5
21C
330
217
100
AcDbEntity
  8
001
 62
     4
370
    30
100
AcDbLine
 10
232.313658
 20
228.923847
 30
0.0
 11
232.313658
 21
193.523847
 31
0.0
  0
POLYLINE
  5
21D
330
217
100
AcDbEntity
  8
001
 62
     4
370
    30
100
AcDb2dPolyline
 66
     1
 10
0.0
 20
0.0
 30
0.0
  0
VERTEX
  5
21F
330
21D
100
AcDbEntity
  8
001
 62
     4
370
    30
100
AcDbVertex
100
AcDb2dVertex
 10
231.994823
 20
227.423847
 30
0.0
  0
VERTEX
  5
220
330
21D
100
AcDbEntity
  8
001
 62
     4
370
    30
100
AcDbVertex
100
AcDb2dVertex
 10
232.313658
 20
228.923847
 30
0.0
  0
VERTEX
  5
221
330
21D
100
AcDbEntity
  8
001
 62
     4
370
    30
100
AcDbVertex
100
AcDb2dVertex
 10
232.632492
 20
227.423847
 30
0.0
  0
SEQEND
  5
21E
330
21D
100
AcDbEntity
  8
001
370
    30
  0
POLYLINE
  5
222
330
217
100
AcDbEntity
  8
001
 62
     4
370
    30
100
AcDb2dPolyline
 66
     1
 10
0.0
 20
0.0
 30
0.0
  0
VERTEX
  5
224
330
222
100
AcDbEntity
  8
001
 62
     4
370
    30
100
AcDbVertex
100
AcDb2dVertex
 10
232.632492
 20
195.023847
 30
0.0
  0
VERTEX
  5
225
330
222
100
AcDbEntity
  8
001
 62
     4
370
    30
100
AcDbVertex
100
AcDb2dVertex
 10
232.313658
 20
193.523847
 30
0.0
  0
VERTEX
  5
226
330
222
100
AcDbEntity
  8
001
 62
     4
370
    30
100
AcDbVertex
100
AcDb2dVertex
 10
231.994823
 20
195.023847
 30
0.0
  0
SEQEND
  5
223
330
222
100
AcDbEntity
  8
001
370
    30
  0
TEXT
  5
227
330
217
100
AcDbEntity
  8
001
 62
     4
370
    30
100
AcDbText
 10
230.813658
 20
207.308847
 30
0.0
 40
2.7
  1
３５．４
 50
90.000003
 41
0.583333
100
AcDbText
  0
POINT
  5
228
330
217
100
AcDbEntity
  8
001
 62
     4
370
    30
100
AcDbPoint
 10
221.502924
 20
228.923847
 30
0.0
  0
POINT
  5
229
330
217
100
AcDbEntity
  8
001
 62
     4
370
    30
100
AcDbPoint
 10
221.502924
 20
193.523847
 30
0.0
  0
POINT
  5
22A
330
217
100
AcDbEntity
  8
001
 62
     4
370
    30
100
AcDbPoint
 10
232.313658
 20
193.523847
 30
0.0
  0
ENDBLK
  5
219
330
217
100
AcDbEntity
  8
0
100
AcDbBlockEnd
  0
BLOCK
  5
22C
330
22B
100
AcDbEntity
  8
0
100
AcDbBlockBegin
  2
*D13
 70
     1
 10
0.0
 20
0.0
 30
0.0
  3
*D13
  1

  0
LINE
  5
22E
330
22B
100
AcDbEntity
  8
001
 62
     4
370
    30
100
AcDbLine
 10
217.652924
 20
229.373847
 30
0.0
 11
217.652924
 21
256.065064
 31
0.0
  0
LINE
  5
22F
330
22B
100
AcDbEntity
  8
001
 62
     4
370
    30
100
AcDbLine
 10
221.052924
 20
247.673847
 30
0.0
 11
221.052924
 21
256.065064
 31
0.0
  0
LINE
  5
230
330
22B
100
AcDbEntity
  8
001
 62
     4
370
    30
100
AcDbLine
 10
217.652924
 20
254.565064
 30
0.0
 11
221.052924
 21
254.565064
 31
0.0
  0
POLYLINE
  5
231
330
22B
100
AcDbEntity
  8
001
 62
     4
370
    30
100
AcDb2dPolyline
 66
     1
 10
0.0
 20
0.0
 30
0.0
  0
VERTEX
  5
233
330
231
100
AcDbEntity
  8
001
 62
     4
370
    30
100
AcDbVertex
100
AcDb2dVertex
 10
216.152924
 20
254.883899
 30
0.0
  0
VERTEX
  5
234
330
231
100
AcDbEntity
  8
001
 62
     4
370
    30
100
AcDbVertex
100
AcDb2dVertex
 10
217.652924
 20
254.565064
 30
0.0
  0
VERTEX
  5
235
330
231
100
AcDbEntity
  8
001
 62
     4
370
    30
100
AcDbVertex
100
AcDb2dVertex
 10
216.152924
 20
254.246229
 30
0.0
  0
SEQEND
  5
232
330
231
100
AcDbEntity
  8
001
370
    30
  0
POLYLINE
  5
236
330
22B
100
AcDbEntity
  8
001
 62
     4
370
    30
100
AcDb2dPolyline
 66
     1
 10
0.0
 20
0.0
 30
0.0
  0
VERTEX
  5
238
330
236
100
AcDbEntity
  8
001
 62
     4
370
    30
100
AcDbVertex
100
AcDb2dVertex
 10
222.552924
 20
254.246229
 30
0.0
  0
VERTEX
  5
239
330
236
100
AcDbEntity
  8
001
 62
     4
370
    30
100
AcDbVertex
100
AcDb2dVertex
 10
221.052924
 20
254.565064
 30
0.0
  0
VERTEX
  5
23A
330
236
100
AcDbEntity
  8
001
 62
     4
370
    30
100
AcDbVertex
100
AcDb2dVertex
 10
222.552924
 20
254.883899
 30
0.0
  0
SEQEND
  5
237
330
236
100
AcDbEntity
  8
001
370
    30
  0
TEXT
  5
23B
330
22B
100
AcDbEntity
  8
001
 62
     4
370
    30
100
AcDbText
 10
208.862924
 20
256.065064
 30
0.0
 40
2.7
  1
３．４
 41
0.583333
100
AcDbText
  0
POINT
  5
23C
330
22B
100
AcDbEntity
  8
001
 62
     4
370
    30
100
AcDbPoint
 10
217.652924
 20
229.373847
 30
0.0
  0
POINT
  5
23D
330
22B
100
AcDbEntity
  8
001
 62
     4
370
    30
100
AcDbPoint
 10
221.052924
 20
247.673847
 30
0.0
  0
POINT
  5
23E
330
22B
100
AcDbEntity
  8
001
 62
     4
370
    30
100
AcDbPoint
 10
221.052924
 20
254.565064
 30
0.0
  0
LINE
  5
23F
330
22B
100
AcDbEntity
  8
001
 62
     4
370
    30
100
AcDbLine
 10
217.652924
 20
254.565064
 30
0.0
 11
206.612924
 21
254.565064
 31
0.0
  0
LINE
  5
240
330
22B
100
AcDbEntity
  8
001
 62
     4
370
    30
100
AcDbLine
 10
221.052924
 20
254.565064
 30
0.0
 11
223.752924
 21
254.565064
 31
0.0
  0
ENDBLK
  5
22D
330
22B
100
AcDbEntity
  8
0
100
AcDbBlockEnd
  0
BLOCK
  5
242
330
241
100
AcDbEntity
  8
0
100
AcDbBlockBegin
  2
*D14
 70
     1
 10
0.0
 20
0.0
 30
0.0
  3
*D14
  1

  0
LINE
  5
244
330
241
100
AcDbEntity
  8
001
 62
     4
370
    30
100
AcDbLine
 10
221.502924
 20
175.223847
 30
0.0
 11
251.922508
 21
175.223847
 31
0.0
  0
LINE
  5
245
330
241
100
AcDbEntity
  8
001
 62
     4
370
    30
100
AcDbLine
 10
221.502924
 20
247.223847
 30
0.0
 11
251.922508
 21
247.223847
 31
0.0
  0
LINE
  5
246
330
241
100
AcDbEntity
  8
001
 62
     4
370
    30
100
AcDbLine
 10
250.422508
 20
175.223847
 30
0.0
 11
250.422508
 21
247.223847
 31
0.0
  0
POLYLINE
  5
247
330
241
100
AcDbEntity
  8
001
 62
     4
370
    30
100
AcDb2dPolyline
 66
     1
 10
0.0
 20
0.0
 30
0.0
  0
VERTEX
  5
249
330
247
100
AcDbEntity
  8
001
 62
     4
370
    30
100
AcDbVertex
100
AcDb2dVertex
 10
250.741343
 20
176.723847
 30
0.0
  0
VERTEX
  5
24A
330
247
100
AcDbEntity
  8
001
 62
     4
370
    30
100
AcDbVertex
100
AcDb2dVertex
 10
250.422508
 20
175.223847
 30
0.0
  0
VERTEX
  5
24B
330
247
100
AcDbEntity
  8
001
 62
     4
370
    30
100
AcDbVertex
100
AcDb2dVertex
 10
250.103673
 20
176.723847
 30
0.0
  0
SEQEND
  5
248
330
247
100
AcDbEntity
  8
001
370
    30
  0
POLYLINE
  5
24C
330
241
100
AcDbEntity
  8
001
 62
     4
370
    30
100
AcDb2dPolyline
 66
     1
 10
0.0
 20
0.0
 30
0.0
  0
VERTEX
  5
24E
330
24C
100
AcDbEntity
  8
001
 62
     4
370
    30
100
AcDbVertex
100
AcDb2dVertex
 10
250.103673
 20
245.723847
 30
0.0
  0
VERTEX
  5
24F
330
24C
100
AcDbEntity
  8
001
 62
     4
370
    30
100
AcDbVertex
100
AcDb2dVertex
 10
250.422508
 20
247.223847
 30
0.0
  0
VERTEX
  5
250
330
24C
100
AcDbEntity
  8
001
 62
     4
370
    30
100
AcDbVertex
100
AcDb2dVertex
 10
250.741343
 20
245.723847
 30
0.0
  0
SEQEND
  5
24D
330
24C
100
AcDbEntity
  8
001
370
    30
  0
TEXT
  5
251
330
241
100
AcDbEntity
  8
001
 62
     4
370
    30
100
AcDbText
 10
248.922508
 20
209.198847
 30
0.0
 40
2.7
  1
７２
 50
90.000003
 41
0.583333
100
AcDbText
  0
POINT
  5
252
330
241
100
AcDbEntity
  8
001
 62
     4
370
    30
100
AcDbPoint
 10
221.502924
 20
175.223847
 30
0.0
  0
POINT
  5
253
330
241
100
AcDbEntity
  8
001
 62
     4
370
    30
100
AcDbPoint
 10
221.502924
 20
247.223847
 30
0.0
  0
POINT
  5
254
330
241
100
AcDbEntity
  8
001
 62
     4
370
    30
100
AcDbPoint
 10
250.422508
 20
247.223847
 30
0.0
  0
ENDBLK
  5
243
330
241
100
AcDbEntity
  8
0
100
AcDbBlockEnd
  0
BLOCK
  5
256
330
255
100
AcDbEntity
  8
0
100
AcDbBlockBegin
  2
DIM-7
 70
     0
 10
0.0
 20
0.0
 30
0.0
  3
DIM-7
  1

  0
TEXT
  5
258
330
255
100
AcDbEntity
  8
001
 62
     4
370
    30
100
AcDbText
 10
110.02681
 20
250.76259
 30
0.0
 40
2.7
  1
８－Ｍ３ｘ８
 41
0.583333
100
AcDbText
  0
POLYLINE
  5
259
330
255
100
AcDbEntity
  8
001
 62
     4
370
    30
100
AcDb2dPolyline
 66
     1
 10
0.0
 20
0.0
 30
0.0
  0
VERTEX
  5
25B
330
259
100
AcDbEntity
  8
001
 62
     4
370
    30
100
AcDbVertex
100
AcDb2dVertex
 10
102.610752
 20
243.471457
 30
0.0
  0
VERTEX
  5
25C
330
259
100
AcDbEntity
  8
001
 62
     4
370
    30
100
AcDbVertex
100
AcDb2dVertex
 10
101.405025
 20
242.523893
 30
0.0
  0
VERTEX
  5
25D
330
259
100
AcDbEntity
  8
001
 62
     4
370
    30
100
AcDbVertex
100
AcDb2dVertex
 10
102.121102
 20
243.879949
 30
0.0
  0
SEQEND
  5
25A
330
259
100
AcDbEntity
  8
001
370
    30
  0
POLYLINE
  5
25E
330
255
100
AcDbEntity
  8
001
 62
     4
370
    30
100
AcDb2dPolyline
 66
     1
 10
0.0
 20
0.0
 30
0.0
  0
VERTEX
  5
260
330
25E
100
AcDbEntity
  8
001
 62
     4
370
    30
100
AcDbVertex
100
AcDb2dVertex
 10
101.405025
 20
242.523893
 30
0.0
  0
VERTEX
  5
261
330
25E
100
AcDbEntity
  8
001
 62
     4
370
    30
100
AcDbVertex
100
AcDb2dVertex
 10
107.02681
 20
249.26259
 30
0.0
  0
VERTEX
  5
262
330
25E
100
AcDbEntity
  8
001
 62
     4
370
    30
100
AcDbVertex
100
AcDb2dVertex
 10
124.63681
 20
249.26259
 30
0.0
  0
SEQEND
  5
25F
330
25E
100
AcDbEntity
  8
001
370
    30
  0
ENDBLK
  5
257
330
255
100
AcDbEntity
  8
0
100
AcDbBlockEnd
  0
BLOCK
  5
264
330
263
100
AcDbEntity
  8
0
100
AcDbBlockBegin
  2
*D16
 70
     1
 10
0.0
 20
0.0
 30
0.0
  3
*D16
  1

  0
LINE
  5
266
330
263
100
AcDbEntity
  8
001
 62
     4
370
    30
100
AcDbLine
 10
95.61134
 20
247.673847
 30
0.0
 11
95.61134
 21
257.083125
 31
0.0
  0
LINE
  5
267
330
263
100
AcDbEntity
  8
001
 62
     4
370
    30
100
AcDbLine
 10
89.61134
 20
247.673847
 30
0.0
 11
89.61134
 21
257.083125
 31
0.0
  0
LINE
  5
268
330
263
100
AcDbEntity
  8
001
 62
     4
370
    30
100
AcDbLine
 10
95.61134
 20
255.583125
 30
0.0
 11
89.61134
 21
255.583125
 31
0.0
  0
POLYLINE
  5
269
330
263
100
AcDbEntity
  8
001
 62
     4
370
    30
100
AcDb2dPolyline
 66
     1
 10
0.0
 20
0.0
 30
0.0
  0
VERTEX
  5
26B
330
269
100
AcDbEntity
  8
001
 62
     4
370
    30
100
AcDbVertex
100
AcDb2dVertex
 10
97.11134
 20
255.26429
 30
0.0
  0
VERTEX
  5
26C
330
269
100
AcDbEntity
  8
001
 62
     4
370
    30
100
AcDbVertex
100
AcDb2dVertex
 10
95.61134
 20
255.583125
 30
0.0
  0
VERTEX
  5
26D
330
269
100
AcDbEntity
  8
001
 62
     4
370
    30
100
AcDbVertex
100
AcDb2dVertex
 10
97.11134
 20
255.90196
 30
0.0
  0
SEQEND
  5
26A
330
269
100
AcDbEntity
  8
001
370
    30
  0
POLYLINE
  5
26E
330
263
100
AcDbEntity
  8
001
 62
     4
370
    30
100
AcDb2dPolyline
 66
     1
 10
0.0
 20
0.0
 30
0.0
  0
VERTEX
  5
270
330
26E
100
AcDbEntity
  8
001
 62
     4
370
    30
100
AcDbVertex
100
AcDb2dVertex
 10
88.11134
 20
255.90196
 30
0.0
  0
VERTEX
  5
271
330
26E
100
AcDbEntity
  8
001
 62
     4
370
    30
100
AcDbVertex
100
AcDb2dVertex
 10
89.61134
 20
255.583125
 30
0.0
  0
VERTEX
  5
272
330
26E
100
AcDbEntity
  8
001
 62
     4
370
    30
100
AcDbVertex
100
AcDb2dVertex
 10
88.11134
 20
255.26429
 30
0.0
  0
SEQEND
  5
26F
330
26E
100
AcDbEntity
  8
001
370
    30
  0
TEXT
  5
273
330
263
100
AcDbEntity
  8
001
 62
     4
370
    30
100
AcDbText
 10
79.90334
 20
257.653125
 30
0.0
 40
2.7
  1
６
 41
0.583333
100
AcDbText
  0
TEXT
  5
274
330
263
100
AcDbEntity
  8
001
 62
     4
370
    30
100
AcDbText
 10
82.06334
 20
259.303125
 30
0.0
 40
1.62
  1
＋０．２
 41
0.583333
100
AcDbText
  0
TEXT
  5
275
330
263
100
AcDbEntity
  8
001
 62
     4
370
    30
100
AcDbText
 10
82.06334
 20
257.083125
 30
0.0
 40
1.62
  1
－０．１
 41
0.583333
100
AcDbText
  0
POINT
  5
276
330
263
100
AcDbEntity
  8
001
 62
     4
370
    30
100
AcDbPoint
 10
95.61134
 20
247.673847
 30
0.0
  0
POINT
  5
277
330
263
100
AcDbEntity
  8
001
 62
     4
370
    30
100
AcDbPoint
 10
89.61134
 20
247.673847
 30
0.0
  0
POINT
  5
278
330
263
100
AcDbEntity
  8
001
 62
     4
370
    30
100
AcDbPoint
 10
89.61134
 20
255.583125
 30
0.0
  0
LINE
  5
279
330
263
100
AcDbEntity
  8
001
 62
     4
370
    30
100
AcDbLine
 10
95.61134
 20
255.583125
 30
0.0
 11
98.31134
 21
255.583125
 31
0.0
  0
LINE
  5
27A
330
263
100
AcDbEntity
  8
001
 62
     4
370
    30
100
AcDbLine
 10
89.61134
 20
255.583125
 30
0.0
 11
77.65334
 21
255.583125
 31
0.0
  0
ENDBLK
  5
265
330
263
100
AcDbEntity
  8
0
100
AcDbBlockEnd
  0
BLOCK
  5
27C
330
27B
100
AcDbEntity
  8
0
100
AcDbBlockBegin
  2
DIM-8
 70
     0
 10
0.0
 20
0.0
 30
0.0
  3
DIM-8
  1

  0
TEXT
  5
27E
330
27B
100
AcDbEntity
  8
001
 62
     4
370
    30
100
AcDbText
 10
43.130842
 20
254.587897
 30
0.0
 40
2.7
  1
ＭＯＵＮＴＩＮＧＨＯＬＥＳ
 41
0.583333
100
AcDbText
  0
POLYLINE
  5
27F
330
27B
100
AcDbEntity
  8
001
 62
     4
370
    30
100
AcDb2dPolyline
 66
     1
 10
0.0
 20
0.0
 30
0.0
  0
VERTEX
  5
281
330
27F
100
AcDbEntity
  8
001
 62
     4
370
    30
100
AcDbVertex
100
AcDb2dVertex
 10
82.500248
 20
243.795138
 30
0.0
  0
VERTEX
  5
282
330
27F
100
AcDbEntity
  8
001
 62
     4
370
    30
100
AcDbVertex
100
AcDb2dVertex
 10
83.442203
 20
242.585025
 30
0.0
  0
VERTEX
  5
283
330
27F
100
AcDbEntity
  8
001
 62
     4
370
    30
100
AcDbVertex
100
AcDb2dVertex
 10
82.089486
 20
243.307391
 30
0.0
  0
SEQEND
  5
280
330
27F
100
AcDbEntity
  8
001
370
    30
  0
POLYLINE
  5
284
330
27B
100
AcDbEntity
  8
001
 62
     4
370
    30
100
AcDb2dPolyline
 66
     1
 10
0.0
 20
0.0
 30
0.0
  0
VERTEX
  5
286
330
284
100
AcDbEntity
  8
001
 62
     4
370
    30
100
AcDbVertex
100
AcDb2dVertex
 10
83.442203
 20
242.585025
 30
0.0
  0
VERTEX
  5
287
330
284
100
AcDbEntity
  8
001
 62
     4
370
    30
100
AcDbVertex
100
AcDb2dVertex
 10
70.970842
 20
253.087897
 30
0.0
  0
VERTEX
  5
288
330
284
100
AcDbEntity
  8
001
 62
     4
370
    30
100
AcDbVertex
100
AcDb2dVertex
 10
40.130842
 20
253.087897
 30
0.0
  0
SEQEND
  5
285
330
284
100
AcDbEntity
  8
001
370
    30
  0
ENDBLK
  5
27D
330
27B
100
AcDbEntity
  8
0
100
AcDbBlockEnd
  0
BLOCK
  5
28A
330
289
100
AcDbEntity
  8
0
100
AcDbBlockBegin
  2
*D18
 70
     1
 10
0.0
 20
0.0
 30
0.0
  3
*D18
  1

  0
LINE
  5
28C
330
289
100
AcDbEntity
  8
001
 62
     4
370
    30
100
AcDbLine
 10
80.86134
 20
175.223847
 30
0.0
 11
66.902171
 21
175.223847
 31
0.0
  0
LINE
  5
28D
330
289
100
AcDbEntity
  8
001
 62
     4
370
    30
100
AcDbLine
 10
86.61134
 20
171.223847
 30
0.0
 11
66.902171
 21
171.223847
 31
0.0
  0
LINE
  5
28E
330
289
100
AcDbEntity
  8
001
 62
     4
370
    30
100
AcDbLine
 10
68.402171
 20
175.223847
 30
0.0
 11
68.402171
 21
171.223847
 31
0.0
  0
POLYLINE
  5
28F
330
289
100
AcDbEntity
  8
001
 62
     4
370
    30
100
AcDb2dPolyline
 66
     1
 10
0.0
 20
0.0
 30
0.0
  0
VERTEX
  5
291
330
28F
100
AcDbEntity
  8
001
 62
     4
370
    30
100
AcDbVertex
100
AcDb2dVertex
 10
68.721006
 20
176.723847
 30
0.0
  0
VERTEX
  5
292
330
28F
100
AcDbEntity
  8
001
 62
     4
370
    30
100
AcDbVertex
100
AcDb2dVertex
 10
68.402171
 20
175.223847
 30
0.0
  0
VERTEX
  5
293
330
28F
100
AcDbEntity
  8
001
 62
     4
370
    30
100
AcDbVertex
100
AcDb2dVertex
 10
68.083337
 20
176.723847
 30
0.0
  0
SEQEND
  5
290
330
28F
100
AcDbEntity
  8
001
370
    30
  0
POLYLINE
  5
294
330
289
100
AcDbEntity
  8
001
 62
     4
370
    30
100
AcDb2dPolyline
 66
     1
 10
0.0
 20
0.0
 30
0.0
  0
VERTEX
  5
296
330
294
100
AcDbEntity
  8
001
 62
     4
370
    30
100
AcDbVertex
100
AcDb2dVertex
 10
68.083337
 20
169.723847
 30
0.0
  0
VERTEX
  5
297
330
294
100
AcDbEntity
  8
001
 62
     4
370
    30
100
AcDbVertex
100
AcDb2dVertex
 10
68.402171
 20
171.223847
 30
0.0
  0
VERTEX
  5
298
330
294
100
AcDbEntity
  8
001
 62
     4
370
    30
100
AcDbVertex
100
AcDb2dVertex
 10
68.721006
 20
169.723847
 30
0.0
  0
SEQEND
  5
295
330
294
100
AcDbEntity
  8
001
370
    30
  0
TEXT
  5
299
330
289
100
AcDbEntity
  8
001
 62
     4
370
    30
100
AcDbText
 10
66.902171
 20
172.143847
 30
0.0
 40
2.7
  1
４
 50
90.000003
 41
0.583333
100
AcDbText
  0
POINT
  5
29A
330
289
100
AcDbEntity
  8
001
 62
     4
370
    30
100
AcDbPoint
 10
80.86134
 20
175.223847
 30
0.0
  0
POINT
  5
29B
330
289
100
AcDbEntity
  8
001
 62
     4
370
    30
100
AcDbPoint
 10
86.61134
 20
171.223847
 30
0.0
  0
POINT
  5
29C
330
289
100
AcDbEntity
  8
001
 62
     4
370
    30
100
AcDbPoint
 10
68.402171
 20
171.223847
 30
0.0
  0
LINE
  5
29D
330
289
100
AcDbEntity
  8
001
 62
     4
370
    30
100
AcDbLine
 10
68.402171
 20
175.223847
 30
0.0
 11
68.402171
 21
177.923847
 31
0.0
  0
LINE
  5
29E
330
289
100
AcDbEntity
  8
001
 62
     4
370
    30
100
AcDbLine
 10
68.402171
 20
171.223847
 30
0.0
 11
68.402171
 21
168.523847
 31
0.0
  0
ENDBLK
  5
28B
330
289
100
AcDbEntity
  8
0
100
AcDbBlockEnd
  0
ENDSEC
  0
SECTION
  2
ENTITIES
  0
INSERT
  5
29F
330
1F
100
AcDbEntity
  8
001
  6
ByBlock
 62
     0
370
    -2
100
AcDbBlockReference
  2
DTL0001-1
 10
0.0
 20
0.0
 30
0.0
  0
INSERT
  5
2A0
330
1F
100
AcDbEntity
  8
001
  6
ByBlock
 62
     0
370
    -2
100
AcDbBlockReference
  2
DTL0001-2
 10
0.0
 20
0.0
 30
0.0
  0
INSERT
  5
2A1
330
1F
100
AcDbEntity
  8
001
  6
ByBlock
 62
     0
370
    -2
100
AcDbBlockReference
  2
JZB-3
 10
0.0
 20
0.0
 30
0.0
  0
INSERT
  5
2A2
330
1F
100
AcDbEntity
  8
001
  6
ByBlock
 62
     0
370
    -2
100
AcDbBlockReference
  2
JZB-4
 10
0.0
 20
0.0
 30
0.0
  0
INSERT
  5
2A3
330
1F
100
AcDbEntity
  8
001
  6
ByBlock
 62
     0
370
    -2
100
AcDbBlockReference
  2
JZB-5
 10
0.0
 20
0.0
 30
0.0
  0
INSERT
  5
2A4
330
1F
100
AcDbEntity
  8
001
  6
ByBlock
 62
     0
370
    -2
100
AcDbBlockReference
  2
JZB-6
 10
0.0
 20
0.0
 30
0.0
  0
DIMENSION
  5
2A5
330
1F
100
AcDbEntity
  8
001
 62
     4
370
    30
100
AcDbDimension
  2
*D7
 10
194.093234
 20
113.70728
 30
0.0
 11
191.243234
 21
84.20728
 31
0.0
 70
   160
 71
     5
 42
-1.0
  3
Standard
100
AcDbAlignedDimension
 13
202.497167
 23
54.70728
 33
0.0
 14
199.974936
 24
113.70728
 34
0.0
 50
90.0
100
AcDbRotatedDimension
1001
ACAD
1000
DSTYLE
1002
{
1070
    48
1040
0.3
1070
    47
1040
0.3
1070
   284
1070
     8
1070
   272
1070
     1
1070
    71
1070
     1
1002
}
  0
DIMENSION
  5
2A6
330
1F
100
AcDbEntity
  8
001
 62
     4
370
    30
100
AcDbDimension
  2
*D8
 10
203.447167
 20
41.874534
 30
0.0
 11
210.947167
 21
44.724534
 31
0.0
 70
   160
 71
     5
 42
-1.0
  3
Standard
100
AcDbAlignedDimension
 13
218.447167
 23
50.754912
 33
0.0
 14
203.447167
 24
53.75728
 34
0.0
 50
180.0
100
AcDbRotatedDimension
1001
ACAD
1000
DSTYLE
1002
{
1070
    48
1040
0.2
1070
    47
1040
0.2
1070
   284
1070
     8
1070
   272
1070
     1
1070
    71
1070
     1
1002
}
  0
TEXT
  5
2A7
330
1F
100
AcDbEntity
  8
001
 62
     4
370
    30
100
AcDbText
 10
210.427813
 20
125.499688
 30
0.0
 40
2.7
  1
２－Ｍ２　ＯＲ　Ｍ４　ＯＲ　
 41
0.583333
100
AcDbText
  0
TEXT
  5
2A8
330
1F
100
AcDbEntity
  8
001
 62
     4
370
    30
100
AcDbText
 10
237.157813
 20
125.499688
 30
0.0
 40
2.7
  1
%%c４．５　ＨＯＬＥＳ
 41
0.59322
100
AcDbText
  0
POLYLINE
  5
2A9
330
1F
100
AcDbEntity
  8
001
 62
     4
370
    30
100
AcDb2dPolyline
 66
     1
 10
0.0
 20
0.0
 30
0.0
  0
VERTEX
  5
2AB
330
2A9
100
AcDbEntity
  8
001
 62
     4
370
    30
100
AcDbVertex
100
AcDb2dVertex
 10
205.097226
 20
117.089802
 30
0.0
  0
VERTEX
  5
2AC
330
2A9
100
AcDbEntity
  8
001
 62
     4
370
    30
100
AcDbVertex
100
AcDb2dVertex
 10
204.258781
 20
115.805799
 30
0.0
  0
VERTEX
  5
2AD
330
2A9
100
AcDbEntity
  8
001
 62
     4
370
    30
100
AcDbVertex
100
AcDb2dVertex
 10
204.502488
 20
117.319821
 30
0.0
  0
SEQEND
  5
2AA
330
2A9
100
AcDbEntity
  8
001
370
    30
  0
POLYLINE
  5
2AE
330
1F
100
AcDbEntity
  8
001
 62
     4
370
    30
100
AcDb2dPolyline
 66
     1
 10
0.0
 20
0.0
 30
0.0
  0
VERTEX
  5
2B0
330
2AE
100
AcDbEntity
  8
001
 62
     4
370
    30
100
AcDbVertex
100
AcDb2dVertex
 10
204.258781
 20
115.805799
 30
0.0
  0
VERTEX
  5
2B1
330
2AE
100
AcDbEntity
  8
001
 62
     4
370
    30
100
AcDbVertex
100
AcDb2dVertex
 10
207.427813
 20
123.999688
 30
0.0
  0
VERTEX
  5
2B2
330
2AE
100
AcDbEntity
  8
001
 62
     4
370
    30
100
AcDbVertex
100
AcDb2dVertex
 10
259.327813
 20
123.999688
 30
0.0
  0
SEQEND
  5
2AF
330
2AE
100
AcDbEntity
  8
001
370
    30
  0
DIMENSION
  5
2B3
330
1F
100
AcDbEntity
  8
001
 62
     4
370
    30
100
AcDbDimension
  2
*D9
 10
221.052924
 20
165.531404
 30
0.0
 11
218.052924
 21
168.381404
 31
0.0
 70
   160
 71
     5
 42
-1.0
  3
Standard
100
AcDbAlignedDimension
 13
215.052924
 23
174.773847
 33
0.0
 14
221.052924
 24
174.773847
 34
0.0
100
AcDbRotatedDimension
  0
DIMENSION
  5
2B4
330
1F
100
AcDbEntity
  8
001
 62
     4
370
    30
100
AcDbDimension
  2
*D10
 10
221.052924
 20
158.732795
 30
0.0
 11
212.802924
 21
161.582795
 31
0.0
 70
   160
 71
     5
 42
-1.0
  3
Standard
100
AcDbAlignedDimension
 13
204.552924
 23
176.273847
 33
0.0
 14
221.052924
 24
174.773847
 34
0.0
100
AcDbRotatedDimension
  0
TEXT
  5
2B5
330
1F
100
AcDbEntity
  8
001
 62
     4
370
    30
100
AcDbText
 10
199.912924
 20
153.497264
 30
0.0
 40
2.7
  1
３１
 41
0.583333
100
AcDbText
  0
TEXT
  5
2B6
330
1F
100
AcDbEntity
  8
001
 62
     4
370
    30
100
AcDbText
 10
203.962924
 20
153.497264
 30
0.0
 40
2.7
  1
ＭＡＸ．
 41
0.583333
100
AcDbText
  0
POLYLINE
  5
2B7
330
1F
100
AcDbEntity
  8
001
 62
     4
370
    30
100
AcDb2dPolyline
 66
     1
 10
0.0
 20
0.0
 30
0.0
  0
VERTEX
  5
2B9
330
2B7
100
AcDbEntity
  8
001
 62
     4
370
    30
100
AcDbVertex
100
AcDb2dVertex
 10
192.152924
 20
151.678429
 30
0.0
  0
VERTEX
  5
2BA
330
2B7
100
AcDbEntity
  8
001
 62
     4
370
    30
100
AcDbVertex
100
AcDb2dVertex
 10
190.652924
 20
151.997264
 30
0.0
  0
VERTEX
  5
2BB
330
2B7
100
AcDbEntity
  8
001
 62
     4
370
    30
100
AcDbVertex
100
AcDb2dVertex
 10
192.152924
 20
152.316099
 30
0.0
  0
SEQEND
  5
2B8
330
2B7
100
AcDbEntity
  8
001
370
    30
  0
POLYLINE
  5
2BC
330
1F
100
AcDbEntity
  8
001
 62
     4
370
    30
100
AcDb2dPolyline
 66
     1
 10
0.0
 20
0.0
 30
0.0
  0
VERTEX
  5
2BE
330
2BC
100
AcDbEntity
  8
001
 62
     4
370
    30
100
AcDbVertex
100
AcDb2dVertex
 10
219.552924
 20
152.316099
 30
0.0
  0
VERTEX
  5
2BF
330
2BC
100
AcDbEntity
  8
001
 62
     4
370
    30
100
AcDbVertex
100
AcDb2dVertex
 10
221.052924
 20
151.997264
 30
0.0
  0
VERTEX
  5
2C0
330
2BC
100
AcDbEntity
  8
001
 62
     4
370
    30
100
AcDbVertex
100
AcDb2dVertex
 10
219.552924
 20
151.678429
 30
0.0
  0
SEQEND
  5
2BD
330
2BC
100
AcDbEntity
  8
001
370
    30
  0
LINE
  5
2C1
330
1F
100
AcDbEntity
  8
001
 62
     4
370
    30
100
AcDbLine
 10
190.652924
 20
151.997264
 30
0.0
 11
221.052924
 21
151.997264
 31
0.0
  0
POLYLINE
  5
2C2
330
1F
100
AcDbEntity
  8
001
 62
     4
370
    30
100
AcDb2dPolyline
 66
     1
 10
0.0
 20
0.0
 30
0.0
  0
VERTEX
  5
2C4
330
2C2
100
AcDbEntity
  8
001
 62
     4
370
    30
100
AcDbVertex
100
AcDb2dVertex
 10
190.652924
 20
196.773847
 30
0.0
  0
VERTEX
  5
2C5
330
2C2
100
AcDbEntity
  8
001
 62
     4
370
    30
100
AcDbVertex
100
AcDb2dVertex
 10
190.652924
 20
151.997264
 30
0.0
  0
VERTEX
  5
2C6
330
2C2
100
AcDbEntity
  8
001
 62
     4
370
    30
100
AcDbVertex
100
AcDb2dVertex
 10
190.652924
 20
150.497264
 30
0.0
  0
SEQEND
  5
2C3
330
2C2
100
AcDbEntity
  8
001
370
    30
  0
POLYLINE
  5
2C7
330
1F
100
AcDbEntity
  8
001
 62
     4
370
    30
100
AcDb2dPolyline
 66
     1
 10
0.0
 20
0.0
 30
0.0
  0
VERTEX
  5
2C9
330
2C7
100
AcDbEntity
  8
001
 62
     4
370
    30
100
AcDbVertex
100
AcDb2dVertex
 10
221.052924
 20
174.773847
 30
0.0
  0
VERTEX
  5
2CA
330
2C7
100
AcDbEntity
  8
001
 62
     4
370
    30
100
AcDbVertex
100
AcDb2dVertex
 10
221.052924
 20
151.997264
 30
0.0
  0
VERTEX
  5
2CB
330
2C7
100
AcDbEntity
  8
001
 62
     4
370
    30
100
AcDbVertex
100
AcDb2dVertex
 10
221.052924
 20
150.497264
 30
0.0
  0
SEQEND
  5
2C8
330
2C7
100
AcDbEntity
  8
001
370
    30
  0
DIMENSION
  5
2CC
330
1F
100
AcDbEntity
  8
001
 62
     4
370
    30
100
AcDbDimension
  2
*D11
 10
230.434299
 20
175.223847
 30
0.0
 11
227.584299
 21
173.223847
 31
0.0
 70
   160
 71
     5
 42
-1.0
  3
Standard
100
AcDbAlignedDimension
 13
221.402924
 23
171.223847
 33
0.0
 14
221.502924
 24
175.223847
 34
0.0
 50
90.0
100
AcDbRotatedDimension
  0
DIMENSION
  5
2CD
330
1F
100
AcDbEntity
  8
001
 62
     4
370
    30
100
AcDbDimension
  2
*D12
 10
232.313658
 20
193.523847
 30
0.0
 11
229.463657
 21
211.223847
 31
0.0
 70
   160
 71
     5
 42
-1.0
  3
Standard
100
AcDbAlignedDimension
 13
221.502924
 23
228.923847
 33
0.0
 14
221.502924
 24
193.523847
 34
0.0
 50
270.0
100
AcDbRotatedDimension
  0
DIMENSION
  5
2CE
330
1F
100
AcDbEntity
  8
001
 62
     4
370
    30
100
AcDbDimension
  2
*D13
 10
221.052924
 20
254.565064
 30
0.0
 11
211.832924
 21
257.415064
 31
0.0
 70
   160
 71
     5
 42
-1.0
  3
Standard
100
AcDbAlignedDimension
 13
217.652924
 23
229.373847
 33
0.0
 14
221.052924
 24
247.673847
 34
0.0
100
AcDbRotatedDimension
  0
DIMENSION
  5
2CF
330
1F
100
AcDbEntity
  8
001
 62
     4
370
    30
100
AcDbDimension
  2
*D14
 10
250.422508
 20
247.223847
 30
0.0
 11
247.572508
 21
211.223847
 31
0.0
 70
   160
 71
     5
 42
-1.0
  3
Standard
100
AcDbAlignedDimension
 13
221.502924
 23
175.223847
 33
0.0
 14
221.502924
 24
247.223847
 34
0.0
 50
90.0
100
AcDbRotatedDimension
  0
INSERT
  5
2D0
330
1F
100
AcDbEntity
  8
001
  6
ByBlock
 62
     0
370
    -2
100
AcDbBlockReference
  2
DIM-7
 10
0.0
 20
0.0
 30
0.0
  0
DIMENSION
  5
2D1
330
1F
100
AcDbEntity
  8
001
 62
     4
370
    30
100
AcDbDimension
  2
*D16
 10
89.61134
 20
255.583125
 30
0.0
 11
83.33234
 21
259.003125
 31
0.0
 70
   160
 71
     5
 42
-1.0
  3
Standard
100
AcDbAlignedDimension
 13
95.61134
 23
247.673847
 33
0.0
 14
89.61134
 24
247.673847
 34
0.0
 50
180.0
100
AcDbRotatedDimension
1001
ACAD
1000
DSTYLE
1002
{
1070
    48
1040
0.1
1070
    47
1040
0.2
1070
   284
1070
     8
1070
   272
1070
     1
1070
    71
1070
     1
1002
}
  0
INSERT
  5
2D2
330
1F
100
AcDbEntity
  8
001
  6
ByBlock
 62
     0
370
    -2
100
AcDbBlockReference
  2
DIM-8
 10
0.0
 20
0.0
 30
0.0
  0
TEXT
  5
2D3
330
1F
100
AcDbEntity
  8
001
 62
     4
370
    30
100
AcDbText
 10
66.900933
 20
205.283847
 30
0.0
 40
2.7
  1
７２
 50
90.000003
 41
0.583333
100
AcDbText
  0
TEXT
  5
2D4
330
1F
100
AcDbEntity
  8
001
 62
     4
370
    30
100
AcDbText
 10
66.900933
 20
209.333847
 30
0.0
 40
2.7
  1
ＭＡＸ．
 50
90.000003
 41
0.583333
100
AcDbText
  0
POLYLINE
  5
2D5
330
1F
100
AcDbEntity
  8
001
 62
     4
370
    30
100
AcDb2dPolyline
 66
     1
 10
0.0
 20
0.0
 30
0.0
  0
VERTEX
  5
2D7
330
2D5
100
AcDbEntity
  8
001
 62
     4
370
    30
100
AcDbVertex
100
AcDb2dVertex
 10
68.719768
 20
176.723847
 30
0.0
  0
VERTEX
  5
2D8
330
2D5
100
AcDbEntity
  8
001
 62
     4
370
    30
100
AcDbVertex
100
AcDb2dVertex
 10
68.400933
 20
175.223847
 30
0.0
  0
VERTEX
  5
2D9
330
2D5
100
AcDbEntity
  8
001
 62
     4
370
    30
100
AcDbVertex
100
AcDb2dVertex
 10
68.082098
 20
176.723847
 30
0.0
  0
SEQEND
  5
2D6
330
2D5
100
AcDbEntity
  8
001
370
    30
  0
POLYLINE
  5
2DA
330
1F
100
AcDbEntity
  8
001
 62
     4
370
    30
100
AcDb2dPolyline
 66
     1
 10
0.0
 20
0.0
 30
0.0
  0
VERTEX
  5
2DC
330
2DA
100
AcDbEntity
  8
001
 62
     4
370
    30
100
AcDbVertex
100
AcDb2dVertex
 10
68.082098
 20
245.723847
 30
0.0
  0
VERTEX
  5
2DD
330
2DA
100
AcDbEntity
  8
001
 62
     4
370
    30
100
AcDbVertex
100
AcDb2dVertex
 10
68.400933
 20
247.223847
 30
0.0
  0
VERTEX
  5
2DE
330
2DA
100
AcDbEntity
  8
001
 62
     4
370
    30
100
AcDbVertex
100
AcDb2dVertex
 10
68.719768
 20
245.723847
 30
0.0
  0
SEQEND
  5
2DB
330
2DA
100
AcDbEntity
  8
001
370
    30
  0
LINE
  5
2DF
330
1F
100
AcDbEntity
  8
001
 62
     4
370
    30
100
AcDbLine
 10
68.400933
 20
175.223847
 30
0.0
 11
68.400933
 21
247.223847
 31
0.0
  0
POLYLINE
  5
2E0
330
1F
100
AcDbEntity
  8
001
 62
     4
370
    30
100
AcDb2dPolyline
 66
     1
 10
0.0
 20
0.0
 30
0.0
  0
VERTEX
  5
2E2
330
2E0
100
AcDbEntity
  8
001
 62
     4
370
    30
100
AcDbVertex
100
AcDb2dVertex
 10
80.86134
 20
175.223847
 30
0.0
  0
VERTEX
  5
2E3
330
2E0
100
AcDbEntity
  8
001
 62
     4
370
    30
100
AcDbVertex
100
AcDb2dVertex
 10
68.400933
 20
175.223847
 30
0.0
  0
VERTEX
  5
2E4
330
2E0
100
AcDbEntity
  8
001
 62
     4
370
    30
100
AcDbVertex
100
AcDb2dVertex
 10
66.900933
 20
175.223847
 30
0.0
  0
SEQEND
  5
2E1
330
2E0
100
AcDbEntity
  8
001
370
    30
  0
POLYLINE
  5
2E5
330
1F
100
AcDbEntity
  8
001
 62
     4
370
    30
100
AcDb2dPolyline
 66
     1
 10
0.0
 20
0.0
 30
0.0
  0
VERTEX
  5
2E7
330
2E5
100
AcDbEntity
  8
001
 62
     4
370
    30
100
AcDbVertex
100
AcDb2dVertex
 10
81.36134
 20
247.223847
 30
0.0
  0
VERTEX
  5
2E8
330
2E5
100
AcDbEntity
  8
001
 62
     4
370
    30
100
AcDbVertex
100
AcDb2dVertex
 10
68.400933
 20
247.223847
 30
0.0
  0
VERTEX
  5
2E9
330
2E5
100
AcDbEntity
  8
001
 62
     4
370
    30
100
AcDbVertex
100
AcDb2dVertex
 10
66.900933
 20
247.223847
 30
0.0
  0
SEQEND
  5
2E6
330
2E5
100
AcDbEntity
  8
001
370
    30
  0
DIMENSION
  5
2EA
330
1F
100
AcDbEntity
  8
001
 62
     4
370
    30
100
AcDbDimension
  2
*D18
 10
68.402171
 20
171.223847
 30
0.0
 11
65.552171
 21
173.223847
 31
0.0
 70
   160
 71
     5
 42
-1.0
  3
Standard
100
AcDbAlignedDimension
 13
80.86134
 23
175.223847
 33
0.0
 14
86.61134
 24
171.223847
 34
0.0
 50
270.0
100
AcDbRotatedDimension
  0
TEXT
  5
2EB
330
1F
100
AcDbEntity
  8
001
 62
     4
370
    30
100
AcDbText
 10
86.67134
 20
160.085298
 30
0.0
 40
2.7
  1
２３
 41
0.583333
100
AcDbText
  0
TEXT
  5
2EC
330
1F
100
AcDbEntity
  8
001
 62
     4
370
    30
100
AcDbText
 10
90.72134
 20
160.085298
 30
0.0
 40
2.7
  1
ＭＡＸ．
 41
0.583333
100
AcDbText
  0
POLYLINE
  5
2ED
330
1F
100
AcDbEntity
  8
001
 62
     4
370
    30
100
AcDb2dPolyline
 66
     1
 10
0.0
 20
0.0
 30
0.0
  0
VERTEX
  5
2EF
330
2ED
100
AcDbEntity
  8
001
 62
     4
370
    30
100
AcDbVertex
100
AcDb2dVertex
 10
82.61134
 20
158.266463
 30
0.0
  0
VERTEX
  5
2F0
330
2ED
100
AcDbEntity
  8
001
 62
     4
370
    30
100
AcDbVertex
100
AcDb2dVertex
 10
81.11134
 20
158.585298
 30
0.0
  0
VERTEX
  5
2F1
330
2ED
100
AcDbEntity
  8
001
 62
     4
370
    30
100
AcDbVertex
100
AcDb2dVertex
 10
82.61134
 20
158.904133
 30
0.0
  0
SEQEND
  5
2EE
330
2ED
100
AcDbEntity
  8
001
370
    30
  0
POLYLINE
  5
2F2
330
1F
100
AcDbEntity
  8
001
 62
     4
370
    30
100
AcDb2dPolyline
 66
     1
 10
0.0
 20
0.0
 30
0.0
  0
VERTEX
  5
2F4
330
2F2
100
AcDbEntity
  8
001
 62
     4
370
    30
100
AcDbVertex
100
AcDb2dVertex
 10
102.61134
 20
158.904133
 30
0.0
  0
VERTEX
  5
2F5
330
2F2
100
AcDbEntity
  8
001
 62
     4
370
    30
100
AcDbVertex
100
AcDb2dVertex
 10
104.11134
 20
158.585298
 30
0.0
  0
VERTEX
  5
2F6
330
2F2
100
AcDbEntity
  8
001
 62
     4
370
    30
100
AcDbVertex
100
AcDb2dVertex
 10
102.61134
 20
158.266463
 30
0.0
  0
SEQEND
  5
2F3
330
2F2
100
AcDbEntity
  8
001
370
    30
  0
LINE
  5
2F7
330
1F
100
AcDbEntity
  8
001
 62
     4
370
    30
100
AcDbLine
 10
81.11134
 20
158.585298
 30
0.0
 11
104.11134
 21
158.585298
 31
0.0
  0
POLYLINE
  5
2F8
330
1F
100
AcDbEntity
  8
001
 62
     4
370
    30
100
AcDb2dPolyline
 66
     1
 10
0.0
 20
0.0
 30
0.0
  0
VERTEX
  5
2FA
330
2F8
100
AcDbEntity
  8
001
 62
     4
370
    30
100
AcDbVertex
100
AcDb2dVertex
 10
81.11134
 20
174.973847
 30
0.0
  0
VERTEX
  5
2FB
330
2F8
100
AcDbEntity
  8
001
 62
     4
370
    30
100
AcDbVertex
100
AcDb2dVertex
 10
81.11134
 20
158.585298
 30
0.0
  0
VERTEX
  5
2FC
330
2F8
100
AcDbEntity
  8
001
 62
     4
370
    30
100
AcDbVertex
100
AcDb2dVertex
 10
81.11134
 20
157.085298
 30
0.0
  0
SEQEND
  5
2F9
330
2F8
100
AcDbEntity
  8
001
370
    30
  0
POLYLINE
  5
2FD
330
1F
100
AcDbEntity
  8
001
 62
     4
370
    30
100
AcDb2dPolyline
 66
     1
 10
0.0
 20
0.0
 30
0.0
  0
VERTEX
  5
2FF
330
2FD
100
AcDbEntity
  8
001
 62
     4
370
    30
100
AcDbVertex
100
AcDb2dVertex
 10
104.11134
 20
175.473847
 30
0.0
  0
VERTEX
  5
300
330
2FD
100
AcDbEntity
  8
001
 62
     4
370
    30
100
AcDbVertex
100
AcDb2dVertex
 10
104.11134
 20
158.585298
 30
0.0
  0
VERTEX
  5
301
330
2FD
100
AcDbEntity
  8
001
 62
     4
370
    30
100
AcDbVertex
100
AcDb2dVertex
 10
104.11134
 20
157.085298
 30
0.0
  0
SEQEND
  5
2FE
330
2FD
100
AcDbEntity
  8
001
370
    30
  0
TEXT
  5
302
330
1F
100
AcDbEntity
  8
001
 62
     4
370
    30
100
AcDbText
 10
172.512924
 20
142.52123
 30
0.0
 40
2.7
  1
８７
 41
0.583333
100
AcDbText
  0
TEXT
  5
303
330
1F
100
AcDbEntity
  8
001
 62
     4
370
    30
100
AcDbText
 10
176.562924
 20
142.52123
 30
0.0
 40
2.7
  1
ＭＡＸ．
 41
0.583333
100
AcDbText
  0
POLYLINE
  5
304
330
1F
100
AcDbEntity
  8
001
 62
     4
370
    30
100
AcDb2dPolyline
 66
     1
 10
0.0
 20
0.0
 30
0.0
  0
VERTEX
  5
306
330
304
100
AcDbEntity
  8
001
 62
     4
370
    30
100
AcDbVertex
100
AcDb2dVertex
 10
137.352924
 20
140.702396
 30
0.0
  0
VERTEX
  5
307
330
304
100
AcDbEntity
  8
001
 62
     4
370
    30
100
AcDbVertex
100
AcDb2dVertex
 10
135.852924
 20
141.02123
 30
0.0
  0
VERTEX
  5
308
330
304
100
AcDbEntity
  8
001
 62
     4
370
    30
100
AcDbVertex
100
AcDb2dVertex
 10
137.352924
 20
141.340065
 30
0.0
  0
SEQEND
  5
305
330
304
100
AcDbEntity
  8
001
370
    30
  0
POLYLINE
  5
309
330
1F
100
AcDbEntity
  8
001
 62
     4
370
    30
100
AcDb2dPolyline
 66
     1
 10
0.0
 20
0.0
 30
0.0
  0
VERTEX
  5
30B
330
309
100
AcDbEntity
  8
001
 62
     4
370
    30
100
AcDbVertex
100
AcDb2dVertex
 10
219.552924
 20
141.340065
 30
0.0
  0
VERTEX
  5
30C
330
309
100
AcDbEntity
  8
001
 62
     4
370
    30
100
AcDbVertex
100
AcDb2dVertex
 10
221.052924
 20
141.02123
 30
0.0
  0
VERTEX
  5
30D
330
309
100
AcDbEntity
  8
001
 62
     4
370
    30
100
AcDbVertex
100
AcDb2dVertex
 10
219.552924
 20
140.702396
 30
0.0
  0
SEQEND
  5
30A
330
309
100
AcDbEntity
  8
001
370
    30
  0
LINE
  5
30E
330
1F
100
AcDbEntity
  8
001
 62
     4
370
    30
100
AcDbLine
 10
135.852924
 20
141.02123
 30
0.0
 11
221.052924
 21
141.02123
 31
0.0
  0
POLYLINE
  5
30F
330
1F
100
AcDbEntity
  8
001
 62
     4
370
    30
100
AcDb2dPolyline
 66
     1
 10
0.0
 20
0.0
 30
0.0
  0
VERTEX
  5
311
330
30F
100
AcDbEntity
  8
001
 62
     4
370
    30
100
AcDbVertex
100
AcDb2dVertex
 10
135.852924
 20
221.873847
 30
0.0
  0
VERTEX
  5
312
330
30F
100
AcDbEntity
  8
001
 62
     4
370
    30
100
AcDbVertex
100
AcDb2dVertex
 10
135.852924
 20
141.02123
 30
0.0
  0
VERTEX
  5
313
330
30F
100
AcDbEntity
  8
001
 62
     4
370
    30
100
AcDbVertex
100
AcDb2dVertex
 10
135.852924
 20
139.52123
 30
0.0
  0
SEQEND
  5
310
330
30F
100
AcDbEntity
  8
001
370
    30
  0
POLYLINE
  5
314
330
1F
100
AcDbEntity
  8
001
 62
     4
370
    30
100
AcDb2dPolyline
 66
     1
 10
0.0
 20
0.0
 30
0.0
  0
VERTEX
  5
316
330
314
100
AcDbEntity
  8
001
 62
     4
370
    30
100
AcDbVertex
100
AcDb2dVertex
 10
221.052924
 20
228.473847
 30
0.0
  0
VERTEX
  5
317
330
314
100
AcDbEntity
  8
001
 62
     4
370
    30
100
AcDbVertex
100
AcDb2dVertex
 10
221.052924
 20
141.02123
 30
0.0
  0
VERTEX
  5
318
330
314
100
AcDbEntity
  8
001
 62
     4
370
    30
100
AcDbVertex
100
AcDb2dVertex
 10
221.052924
 20
139.52123
 30
0.0
  0
SEQEND
  5
315
330
314
100
AcDbEntity
  8
001
370
    30
  0
TEXT
  5
319
330
1F
100
AcDbEntity
  8
moji
 62
     2
370
    30
100
AcDbText
 10
285.442992
 20
113.775067
 30
0.0
 40
3.0
  1
材質・色　：　ABS樹脂・グレー
 41
1.0
100
AcDbText
  0
TEXT
  5
31A
330
1F
100
AcDbEntity
  8
moji
 62
     2
370
    30
100
AcDbText
 10
285.442992
 20
143.775067
 30
0.0
 40
3.0
  1
チェック機能　：　無
 41
1.0
100
AcDbText
  0
TEXT
  5
31B
330
1F
100
AcDbEntity
  8
moji
 62
     2
370
    30
100
AcDbText
 10
285.442992
 20
148.775067
 30
0.0
 40
3.0
  1
ブザー設定機能　：　無
 41
1.0
100
AcDbText
  0
TEXT
  5
31C
330
1F
100
AcDbEntity
  8
moji
 62
     2
370
    30
100
AcDbText
 10
285.442992
 20
158.775067
 30
0.0
 40
3.0
  1
警報保持機能　：　無
 41
1.0
100
AcDbText
  0
TEXT
  5
31D
330
1F
100
AcDbEntity
  8
moji
 62
     2
370
    30
100
AcDbText
 10
285.442992
 20
163.775067
 30
0.0
 40
3.0
  1
断線検知機能　：　有
 41
1.0
100
AcDbText
  0
TEXT
  5
31E
330
1F
100
AcDbEntity
  8
moji
 62
     2
370
    30
100
AcDbText
 10
319.842992
 20
223.775067
 30
0.0
 40
3.0
  1
仕　　　　　様
 41
1.0
100
AcDbText
  0
LINE
  5
31F
330
1F
100
AcDbEntity
  8
zubanwaku
370
    30
100
AcDbLine
 10
273.382589
 20
58.959767
 30
0.0
 11
273.382589
 21
22.959767
 31
0.0
  0
LINE
  5
320
330
1F
100
AcDbEntity
  8
zubanwaku
370
    30
100
AcDbLine
 10
273.382589
 20
58.959767
 30
0.0
 11
397.882589
 21
58.959767
 31
0.0
  0
LINE
  5
321
330
1F
100
AcDbEntity
  8
zubanwaku
370
    30
100
AcDbLine
 10
273.382589
 20
49.959767
 30
0.0
 11
397.882589
 21
49.959767
 31
0.0
  0
LINE
  5
322
330
1F
100
AcDbEntity
  8
zubanwaku
370
    30
100
AcDbLine
 10
273.382589
 20
40.959767
 30
0.0
 11
397.882589
 21
40.959767
 31
0.0
  0
LINE
  5
323
330
1F
100
AcDbEntity
  8
zubanwaku
370
    30
100
AcDbLine
 10
273.382589
 20
31.959767
 30
0.0
 11
397.882589
 21
31.959767
 31
0.0
  0
LINE
  5
324
330
1F
100
AcDbEntity
  8
zubanwaku
370
    30
100
AcDbLine
 10
273.382589
 20
22.959767
 30
0.0
 11
397.882589
 21
22.959767
 31
0.0
  0
LINE
  5
325
330
1F
100
AcDbEntity
  8
zubanwaku
370
    30
100
AcDbLine
 10
291.382589
 20
58.959767
 30
0.0
 11
291.382589
 21
31.959767
 31
0.0
  0
LINE
  5
326
330
1F
100
AcDbEntity
  8
zubanwaku
370
    30
100
AcDbLine
 10
360.382589
 20
58.959767
 30
0.0
 11
360.382589
 21
40.959767
 31
0.0
  0
LINE
  5
327
330
1F
100
AcDbEntity
  8
zubanwaku
370
    30
100
AcDbLine
 10
378.382589
 20
58.959767
 30
0.0
 11
378.382589
 21
40.959767
 31
0.0
  0
LINE
  5
328
330
1F
100
AcDbEntity
  8
zubanwaku
370
    30
100
AcDbLine
 10
397.882589
 20
58.959767
 30
0.0
 11
397.882589
 21
22.959767
 31
0.0
  0
LINE
  5
329
330
1F
100
AcDbEntity
  8
zubanwaku
370
    30
100
AcDbLine
 10
282.442992
 20
167.775067
 30
0.0
 11
382.442992
 21
167.775067
 31
0.0
  0
LINE
  5
32A
330
1F
100
AcDbEntity
  8
zubanwaku
370
    30
100
AcDbLine
 10
282.442992
 20
112.775067
 30
0.0
 11
382.442992
 21
112.775067
 31
0.0
  0
LINE
  5
32B
330
1F
100
AcDbEntity
  8
zubanwaku
370
    30
100
AcDbLine
 10
282.442992
 20
172.775067
 30
0.0
 11
382.442992
 21
172.775067
 31
0.0
  0
LINE
  5
32C
330
1F
100
AcDbEntity
  8
zubanwaku
370
    30
100
AcDbLine
 10
282.442992
 20
162.775067
 30
0.0
 11
382.442992
 21
162.775067
 31
0.0
  0
LINE
  5
32D
330
1F
100
AcDbEntity
  8
zubanwaku
370
    30
100
AcDbLine
 10
282.442992
 20
157.775067
 30
0.0
 11
382.442992
 21
157.775067
 31
0.0
  0
LINE
  5
32E
330
1F
100
AcDbEntity
  8
zubanwaku
370
    30
100
AcDbLine
 10
282.442992
 20
152.775067
 30
0.0
 11
382.442992
 21
152.775067
 31
0.0
  0
LINE
  5
32F
330
1F
100
AcDbEntity
  8
zubanwaku
370
    30
100
AcDbLine
 10
282.442992
 20
147.775067
 30
0.0
 11
382.442992
 21
147.775067
 31
0.0
  0
LINE
  5
330
330
1F
100
AcDbEntity
  8
zubanwaku
370
    30
100
AcDbLine
 10
282.442992
 20
142.775067
 30
0.0
 11
382.442992
 21
142.775067
 31
0.0
  0
LINE
  5
331
330
1F
100
AcDbEntity
  8
zubanwaku
370
    30
100
AcDbLine
 10
282.442992
 20
132.775067
 30
0.0
 11
382.442992
 21
132.775067
 31
0.0
  0
LINE
  5
332
330
1F
100
AcDbEntity
  8
zubanwaku
370
    30
100
AcDbLine
 10
282.442992
 20
122.775067
 30
0.0
 11
382.442992
 21
122.775067
 31
0.0
  0
LINE
  5
333
330
1F
100
AcDbEntity
  8
zubanwaku
370
    30
100
AcDbLine
 10
282.442992
 20
117.775067
 30
0.0
 11
382.442992
 21
117.775067
 31
0.0
  0
LINE
  5
334
330
1F
100
AcDbEntity
  8
zubanwaku
370
    30
100
AcDbLine
 10
282.442992
 20
177.775067
 30
0.0
 11
382.442992
 21
177.775067
 31
0.0
  0
LINE
  5
335
330
1F
100
AcDbEntity
  8
zubanwaku
370
    30
100
AcDbLine
 10
282.442992
 20
187.775067
 30
0.0
 11
382.442992
 21
187.775067
 31
0.0
  0
LINE
  5
336
330
1F
100
AcDbEntity
  8
zubanwaku
370
    30
100
AcDbLine
 10
282.442992
 20
192.775067
 30
0.0
 11
382.442992
 21
192.775067
 31
0.0
  0
LINE
  5
337
330
1F
100
AcDbEntity
  8
zubanwaku
370
    30
100
AcDbLine
 10
282.442992
 20
197.775067
 30
0.0
 11
382.442992
 21
197.775067
 31
0.0
  0
LINE
  5
338
330
1F
100
AcDbEntity
  8
zubanwaku
370
    30
100
AcDbLine
 10
282.442992
 20
202.775067
 30
0.0
 11
382.442992
 21
202.775067
 31
0.0
  0
LINE
  5
339
330
1F
100
AcDbEntity
  8
zubanwaku
370
    30
100
AcDbLine
 10
282.442992
 20
207.775067
 30
0.0
 11
382.442992
 21
207.775067
 31
0.0
  0
LINE
  5
33A
330
1F
100
AcDbEntity
  8
zubanwaku
370
    30
100
AcDbLine
 10
282.442992
 20
212.775067
 30
0.0
 11
382.442992
 21
212.775067
 31
0.0
  0
LINE
  5
33B
330
1F
100
AcDbEntity
  8
zubanwaku
370
    30
100
AcDbLine
 10
282.442992
 20
217.775067
 30
0.0
 11
382.442992
 21
217.775067
 31
0.0
  0
LINE
  5
33C
330
1F
100
AcDbEntity
  8
zubanwaku
370
    30
100
AcDbLine
 10
282.442992
 20
222.775067
 30
0.0
 11
382.442992
 21
222.775067
 31
0.0
  0
LINE
  5
33D
330
1F
100
AcDbEntity
  8
zubanwaku
370
    30
100
AcDbLine
 10
282.442992
 20
227.775067
 30
0.0
 11
382.442992
 21
227.775067
 31
0.0
  0
TEXT
  5
33E
330
1F
100
AcDbEntity
  8
zubanmoji
 62
     3
370
    30
100
AcDbText
 10
276.982589
 20
52.209767
 30
0.0
 40
4.5
  1
名称
 41
1.0
100
AcDbText
  0
TEXT
  5
33F
330
1F
100
AcDbEntity
  8
zubanmoji
 62
     3
370
    30
100
AcDbText
 10
294.682589
 20
52.209767
 30
0.0
 40
4.5
  1
漏水検知器　外形寸法図
 41
1.0
100
AcDbText
  0
TEXT
  5
340
330
1F
100
AcDbEntity
  8
zubanmoji
 62
     3
370
    30
100
AcDbText
 10
363.982589
 20
52.209767
 30
0.0
 40
4.5
  1
尺度
 41
1.0
100
AcDbText
  0
TEXT
  5
341
330
1F
100
AcDbEntity
  8
zubanmoji
 62
     3
370
    30
100
AcDbText
 10
276.982589
 20
43.209767
 30
0.0
 40
4.5
  1
型式
 41
1.0
100
AcDbText
  0
TEXT
  5
342
330
1F
100
AcDbEntity
  8
zubanmoji
 62
     3
370
    30
100
AcDbText
 10
363.982589
 20
43.209767
 30
0.0
 40
4.5
  1
単位
 41
1.0
100
AcDbText
  0
TEXT
  5
343
330
1F
100
AcDbEntity
  8
zubanmoji
 62
     3
370
    30
100
AcDbText
 10
382.882589
 20
43.209767
 30
0.0
 40
4.5
  1
mm
100
AcDbText
  0
TEXT
  5
344
330
1F
100
AcDbEntity
  8
zubanmoji
 62
     3
370
    30
100
AcDbText
 10
276.982589
 20
34.209767
 30
0.0
 40
4.5
  1
図番
 41
1.0
100
AcDbText
  0
TEXT
  5
345
330
1F
100
AcDbEntity
  8
zubanmoji
 62
     3
370
    30
100
AcDbText
 10
285.129842
 20
25.941424
 30
0.0
 40
3.0
  1
TATSUTA ELECTRIC WIRE & CABLE CO., LTD.
 41
0.991989
100
AcDbText
  0
LINE
  5
346
330
1F
100
AcDbEntity
  8
zubanmoji
 62
     3
370
    30
100
AcDbLine
 10
382.089562
 20
54.459767
 30
0.0
 11
394.175617
 21
54.459767
 31
0.0
  0
TEXT
  5
347
330
1F
100
AcDbEntity
  8
zubanmoji
 62
     3
370
    30
100
AcDbText
 10
304.882589
 20
43.209767
 30
0.0
 40
4.5
  1
ＡＤ－ＡＳ－１ＤＭ
 41
1.0
100
AcDbText
  0
TEXT
  5
348
330
1F
100
AcDbEntity
  8
zubanmoji
 62
     3
370
    30
100
AcDbText
 10
297.36654
 20
34.209767
 30
0.0
 40
4.5
  1
ＴＳ－ＫＳ－２００４－０
 41
1.0
100
AcDbText
  0
TEXT
  5
349
330
1F
100
AcDbEntity
  8
moji
 62
     2
370
    30
100
AcDbText
 10
285.442992
 20
118.775067
 30
0.0
 40
3.0
  1
重量　：　約８０ｇ
 41
1.086083
100
AcDbText
  0
TEXT
  5
34A
330
1F
100
AcDbEntity
  8
moji
 62
     2
370
    30
100
AcDbText
 10
285.442992
 20
168.775067
 30
0.0
 40
3.0
  1
感度調整　：　有（２／５／８／１２ｋΩ）
 41
1.0
100
AcDbText
  0
TEXT
  5
34B
330
1F
100
AcDbEntity
  8
moji
 62
     2
370
    30
100
AcDbText
 10
285.442992
 20
173.775067
 30
0.0
 40
3.0
  1
消費電力　：　最大３Ｗ以下
 41
1.0
100
AcDbText
  0
TEXT
  5
34C
330
1F
100
AcDbEntity
  8
moji
 62
     2
370
    30
100
AcDbText
 10
285.442992
 20
183.775067
 30
0.0
 40
3.0
  1
制御出力接点負荷　：　ＡＣ１２５Ｖ　０．２Ａ
 41
1.0
100
AcDbText
  0
TEXT
  5
34D
330
1F
100
AcDbEntity
  8
moji
 62
     2
370
    30
100
AcDbText
 10
285.442992
 20
178.775067
 30
0.0
 40
3.0
  1
（抵抗負荷）　　　　　ＤＣ　３０Ｖ　１．０Ａ
 41
1.0
100
AcDbText
  0
TEXT
  5
34E
330
1F
100
AcDbEntity
  8
moji
 62
     2
370
    30
100
AcDbText
 10
285.442992
 20
188.775067
 30
0.0
 40
3.0
  1
制御接点構成　：　漏水１ｃ　ｏｒ　漏水・断線兼用１ｃ
 41
1.0
100
AcDbText
  0
TEXT
  5
34F
330
1F
100
AcDbEntity
  8
moji
 62
     2
370
    30
100
AcDbText
 10
285.442992
 20
193.775067
 30
0.0
 40
3.0
  1
断線警報　：　橙色LEDランプ・点滅
 41
0.957143
100
AcDbText
  0
TEXT
  5
350
330
1F
100
AcDbEntity
  8
moji
 62
     2
370
    30
100
AcDbText
 10
285.442992
 20
198.775067
 30
0.0
 40
3.0
  1
漏水警報　：　橙色LEDランプ・点滅
 41
0.957143
100
AcDbText
  0
TEXT
  5
351
330
1F
100
AcDbEntity
  8
moji
 62
     2
370
    30
100
AcDbText
 10
285.442992
 20
203.775067
 30
0.0
 40
3.0
  1
センサ印加電圧　：　AC5.3V（最大値）
 41
0.938028
100
AcDbText
  0
TEXT
  5
352
330
1F
100
AcDbEntity
  8
moji
 62
     2
370
    30
100
AcDbText
 10
285.442992
 20
208.775067
 30
0.0
 40
3.0
  1
電源電圧　：　ＡＣ２４Ｖ／ＤＣ２４Ｖ　兼用
 41
1.0
100
AcDbText
  0
TEXT
  5
353
330
1F
100
AcDbEntity
  8
moji
 62
     2
370
    30
100
AcDbText
 10
285.442992
 20
213.775067
 30
0.0
 40
3.0
  1
センサ回路数　：　1
 41
1.002907
100
AcDbText
  0
TEXT
  5
354
330
1F
100
AcDbEntity
  8
moji
 62
     2
370
    30
100
AcDbText
 10
285.442992
 20
218.775067
 30
0.0
 40
3.0
  1
型番　：　ＡＤ－ＡＳ－１ＤＭ
 41
1.0
100
AcDbText
  0
TEXT
  5
355
330
1F
100
AcDbEntity
  8
moji
 62
     2
370
    30
100
AcDbText
 10
285.442992
 20
139.025067
 30
0.0
 40
3.0
  1
取付方法　：　ＯＭＲＯＮ製ソケット（型式：ＰＹＦ０８Ａ）
 41
0.916667
100
AcDbText
  0
TEXT
  5
356
330
1F
100
AcDbEntity
  8
moji
 62
     2
370
    30
100
AcDbText
 10
285.442992
 20
133.525067
 30
0.0
 40
3.0
  1
　　　　　　　に取付後ＤＩＮレールに取付
 41
0.916667
100
AcDbText
  0
TEXT
  5
357
330
1F
100
AcDbEntity
  8
moji
 62
     2
370
    30
100
AcDbText
 10
285.442992
 20
129.025067
 30
0.0
 40
3.0
  1
外形寸法　：　（Ｗ）２２×（Ｈ）７６×（Ｄ）８７　リレーソケット
 41
0.75
100
AcDbText
  0
TEXT
  5
358
330
1F
100
AcDbEntity
  8
moji
 62
     2
370
    30
100
AcDbText
 10
285.442992
 20
123.525067
 30
0.0
 40
3.0
  1
　　　　　　　（オムロン製　型式　ＰＹＦ０８Ａ）装着時
 41
0.75
100
AcDbText
  0
CIRCLE
  5
359
330
1F
100
AcDbEntity
  8
sumpo
370
    30
100
AcDbCircle
 10
203.447167
 20
113.70728
 30
0.0
 40
2.25
  0
CIRCLE
  5
35A
330
1F
100
AcDbEntity
  8
sumpo
370
    30
100
AcDbCircle
 10
218.447167
 20
54.70728
 30
0.0
 40
2.25
  0
LINE
  5
35B
330
1F
100
AcDbEntity
  8
moji
  6
CENTER
 62
     2
370
    30
100
AcDbLine
 10
200.424936
 20
113.70728
 30
0.0
 11
220.940982
 21
113.70728
 31
0.0
  0
LINE
  5
35C
330
1F
100
AcDbEntity
  8
moji
  6
CENTER
 62
     2
370
    30
100
AcDbLine
 10
203.447167
 20
117.977428
 30
0.0
 11
203.447167
 21
54.20728
 31
0.0
  0
LINE
  5
35D
330
1F
100
AcDbEntity
  8
moji
  6
CENTER
 62
     2
370
    30
100
AcDbLine
 10
202.947167
 20
54.70728
 30
0.0
 11
222.211897
 21
54.70728
 31
0.0
  0
LINE
  5
35E
330
1F
100
AcDbEntity
  8
moji
  6
CENTER
 62
     2
370
    30
100
AcDbLine
 10
218.447167
 20
117.977428
 30
0.0
 11
218.447167
 21
51.204912
 31
0.0
  0
TEXT
  5
35F
330
1F
100
AcDbEntity
  8
001
 62
     4
370
    30
100
AcDbText
 10
199.023861
 20
31.479572
 30
0.0
 40
2.7
  1
ＭＯＵＮＴＩＮＧ　ＨＯＬＥＳ
 41
0.583333
100
AcDbText
  0
LINE
  5
360
330
1F
100
AcDbEntity
  8
001
370
    30
100
AcDbLine
 10
190.652924
 20
222.473847
 30
0.0
 11
190.652924
 21
199.973847
 31
0.0
  0
LINE
  5
361
330
1F
100
AcDbEntity
  8
gaikei
370
    30
100
AcDbLine
 10
220.952924
 20
171.223847
 30
0.0
 11
217.652924
 21
171.223847
 31
0.0
  0
LINE
  5
362
330
1F
100
AcDbEntity
  8
gaikei
370
    30
100
AcDbLine
 10
220.952924
 20
173.273847
 30
0.0
 11
217.652924
 21
173.273847
 31
0.0
  0
LINE
  5
363
330
1F
100
AcDbEntity
  8
gaikei
370
    30
100
AcDbLine
 10
220.952924
 20
174.773847
 30
0.0
 11
217.652924
 21
174.773847
 31
0.0
  0
LINE
  5
364
330
1F
100
AcDbEntity
  8
gaikei
370
    30
100
AcDbLine
 10
206.052924
 20
175.223847
 30
0.0
 11
221.052924
 21
175.223847
 31
0.0
  0
LINE
  5
365
330
1F
100
AcDbEntity
  8
gaikei
370
    30
100
AcDbLine
 10
221.052924
 20
175.923847
 30
0.0
 11
215.052924
 21
175.923847
 31
0.0
  0
LINE
  5
366
330
1F
100
AcDbEntity
  8
gaikei
370
    30
100
AcDbLine
 10
194.552924
 20
238.723847
 30
0.0
 11
193.052924
 21
237.223847
 31
0.0
  0
LINE
  5
367
330
1F
100
AcDbEntity
  8
gaikei
370
    30
100
AcDbLine
 10
204.552924
 20
245.723847
 30
0.0
 11
206.052924
 21
247.223847
 31
0.0
  0
LINE
  5
368
330
1F
100
AcDbEntity
  8
gaikei
370
    30
100
AcDbLine
 10
193.052924
 20
185.223847
 30
0.0
 11
194.552924
 21
183.723847
 31
0.0
  0
LINE
  5
369
330
1F
100
AcDbEntity
  8
gaikei
370
    30
100
AcDbLine
 10
193.052924
 20
187.223847
 30
0.0
 11
194.552924
 21
185.723847
 31
0.0
  0
LINE
  5
36A
330
1F
100
AcDbEntity
  8
gaikei
370
    30
100
AcDbLine
 10
194.552924
 20
185.723847
 30
0.0
 11
215.052924
 21
185.723847
 31
0.0
  0
LINE
  5
36B
330
1F
100
AcDbEntity
  8
gaikei
370
    30
100
AcDbLine
 10
204.552924
 20
176.723847
 30
0.0
 11
206.052924
 21
175.223847
 31
0.0
  0
LINE
  5
36C
330
1F
100
AcDbEntity
  8
gaikei
370
    30
100
AcDbLine
 10
190.652924
 20
197.223847
 30
0.0
 11
190.652924
 21
225.223847
 31
0.0
  0
LINE
  5
36D
330
1F
100
AcDbEntity
  8
gaikei
370
    30
100
AcDbLine
 10
221.052924
 20
193.523847
 30
0.0
 11
217.652924
 21
193.523847
 31
0.0
  0
LINE
  5
36E
330
1F
100
AcDbEntity
  8
gaikei
370
    30
100
AcDbLine
 10
193.052924
 20
237.223847
 30
0.0
 11
193.052924
 21
235.223847
 31
0.0
  0
LINE
  5
36F
330
1F
100
AcDbEntity
  8
gaikei
370
    30
100
AcDbLine
 10
220.152924
 20
226.923847
 30
0.0
 11
221.052924
 21
228.923847
 31
0.0
  0
LINE
  5
370
330
1F
100
AcDbEntity
  8
gaikei
370
    30
100
AcDbLine
 10
215.052924
 20
175.223847
 30
0.0
 11
215.052924
 21
185.723847
 31
0.0
  0
LINE
  5
371
330
1F
100
AcDbEntity
  8
gaikei
370
    30
100
AcDbLine
 10
217.652924
 20
171.223847
 30
0.0
 11
217.652924
 21
175.223847
 31
0.0
  0
LINE
  5
372
330
1F
100
AcDbEntity
  8
gaikei
370
    30
100
AcDbLine
 10
217.652924
 20
193.523847
 30
0.0
 11
217.652924
 21
228.923847
 31
0.0
  0
LINE
  5
373
330
1F
100
AcDbEntity
  8
gaikei
370
    30
100
AcDbLine
 10
218.752924
 20
228.923847
 30
0.0
 11
218.752924
 21
228.523847
 31
0.0
  0
LINE
  5
374
330
1F
100
AcDbEntity
  8
gaikei
370
    30
100
AcDbLine
 10
220.952924
 20
171.223847
 30
0.0
 11
220.952924
 21
175.223847
 31
0.0
  0
LINE
  5
375
330
1F
100
AcDbEntity
  8
gaikei
370
    30
100
AcDbLine
 10
221.052924
 20
247.223847
 30
0.0
 11
221.052924
 21
228.923847
 31
0.0
  0
LINE
  5
376
330
1F
100
AcDbEntity
  8
gaikei
370
    30
100
AcDbLine
 10
221.052924
 20
193.523847
 30
0.0
 11
221.052924
 21
175.223847
 31
0.0
  0
LINE
  5
377
330
1F
100
AcDbEntity
  8
gaikei
370
    30
100
AcDbLine
 10
220.152924
 20
226.923847
 30
0.0
 11
219.252924
 21
226.923847
 31
0.0
  0
LINE
  5
378
330
1F
100
AcDbEntity
  8
gaikei
370
    30
100
AcDbLine
 10
219.252924
 20
226.923847
 30
0.0
 11
218.752924
 21
228.523847
 31
0.0
  0
LINE
  5
379
330
1F
100
AcDbEntity
  8
gaikei
370
    30
100
AcDbLine
 10
221.052924
 20
228.923847
 30
0.0
 11
217.652924
 21
228.923847
 31
0.0
  0
LINE
  5
37A
330
1F
100
AcDbEntity
  8
gaikei
370
    30
100
AcDbLine
 10
221.052924
 20
247.223847
 30
0.0
 11
206.052924
 21
247.223847
 31
0.0
  0
LINE
  5
37B
330
1F
100
AcDbEntity
  8
gaikei
370
    30
100
AcDbLine
 10
219.352924
 20
194.123847
 30
0.0
 11
217.952924
 21
194.123847
 31
0.0
  0
LINE
  5
37C
330
1F
100
AcDbEntity
  8
gaikei
370
    30
100
AcDbLine
 10
218.852924
 20
195.323847
 30
0.0
 11
219.452924
 21
195.323847
 31
0.0
  0
LINE
  5
37D
330
1F
100
AcDbEntity
  8
gaikei
370
    30
100
AcDbLine
 10
220.802924
 20
193.523847
 30
0.0
 11
219.452924
 21
195.323847
 31
0.0
  0
LINE
  5
37E
330
1F
100
AcDbEntity
  8
gaikei
370
    30
100
AcDbLine
 10
219.352924
 20
194.123847
 30
0.0
 11
219.352924
 21
193.523847
 31
0.0
  0
LINE
  5
37F
330
1F
100
AcDbEntity
  8
gaikei
370
    30
100
AcDbLine
 10
218.852924
 20
195.323847
 30
0.0
 11
218.652924
 21
194.123847
 31
0.0
  0
ARC
  5
380
330
1F
100
AcDbEntity
  8
gaikei
370
    30
100
AcDbCircle
 10
217.952924
 20
193.823847
 30
0.0
 40
0.2999999999999972
100
AcDbArc
 50
90.0
 51
180.0
  0
LINE
  5
381
330
1F
100
AcDbEntity
  8
gaikei
370
    30
100
AcDbLine
 10
204.552924
 20
176.723847
 30
0.0
 11
204.552924
 21
183.723847
 31
0.0
  0
LINE
  5
382
330
1F
100
AcDbEntity
  8
gaikei
370
    30
100
AcDbLine
 10
204.552924
 20
183.723847
 30
0.0
 11
194.552924
 21
183.723847
 31
0.0
  0
LINE
  5
383
330
1F
100
AcDbEntity
  8
gaikei
370
    30
100
AcDbLine
 10
193.052924
 20
185.223847
 30
0.0
 11
193.052924
 21
235.223847
 31
0.0
  0
LINE
  5
384
330
1F
100
AcDbEntity
  8
001
370
    30
100
AcDbLine
 10
190.652924
 20
194.323847
 30
0.0
 11
193.052924
 21
194.323847
 31
0.0
  0
LINE
  5
385
330
1F
100
AcDbEntity
  8
001
370
    30
100
AcDbLine
 10
190.652924
 20
228.123847
 30
0.0
 11
193.052924
 21
228.123847
 31
0.0
  0
LINE
  5
386
330
1F
100
AcDbEntity
  8
gaikei
370
    30
100
AcDbLine
 10
190.652924
 20
194.323847
 30
0.0
 11
190.652924
 21
228.123847
 31
0.0
  0
LINE
  5
387
330
1F
100
AcDbEntity
  8
gaikei
370
    30
100
AcDbLine
 10
190.652924
 20
225.223847
 30
0.0
 11
193.052924
 21
225.223847
 31
0.0
  0
LINE
  5
388
330
1F
100
AcDbEntity
  8
gaikei
370
    30
100
AcDbLine
 10
190.652924
 20
197.223847
 30
0.0
 11
193.052924
 21
197.223847
 31
0.0
  0
LINE
  5
389
330
1F
100
AcDbEntity
  8
gaikei
370
    30
100
AcDbLine
 10
204.552924
 20
238.723847
 30
0.0
 11
204.552924
 21
245.723847
 31
0.0
  0
LINE
  5
38A
330
1F
100
AcDbEntity
  8
gaikei
370
    30
100
AcDbLine
 10
194.552924
 20
238.723847
 30
0.0
 11
204.552924
 21
238.723847
 31
0.0
  0
LINE
  5
38B
330
1F
100
AcDbEntity
  8
moji
  6
CENTER
 62
     2
370
    30
100
AcDbLine
 10
133.604848
 20
211.223847
 30
0.0
 11
225.031043
 21
211.223847
 31
0.0
  0
LINE
  5
38C
330
1F
100
AcDbEntity
  8
001
370
    30
100
AcDbLine
 10
190.652924
 20
196.223847
 30
0.0
 11
182.993776
 21
196.223847
 31
0.0
  0
LINE
  5
38D
330
1F
100
AcDbEntity
  8
001
370
    30
100
AcDbLine
 10
190.652924
 20
225.023847
 30
0.0
 11
137.552924
 21
225.023847
 31
0.0
  0
LINE
  5
38E
330
1F
100
AcDbEntity
  8
001
370
    30
100
AcDbLine
 10
190.652924
 20
197.423847
 30
0.0
 11
137.552924
 21
197.423847
 31
0.0
  0
LINE
  5
38F
330
1F
100
AcDbEntity
  8
001
370
    30
100
AcDbLine
 10
137.552924
 20
197.423847
 30
0.0
 11
137.552924
 21
225.023847
 31
0.0
  0
LINE
  5
390
330
1F
100
AcDbEntity
  8
001
370
    30
100
AcDbLine
 10
137.552924
 20
222.323847
 30
0.0
 11
135.852924
 21
222.323847
 31
0.0
  0
LINE
  5
391
330
1F
100
AcDbEntity
  8
001
370
    30
100
AcDbLine
 10
137.552924
 20
200.123847
 30
0.0
 11
135.852924
 21
200.123847
 31
0.0
  0
LINE
  5
392
330
1F
100
AcDbEntity
  8
001
370
    30
100
AcDbLine
 10
135.852924
 20
200.423847
 30
0.0
 11
137.552924
 21
200.423847
 31
0.0
  0
LINE
  5
393
330
1F
100
AcDbEntity
  8
001
370
    30
100
AcDbLine
 10
135.852924
 20
222.023847
 30
0.0
 11
137.552924
 21
222.023847
 31
0.0
  0
LINE
  5
394
330
1F
100
AcDbEntity
  8
001
370
    30
100
AcDbLine
 10
135.852924
 20
222.323847
 30
0.0
 11
135.852924
 21
222.023847
 31
0.0
  0
LINE
  5
395
330
1F
100
AcDbEntity
  8
001
370
    30
100
AcDbLine
 10
135.852924
 20
200.423847
 30
0.0
 11
135.852924
 21
200.123847
 31
0.0
  0
LINE
  5
396
330
1F
100
AcDbEntity
  8
001
370
    30
100
AcDbLine
 10
190.652924
 20
195.923847
 30
0.0
 11
173.300708
 21
195.923847
 31
0.0
  0
LINE
  5
397
330
1F
100
AcDbEntity
  8
001
370
    30
100
AcDbLine
 10
190.652924
 20
226.223847
 30
0.0
 11
190.652924
 21
226.523847
 31
0.0
  0
LINE
  5
398
330
1F
100
AcDbEntity
  8
001
370
    30
100
AcDbLine
 10
137.279923
 20
225.44426
 30
0.0
 11
137.552924
 21
222.323847
 31
0.0
  0
LINE
  5
399
330
1F
100
AcDbEntity
  8
001
370
    30
100
AcDbLine
 10
137.586935
 20
225.37721
 30
0.0
 11
137.61785
 21
225.023847
 31
0.0
  0
LINE
  5
39A
330
1F
100
AcDbEntity
  8
001
370
    30
100
AcDbLine
 10
137.532802
 20
225.766862
 30
0.0
 11
153.052924
 21
228.173992
 31
0.0
  0
LINE
  5
39B
330
1F
100
AcDbEntity
  8
001
370
    30
100
AcDbLine
 10
137.671228
 20
225.484744
 30
0.0
 11
153.069499
 21
227.872975
 31
0.0
  0
LINE
  5
39C
330
1F
100
AcDbEntity
  8
001
370
    30
100
AcDbLine
 10
190.646348
 20
226.223991
 30
0.0
 11
153.069499
 21
227.872975
 31
0.0
  0
LINE
  5
39D
330
1F
100
AcDbEntity
  8
001
370
    30
100
AcDbLine
 10
190.6595
 20
226.523703
 30
0.0
 11
153.052924
 21
228.173992
 31
0.0
  0
ARC
  5
39E
330
1F
100
AcDbEntity
  8
001
370
    30
100
AcDbCircle
 10
142.252924
 20
226.195353
 30
0.0
 40
1.171506177212066
100
AcDbArc
 50
188.81618
 51
8.81618
  0
ARC
  5
39F
330
1F
100
AcDbEntity
  8
001
370
    30
100
AcDbCircle
 10
137.578781
 20
225.470406
 30
0.0
 40
0.3
100
AcDbArc
 50
98.81618
 51
185.0
  0
ARC
  5
3A0
330
1F
100
AcDbEntity
  8
001
370
    30
100
AcDbCircle
 10
137.686554
 20
225.385926
 30
0.0
 40
0.1
100
AcDbArc
 50
98.81618
 51
185.0
  0
LINE
  5
3A1
330
1F
100
AcDbEntity
  8
001
370
    30
100
AcDbLine
 10
137.552924
 20
200.123847
 30
0.0
 11
135.852924
 21
200.123847
 31
0.0
  0
LINE
  5
3A2
330
1F
100
AcDbEntity
  8
001
370
    30
100
AcDbLine
 10
135.852924
 20
200.423847
 30
0.0
 11
137.552924
 21
200.423847
 31
0.0
  0
LINE
  5
3A3
330
1F
100
AcDbEntity
  8
001
370
    30
100
AcDbLine
 10
137.279923
 20
197.003435
 30
0.0
 11
137.552924
 21
200.123847
 31
0.0
  0
LINE
  5
3A4
330
1F
100
AcDbEntity
  8
001
370
    30
100
AcDbLine
 10
137.586935
 20
197.070484
 30
0.0
 11
137.61785
 21
197.423847
 31
0.0
  0
LINE
  5
3A5
330
1F
100
AcDbEntity
  8
001
370
    30
100
AcDbLine
 10
137.532802
 20
196.680832
 30
0.0
 11
153.052924
 21
194.273703
 31
0.0
  0
LINE
  5
3A6
330
1F
100
AcDbEntity
  8
001
370
    30
100
AcDbLine
 10
137.671228
 20
196.96295
 30
0.0
 11
153.069499
 21
194.574719
 31
0.0
  0
LINE
  5
3A7
330
1F
100
AcDbEntity
  8
001
370
    30
100
AcDbLine
 10
190.646348
 20
196.223703
 30
0.0
 11
153.069499
 21
194.574719
 31
0.0
  0
LINE
  5
3A8
330
1F
100
AcDbEntity
  8
001
370
    30
100
AcDbLine
 10
190.6595
 20
195.923991
 30
0.0
 11
153.052924
 21
194.273703
 31
0.0
  0
ARC
  5
3A9
330
1F
100
AcDbEntity
  8
001
370
    30
100
AcDbCircle
 10
142.252924
 20
196.252341
 30
0.0
 40
1.171506177212066
100
AcDbArc
 50
351.18382
 51
171.18382
  0
ARC
  5
3AA
330
1F
100
AcDbEntity
  8
001
370
    30
100
AcDbCircle
 10
137.578781
 20
196.977288
 30
0.0
 40
0.3
100
AcDbArc
 50
175.0
 51
261.18382
  0
ARC
  5
3AB
330
1F
100
AcDbEntity
  8
001
370
    30
100
AcDbCircle
 10
137.686554
 20
197.061768
 30
0.0
 40
0.1
100
AcDbArc
 50
175.0
 51
261.18382
  0
LINE
  5
3AC
330
1F
100
AcDbEntity
  8
gaikei
370
    30
100
AcDbLine
 10
92.06134
 20
171.223847
 30
0.0
 11
87.06134
 21
171.223847
 31
0.0
  0
LINE
  5
3AD
330
1F
100
AcDbEntity
  8
gaikei
370
    30
100
AcDbLine
 10
81.11134
 20
246.523847
 30
0.0
 11
81.81134
 21
247.223847
 31
0.0
  0
LINE
  5
3AE
330
1F
100
AcDbEntity
  8
gaikei
370
    30
100
AcDbLine
 10
86.06134
 20
173.973847
 30
0.0
 11
87.56134
 21
173.973847
 31
0.0
  0
LINE
  5
3AF
330
1F
100
AcDbEntity
  8
gaikei
370
    30
100
AcDbLine
 10
91.56134
 20
173.973847
 30
0.0
 11
93.06134
 21
173.973847
 31
0.0
  0
LINE
  5
3B0
330
1F
100
AcDbEntity
  8
gaikei
370
    30
100
AcDbLine
 10
93.06134
 20
174.973847
 30
0.0
 11
86.06134
 21
174.973847
 31
0.0
  0
LINE
  5
3B1
330
1F
100
AcDbEntity
  8
gaikei
370
    30
100
AcDbLine
 10
81.31134
 20
175.223847
 30
0.0
 11
103.41134
 21
175.223847
 31
0.0
  0
LINE
  5
3B2
330
1F
100
AcDbEntity
  8
gaikei
370
    30
100
AcDbLine
 10
81.11134
 20
176.723847
 30
0.0
 11
82.61134
 21
176.723847
 31
0.0
  0
LINE
  5
3B3
330
1F
100
AcDbEntity
  8
gaikei
370
    30
100
AcDbLine
 10
88.61134
 20
176.723847
 30
0.0
 11
89.61134
 21
176.723847
 31
0.0
  0
LINE
  5
3B4
330
1F
100
AcDbEntity
  8
gaikei
370
    30
100
AcDbLine
 10
95.61134
 20
176.723847
 30
0.0
 11
96.61134
 21
176.723847
 31
0.0
  0
LINE
  5
3B5
330
1F
100
AcDbEntity
  8
gaikei
370
    30
100
AcDbLine
 10
95.61134
 20
177.223847
 30
0.0
 11
89.61134
 21
177.223847
 31
0.0
  0
LINE
  5
3B6
330
1F
100
AcDbEntity
  8
gaikei
370
    30
100
AcDbLine
 10
88.61134
 20
177.223847
 30
0.0
 11
82.61134
 21
177.223847
 31
0.0
  0
LINE
  5
3B7
330
1F
100
AcDbEntity
  8
gaikei
370
    30
100
AcDbLine
 10
84.36134
 20
172.973847
 30
0.0
 11
87.06134
 21
171.223847
 31
0.0
  0
LINE
  5
3B8
330
1F
100
AcDbEntity
  8
gaikei
370
    30
100
AcDbLine
 10
96.61134
 20
178.723847
 30
0.0
 11
81.11134
 21
178.723847
 31
0.0
  0
LINE
  5
3B9
330
1F
100
AcDbEntity
  8
gaikei
370
    30
100
AcDbLine
 10
81.11134
 20
183.723847
 30
0.0
 11
82.61134
 21
183.723847
 31
0.0
  0
LINE
  5
3BA
330
1F
100
AcDbEntity
  8
gaikei
370
    30
100
AcDbLine
 10
88.61134
 20
183.723847
 30
0.0
 11
89.61134
 21
183.723847
 31
0.0
  0
LINE
  5
3BB
330
1F
100
AcDbEntity
  8
gaikei
370
    30
100
AcDbLine
 10
95.61134
 20
183.723847
 30
0.0
 11
96.61134
 21
183.723847
 31
0.0
  0
LINE
  5
3BC
330
1F
100
AcDbEntity
  8
gaikei
370
    30
100
AcDbLine
 10
82.61134
 20
185.723847
 30
0.0
 11
88.61134
 21
185.723847
 31
0.0
  0
LINE
  5
3BD
330
1F
100
AcDbEntity
  8
gaikei
370
    30
100
AcDbLine
 10
88.61134
 20
186.723847
 30
0.0
 11
82.61134
 21
186.723847
 31
0.0
  0
LINE
  5
3BE
330
1F
100
AcDbEntity
  8
gaikei
370
    30
100
AcDbLine
 10
96.61134
 20
186.723847
 30
0.0
 11
102.61134
 21
186.723847
 31
0.0
  0
LINE
  5
3BF
330
1F
100
AcDbEntity
  8
gaikei
370
    30
100
AcDbLine
 10
81.11134
 20
187.223847
 30
0.0
 11
89.61134
 21
187.223847
 31
0.0
  0
LINE
  5
3C0
330
1F
100
AcDbEntity
  8
gaikei
370
    30
100
AcDbLine
 10
95.61134
 20
187.223847
 30
0.0
 11
104.11134
 21
187.223847
 31
0.0
  0
LINE
  5
3C1
330
1F
100
AcDbEntity
  8
gaikei
370
    30
100
AcDbLine
 10
82.61134
 20
191.923847
 30
0.0
 11
83.151269
 21
191.923847
 31
0.0
  0
LINE
  5
3C2
330
1F
100
AcDbEntity
  8
gaikei
370
    30
100
AcDbLine
 10
102.071412
 20
191.923847
 30
0.0
 11
102.61134
 21
191.923847
 31
0.0
  0
LINE
  5
3C3
330
1F
100
AcDbEntity
  8
gaikei
370
    30
100
AcDbLine
 10
83.21134
 20
193.473847
 30
0.0
 11
84.91134
 21
193.473847
 31
0.0
  0
LINE
  5
3C4
330
1F
100
AcDbEntity
  8
gaikei
370
    30
100
AcDbLine
 10
100.31134
 20
193.473847
 30
0.0
 11
102.01134
 21
193.473847
 31
0.0
  0
LINE
  5
3C5
330
1F
100
AcDbEntity
  8
gaikei
370
    30
100
AcDbLine
 10
88.61134
 20
194.323847
 30
0.0
 11
96.61134
 21
194.323847
 31
0.0
  0
LINE
  5
3C6
330
1F
100
AcDbEntity
  8
gaikei
370
    30
100
AcDbLine
 10
104.11134
 20
194.823847
 30
0.0
 11
102.61134
 21
194.823847
 31
0.0
  0
LINE
  5
3C7
330
1F
100
AcDbEntity
  8
gaikei
370
    30
100
AcDbLine
 10
100.31134
 20
194.823847
 30
0.0
 11
96.61134
 21
194.823847
 31
0.0
  0
LINE
  5
3C8
330
1F
100
AcDbEntity
  8
gaikei
370
    30
100
AcDbLine
 10
88.61134
 20
194.823847
 30
0.0
 11
84.91134
 21
194.823847
 31
0.0
  0
LINE
  5
3C9
330
1F
100
AcDbEntity
  8
gaikei
370
    30
100
AcDbLine
 10
81.11134
 20
194.823847
 30
0.0
 11
82.61134
 21
194.823847
 31
0.0
  0
LINE
  5
3CA
330
1F
100
AcDbEntity
  8
gaikei
370
    30
100
AcDbLine
 10
82.61134
 20
194.823847
 30
0.0
 11
83.71134
 21
194.823847
 31
0.0
  0
LINE
  5
3CB
330
1F
100
AcDbEntity
  8
gaikei
370
    30
100
AcDbLine
 10
101.51134
 20
194.823847
 30
0.0
 11
102.61134
 21
194.823847
 31
0.0
  0
LINE
  5
3CC
330
1F
100
AcDbEntity
  8
gaikei
370
    30
100
AcDbLine
 10
102.61134
 20
196.223847
 30
0.0
 11
100.31134
 21
196.223847
 31
0.0
  0
LINE
  5
3CD
330
1F
100
AcDbEntity
  8
gaikei
370
    30
100
AcDbLine
 10
84.91134
 20
196.223847
 30
0.0
 11
82.61134
 21
196.223847
 31
0.0
  0
LINE
  5
3CE
330
1F
100
AcDbEntity
  8
gaikei
370
    30
100
AcDbLine
 10
81.11134
 20
175.423847
 30
0.0
 11
81.11134
 21
246.523847
 31
0.0
  0
LINE
  5
3CF
330
1F
100
AcDbEntity
  8
gaikei
370
    30
100
AcDbLine
 10
82.61134
 20
236.723847
 30
0.0
 11
82.61134
 21
235.223847
 31
0.0
  0
LINE
  5
3D0
330
1F
100
AcDbEntity
  8
gaikei
370
    30
100
AcDbLine
 10
82.61134
 20
230.523847
 30
0.0
 11
82.61134
 21
226.223847
 31
0.0
  0
LINE
  5
3D1
330
1F
100
AcDbEntity
  8
gaikei
370
    30
100
AcDbLine
 10
82.61134
 20
196.223847
 30
0.0
 11
82.61134
 21
191.923847
 31
0.0
  0
LINE
  5
3D2
330
1F
100
AcDbEntity
  8
gaikei
370
    30
100
AcDbLine
 10
82.61134
 20
175.223847
 30
0.0
 11
82.61134
 21
178.723847
 31
0.0
  0
LINE
  5
3D3
330
1F
100
AcDbEntity
  8
gaikei
370
    30
100
AcDbLine
 10
82.61134
 20
183.723847
 30
0.0
 11
82.61134
 21
187.223847
 31
0.0
  0
LINE
  5
3D4
330
1F
100
AcDbEntity
  8
gaikei
370
    30
100
AcDbLine
 10
82.71134
 20
192.973847
 30
0.0
 11
82.71134
 21
191.923847
 31
0.0
  0
LINE
  5
3D5
330
1F
100
AcDbEntity
  8
gaikei
370
    30
100
AcDbLine
 10
82.71134
 20
229.473847
 30
0.0
 11
82.71134
 21
230.523847
 31
0.0
  0
LINE
  5
3D6
330
1F
100
AcDbEntity
  8
gaikei
370
    30
100
AcDbLine
 10
83.01134
 20
242.080313
 30
0.0
 11
83.01134
 21
239.367381
 31
0.0
  0
LINE
  5
3D7
330
1F
100
AcDbEntity
  8
gaikei
370
    30
100
AcDbLine
 10
83.71134
 20
193.473847
 30
0.0
 11
83.71134
 21
196.223847
 31
0.0
  0
LINE
  5
3D8
330
1F
100
AcDbEntity
  8
gaikei
370
    30
100
AcDbLine
 10
83.71134
 20
226.223847
 30
0.0
 11
83.71134
 21
228.973847
 31
0.0
  0
LINE
  5
3D9
330
1F
100
AcDbEntity
  8
gaikei
370
    30
100
AcDbLine
 10
84.36134
 20
172.973847
 30
0.0
 11
84.36134
 21
175.223847
 31
0.0
  0
LINE
  5
3DA
330
1F
100
AcDbEntity
  8
gaikei
370
    30
100
AcDbLine
 10
84.91134
 20
193.284935
 30
0.0
 11
84.91134
 21
196.223847
 31
0.0
  0
LINE
  5
3DB
330
1F
100
AcDbEntity
  8
gaikei
370
    30
100
AcDbLine
 10
84.91134
 20
226.223847
 30
0.0
 11
84.91134
 21
229.162759
 31
0.0
  0
LINE
  5
3DC
330
1F
100
AcDbEntity
  8
gaikei
370
    30
100
AcDbLine
 10
86.06134
 20
174.973847
 30
0.0
 11
86.06134
 21
173.973847
 31
0.0
  0
LINE
  5
3DD
330
1F
100
AcDbEntity
  8
gaikei
370
    30
100
AcDbLine
 10
87.21134
 20
239.367381
 30
0.0
 11
87.21134
 21
242.080313
 31
0.0
  0
LINE
  5
3DE
330
1F
100
AcDbEntity
  8
gaikei
370
    30
100
AcDbLine
 10
88.61134
 20
175.223847
 30
0.0
 11
88.61134
 21
178.723847
 31
0.0
  0
LINE
  5
3DF
330
1F
100
AcDbEntity
  8
gaikei
370
    30
100
AcDbLine
 10
88.61134
 20
183.723847
 30
0.0
 11
88.61134
 21
187.223847
 31
0.0
  0
LINE
  5
3E0
330
1F
100
AcDbEntity
  8
gaikei
370
    30
100
AcDbLine
 10
88.61134
 20
194.323847
 30
0.0
 11
88.61134
 21
197.223847
 31
0.0
  0
LINE
  5
3E1
330
1F
100
AcDbEntity
  8
gaikei
370
    30
100
AcDbLine
 10
88.61134
 20
225.223847
 30
0.0
 11
88.61134
 21
228.123847
 31
0.0
  0
LINE
  5
3E2
330
1F
100
AcDbEntity
  8
gaikei
370
    30
100
AcDbLine
 10
88.61134
 20
235.223847
 30
0.0
 11
88.61134
 21
247.223847
 31
0.0
  0
LINE
  5
3E3
330
1F
100
AcDbEntity
  8
gaikei
370
    30
100
AcDbLine
 10
89.61134
 20
175.223847
 30
0.0
 11
89.61134
 21
178.723847
 31
0.0
  0
LINE
  5
3E4
330
1F
100
AcDbEntity
  8
gaikei
370
    30
100
AcDbLine
 10
89.61134
 20
183.723847
 30
0.0
 11
89.61134
 21
194.323847
 31
0.0
  0
LINE
  5
3E5
330
1F
100
AcDbEntity
  8
gaikei
370
    30
100
AcDbLine
 10
89.61134
 20
228.123847
 30
0.0
 11
89.61134
 21
238.723847
 31
0.0
  0
LINE
  5
3E6
330
1F
100
AcDbEntity
  8
gaikei
370
    30
100
AcDbLine
 10
89.61134
 20
243.723847
 30
0.0
 11
89.61134
 21
247.223847
 31
0.0
  0
LINE
  5
3E7
330
1F
100
AcDbEntity
  8
gaikei
370
    30
100
AcDbLine
 10
90.28634
 20
227.123847
 30
0.0
 11
90.28634
 21
226.223847
 31
0.0
  0
LINE
  5
3E8
330
1F
100
AcDbEntity
  8
gaikei
370
    30
100
AcDbLine
 10
93.06134
 20
173.973847
 30
0.0
 11
93.06134
 21
174.973847
 31
0.0
  0
LINE
  5
3E9
330
1F
100
AcDbEntity
  8
gaikei
370
    30
100
AcDbLine
 10
94.76134
 20
175.223847
 30
0.0
 11
94.76134
 21
172.973847
 31
0.0
  0
LINE
  5
3EA
330
1F
100
AcDbEntity
  8
gaikei
370
    30
100
AcDbLine
 10
94.93634
 20
195.323847
 30
0.0
 11
94.93634
 21
196.223847
 31
0.0
  0
LINE
  5
3EB
330
1F
100
AcDbEntity
  8
gaikei
370
    30
100
AcDbLine
 10
95.61134
 20
175.223847
 30
0.0
 11
95.61134
 21
178.723847
 31
0.0
  0
LINE
  5
3EC
330
1F
100
AcDbEntity
  8
gaikei
370
    30
100
AcDbLine
 10
95.61134
 20
183.723847
 30
0.0
 11
95.61134
 21
194.323847
 31
0.0
  0
LINE
  5
3ED
330
1F
100
AcDbEntity
  8
gaikei
370
    30
100
AcDbLine
 10
95.61134
 20
228.123847
 30
0.0
 11
95.61134
 21
238.723847
 31
0.0
  0
LINE
  5
3EE
330
1F
100
AcDbEntity
  8
gaikei
370
    30
100
AcDbLine
 10
95.61134
 20
243.723847
 30
0.0
 11
95.61134
 21
247.223847
 31
0.0
  0
LINE
  5
3EF
330
1F
100
AcDbEntity
  8
gaikei
370
    30
100
AcDbLine
 10
96.61134
 20
175.223847
 30
0.0
 11
96.61134
 21
187.223847
 31
0.0
  0
LINE
  5
3F0
330
1F
100
AcDbEntity
  8
gaikei
370
    30
100
AcDbLine
 10
96.61134
 20
194.323847
 30
0.0
 11
96.61134
 21
197.223847
 31
0.0
  0
LINE
  5
3F1
330
1F
100
AcDbEntity
  8
gaikei
370
    30
100
AcDbLine
 10
96.61134
 20
225.223847
 30
0.0
 11
96.61134
 21
228.123847
 31
0.0
  0
LINE
  5
3F2
330
1F
100
AcDbEntity
  8
gaikei
370
    30
100
AcDbLine
 10
96.61134
 20
235.223847
 30
0.0
 11
96.61134
 21
238.723847
 31
0.0
  0
LINE
  5
3F3
330
1F
100
AcDbEntity
  8
gaikei
370
    30
100
AcDbLine
 10
96.61134
 20
243.723847
 30
0.0
 11
96.61134
 21
247.223847
 31
0.0
  0
LINE
  5
3F4
330
1F
100
AcDbEntity
  8
gaikei
370
    30
100
AcDbLine
 10
98.01134
 20
183.080313
 30
0.0
 11
98.01134
 21
180.367381
 31
0.0
  0
LINE
  5
3F5
330
1F
100
AcDbEntity
  8
gaikei
370
    30
100
AcDbLine
 10
100.31134
 20
193.284935
 30
0.0
 11
100.31134
 21
196.223847
 31
0.0
  0
LINE
  5
3F6
330
1F
100
AcDbEntity
  8
gaikei
370
    30
100
AcDbLine
 10
100.31134
 20
226.223847
 30
0.0
 11
100.31134
 21
229.162759
 31
0.0
  0
LINE
  5
3F7
330
1F
100
AcDbEntity
  8
gaikei
370
    30
100
AcDbLine
 10
101.51134
 20
196.223847
 30
0.0
 11
101.51134
 21
193.473847
 31
0.0
  0
LINE
  5
3F8
330
1F
100
AcDbEntity
  8
gaikei
370
    30
100
AcDbLine
 10
101.51134
 20
226.223847
 30
0.0
 11
101.51134
 21
228.973847
 31
0.0
  0
LINE
  5
3F9
330
1F
100
AcDbEntity
  8
gaikei
370
    30
100
AcDbLine
 10
102.21134
 20
180.367381
 30
0.0
 11
102.21134
 21
183.080313
 31
0.0
  0
LINE
  5
3FA
330
1F
100
AcDbEntity
  8
gaikei
370
    30
100
AcDbLine
 10
102.51134
 20
192.973847
 30
0.0
 11
102.51134
 21
191.923847
 31
0.0
  0
LINE
  5
3FB
330
1F
100
AcDbEntity
  8
gaikei
370
    30
100
AcDbLine
 10
102.51134
 20
229.473847
 30
0.0
 11
102.51134
 21
230.523847
 31
0.0
  0
LINE
  5
3FC
330
1F
100
AcDbEntity
  8
gaikei
370
    30
100
AcDbLine
 10
102.61134
 20
185.723847
 30
0.0
 11
102.61134
 21
187.223847
 31
0.0
  0
LINE
  5
3FD
330
1F
100
AcDbEntity
  8
gaikei
370
    30
100
AcDbLine
 10
102.61134
 20
191.923847
 30
0.0
 11
102.61134
 21
196.223847
 31
0.0
  0
LINE
  5
3FE
330
1F
100
AcDbEntity
  8
gaikei
370
    30
100
AcDbLine
 10
102.61134
 20
226.223847
 30
0.0
 11
102.61134
 21
230.523847
 31
0.0
  0
LINE
  5
3FF
330
1F
100
AcDbEntity
  8
gaikei
370
    30
100
AcDbLine
 10
102.61134
 20
235.223847
 30
0.0
 11
102.61134
 21
238.723847
 31
0.0
  0
LINE
  5
400
330
1F
100
AcDbEntity
  8
gaikei
370
    30
100
AcDbLine
 10
102.61134
 20
243.723847
 30
0.0
 11
102.61134
 21
247.223847
 31
0.0
  0
LINE
  5
401
330
1F
100
AcDbEntity
  8
gaikei
370
    30
100
AcDbLine
 10
104.11134
 20
175.923847
 30
0.0
 11
104.11134
 21
247.023847
 31
0.0
  0
LINE
  5
402
330
1F
100
AcDbEntity
  8
gaikei
370
    30
100
AcDbLine
 10
82.61134
 20
226.223847
 30
0.0
 11
84.91134
 21
226.223847
 31
0.0
  0
LINE
  5
403
330
1F
100
AcDbEntity
  8
gaikei
370
    30
100
AcDbLine
 10
100.31134
 20
226.223847
 30
0.0
 11
102.61134
 21
226.223847
 31
0.0
  0
LINE
  5
404
330
1F
100
AcDbEntity
  8
gaikei
370
    30
100
AcDbLine
 10
82.61134
 20
227.623847
 30
0.0
 11
83.71134
 21
227.623847
 31
0.0
  0
LINE
  5
405
330
1F
100
AcDbEntity
  8
gaikei
370
    30
100
AcDbLine
 10
101.51134
 20
227.623847
 30
0.0
 11
102.61134
 21
227.623847
 31
0.0
  0
LINE
  5
406
330
1F
100
AcDbEntity
  8
gaikei
370
    30
100
AcDbLine
 10
81.11134
 20
227.623847
 30
0.0
 11
82.61134
 21
227.623847
 31
0.0
  0
LINE
  5
407
330
1F
100
AcDbEntity
  8
gaikei
370
    30
100
AcDbLine
 10
84.91134
 20
227.623847
 30
0.0
 11
88.61134
 21
227.623847
 31
0.0
  0
LINE
  5
408
330
1F
100
AcDbEntity
  8
gaikei
370
    30
100
AcDbLine
 10
96.61134
 20
227.623847
 30
0.0
 11
100.31134
 21
227.623847
 31
0.0
  0
LINE
  5
409
330
1F
100
AcDbEntity
  8
gaikei
370
    30
100
AcDbLine
 10
102.61134
 20
227.623847
 30
0.0
 11
104.11134
 21
227.623847
 31
0.0
  0
LINE
  5
40A
330
1F
100
AcDbEntity
  8
gaikei
370
    30
100
AcDbLine
 10
88.61134
 20
228.123847
 30
0.0
 11
96.61134
 21
228.123847
 31
0.0
  0
LINE
  5
40B
330
1F
100
AcDbEntity
  8
gaikei
370
    30
100
AcDbLine
 10
83.21134
 20
228.973847
 30
0.0
 11
84.91134
 21
228.973847
 31
0.0
  0
LINE
  5
40C
330
1F
100
AcDbEntity
  8
gaikei
370
    30
100
AcDbLine
 10
100.31134
 20
228.973847
 30
0.0
 11
102.01134
 21
228.973847
 31
0.0
  0
LINE
  5
40D
330
1F
100
AcDbEntity
  8
gaikei
370
    30
100
AcDbLine
 10
82.61134
 20
230.523847
 30
0.0
 11
83.151269
 21
230.523847
 31
0.0
  0
LINE
  5
40E
330
1F
100
AcDbEntity
  8
gaikei
370
    30
100
AcDbLine
 10
102.071412
 20
230.523847
 30
0.0
 11
102.61134
 21
230.523847
 31
0.0
  0
LINE
  5
40F
330
1F
100
AcDbEntity
  8
gaikei
370
    30
100
AcDbLine
 10
104.11134
 20
235.223847
 30
0.0
 11
95.61134
 21
235.223847
 31
0.0
  0
LINE
  5
410
330
1F
100
AcDbEntity
  8
gaikei
370
    30
100
AcDbLine
 10
89.61134
 20
235.223847
 30
0.0
 11
81.11134
 21
235.223847
 31
0.0
  0
LINE
  5
411
330
1F
100
AcDbEntity
  8
gaikei
370
    30
100
AcDbLine
 10
81.11134
 20
236.723847
 30
0.0
 11
88.61134
 21
236.723847
 31
0.0
  0
LINE
  5
412
330
1F
100
AcDbEntity
  8
gaikei
370
    30
100
AcDbLine
 10
89.61134
 20
236.723847
 30
0.0
 11
95.61134
 21
236.723847
 31
0.0
  0
LINE
  5
413
330
1F
100
AcDbEntity
  8
gaikei
370
    30
100
AcDbLine
 10
96.61134
 20
236.723847
 30
0.0
 11
102.61134
 21
236.723847
 31
0.0
  0
LINE
  5
414
330
1F
100
AcDbEntity
  8
gaikei
370
    30
100
AcDbLine
 10
88.61134
 20
237.223847
 30
0.0
 11
89.61134
 21
237.223847
 31
0.0
  0
LINE
  5
415
330
1F
100
AcDbEntity
  8
gaikei
370
    30
100
AcDbLine
 10
95.61134
 20
237.223847
 30
0.0
 11
96.61134
 21
237.223847
 31
0.0
  0
LINE
  5
416
330
1F
100
AcDbEntity
  8
gaikei
370
    30
100
AcDbLine
 10
102.61134
 20
237.223847
 30
0.0
 11
104.11134
 21
237.223847
 31
0.0
  0
LINE
  5
417
330
1F
100
AcDbEntity
  8
gaikei
370
    30
100
AcDbLine
 10
104.11134
 20
175.923847
 30
0.0
 11
103.41134
 21
175.223847
 31
0.0
  0
LINE
  5
418
330
1F
100
AcDbEntity
  8
gaikei
370
    30
100
AcDbLine
 10
92.06134
 20
171.223847
 30
0.0
 11
94.76134
 21
172.973847
 31
0.0
  0
LINE
  5
419
330
1F
100
AcDbEntity
  8
gaikei
370
    30
100
AcDbLine
 10
88.61134
 20
238.723847
 30
0.0
 11
89.61134
 21
238.723847
 31
0.0
  0
LINE
  5
41A
330
1F
100
AcDbEntity
  8
gaikei
370
    30
100
AcDbLine
 10
95.61134
 20
238.723847
 30
0.0
 11
96.61134
 21
238.723847
 31
0.0
  0
LINE
  5
41B
330
1F
100
AcDbEntity
  8
gaikei
370
    30
100
AcDbLine
 10
102.61134
 20
238.723847
 30
0.0
 11
104.11134
 21
238.723847
 31
0.0
  0
LINE
  5
41C
330
1F
100
AcDbEntity
  8
gaikei
370
    30
100
AcDbLine
 10
88.61134
 20
243.723847
 30
0.0
 11
104.11134
 21
243.723847
 31
0.0
  0
LINE
  5
41D
330
1F
100
AcDbEntity
  8
gaikei
370
    30
100
AcDbLine
 10
89.61134
 20
244.223847
 30
0.0
 11
95.61134
 21
244.223847
 31
0.0
  0
LINE
  5
41E
330
1F
100
AcDbEntity
  8
gaikei
370
    30
100
AcDbLine
 10
96.61134
 20
244.223847
 30
0.0
 11
102.61134
 21
244.223847
 31
0.0
  0
LINE
  5
41F
330
1F
100
AcDbEntity
  8
gaikei
370
    30
100
AcDbLine
 10
89.61134
 20
245.223847
 30
0.0
 11
95.61134
 21
245.223847
 31
0.0
  0
LINE
  5
420
330
1F
100
AcDbEntity
  8
gaikei
370
    30
100
AcDbLine
 10
96.61134
 20
245.223847
 30
0.0
 11
102.61134
 21
245.223847
 31
0.0
  0
LINE
  5
421
330
1F
100
AcDbEntity
  8
gaikei
370
    30
100
AcDbLine
 10
88.61134
 20
245.723847
 30
0.0
 11
89.61134
 21
245.723847
 31
0.0
  0
LINE
  5
422
330
1F
100
AcDbEntity
  8
gaikei
370
    30
100
AcDbLine
 10
95.61134
 20
245.723847
 30
0.0
 11
96.61134
 21
245.723847
 31
0.0
  0
LINE
  5
423
330
1F
100
AcDbEntity
  8
gaikei
370
    30
100
AcDbLine
 10
102.61134
 20
245.723847
 30
0.0
 11
104.11134
 21
245.723847
 31
0.0
  0
LINE
  5
424
330
1F
100
AcDbEntity
  8
gaikei
370
    30
100
AcDbLine
 10
81.81134
 20
247.223847
 30
0.0
 11
103.91134
 21
247.223847
 31
0.0
  0
ARC
  5
425
330
1F
100
AcDbEntity
  8
gaikei
370
    30
100
AcDbCircle
 10
83.21134
 20
192.973847
 30
0.0
 40
0.5
100
AcDbArc
 50
90.0
 51
180.0
  0
ARC
  5
426
330
1F
100
AcDbEntity
  8
gaikei
370
    30
100
AcDbCircle
 10
102.01134
 20
192.973847
 30
0.0
 40
0.5
100
AcDbArc
 50
0.0
 51
90.0
  0
ARC
  5
427
330
1F
100
AcDbEntity
  8
gaikei
370
    30
100
AcDbCircle
 10
83.21134
 20
229.473847
 30
0.0
 40
0.5
100
AcDbArc
 50
180.0
 51
270.0
  0
ARC
  5
428
330
1F
100
AcDbEntity
  8
gaikei
370
    30
100
AcDbCircle
 10
102.01134
 20
229.473847
 30
0.0
 40
0.5
100
AcDbArc
 50
270.0
 51
0.0
  0
ARC
  5
429
330
1F
100
AcDbEntity
  8
gaikei
370
    30
100
AcDbCircle
 10
89.56134
 20
173.973847
 30
0.0
 40
2.0
100
AcDbArc
 50
180.0
 51
0.0
  0
ARC
  5
42A
330
1F
100
AcDbEntity
  8
gaikei
370
    30
100
AcDbCircle
 10
85.11134
 20
240.723847
 30
0.0
 40
2.5
100
AcDbArc
 50
32.85988
 51
147.14012
  0
ARC
  5
42B
330
1F
100
AcDbEntity
  8
gaikei
370
    30
100
AcDbCircle
 10
85.11134
 20
240.723847
 30
0.0
 40
2.5
100
AcDbArc
 50
212.85988
 51
327.14012
  0
ARC
  5
42C
330
1F
100
AcDbEntity
  8
gaikei
370
    30
100
AcDbCircle
 10
100.11134
 20
181.723847
 30
0.0
 40
2.5
100
AcDbArc
 50
32.85988
 51
147.14012
  0
ARC
  5
42D
330
1F
100
AcDbEntity
  8
gaikei
370
    30
100
AcDbCircle
 10
100.11134
 20
181.723847
 30
0.0
 40
2.499999999999999
100
AcDbArc
 50
212.85988
 51
327.14012
  0
ARC
  5
42E
330
1F
100
AcDbEntity
  8
gaikei
370
    30
100
AcDbCircle
 10
103.91134
 20
247.023847
 30
0.0
 40
0.2000000000000002
100
AcDbArc
 50
0.0
 51
90.0
  0
ARC
  5
42F
330
1F
100
AcDbEntity
  8
gaikei
370
    30
100
AcDbCircle
 10
81.31134
 20
175.423847
 30
0.0
 40
0.2000000000000028
100
AcDbArc
 50
180.0
 51
270.0
  0
CIRCLE
  5
430
330
1F
100
AcDbEntity
  8
gaikei
370
    30
100
AcDbCircle
 10
92.61134
 20
240.373847
 30
0.0
 40
2.800000000000004
  0
LINE
  5
431
330
1F
100
AcDbEntity
  8
gaikei
370
    30
100
AcDbLine
 10
91.30076
 20
241.684428
 30
0.0
 11
93.921921
 21
239.063266
 31
0.0
  0
LINE
  5
432
330
1F
100
AcDbEntity
  8
gaikei
370
    30
100
AcDbLine
 10
93.921921
 20
241.684428
 30
0.0
 11
91.30076
 21
239.063266
 31
0.0
  0
CIRCLE
  5
433
330
1F
100
AcDbEntity
  8
gaikei
370
    30
100
AcDbCircle
 10
99.61134
 20
240.373847
 30
0.0
 40
2.800000000000004
  0
LINE
  5
434
330
1F
100
AcDbEntity
  8
gaikei
370
    30
100
AcDbLine
 10
98.30076
 20
241.684428
 30
0.0
 11
100.921921
 21
239.063266
 31
0.0
  0
LINE
  5
435
330
1F
100
AcDbEntity
  8
gaikei
370
    30
100
AcDbLine
 10
100.921921
 20
241.684428
 30
0.0
 11
98.30076
 21
239.063266
 31
0.0
  0
CIRCLE
  5
436
330
1F
100
AcDbEntity
  8
gaikei
370
    30
100
AcDbCircle
 10
85.61134
 20
231.873847
 30
0.0
 40
2.800000000000004
  0
LINE
  5
437
330
1F
100
AcDbEntity
  8
gaikei
370
    30
100
AcDbLine
 10
84.30076
 20
233.184428
 30
0.0
 11
86.921921
 21
230.563266
 31
0.0
  0
LINE
  5
438
330
1F
100
AcDbEntity
  8
gaikei
370
    30
100
AcDbLine
 10
86.921921
 20
233.184428
 30
0.0
 11
84.30076
 21
230.563266
 31
0.0
  0
CIRCLE
  5
439
330
1F
100
AcDbEntity
  8
gaikei
370
    30
100
AcDbCircle
 10
99.61134
 20
231.873847
 30
0.0
 40
2.800000000000004
  0
LINE
  5
43A
330
1F
100
AcDbEntity
  8
gaikei
370
    30
100
AcDbLine
 10
98.30076
 20
233.184428
 30
0.0
 11
100.921921
 21
230.563266
 31
0.0
  0
LINE
  5
43B
330
1F
100
AcDbEntity
  8
gaikei
370
    30
100
AcDbLine
 10
100.921921
 20
233.184428
 30
0.0
 11
98.30076
 21
230.563266
 31
0.0
  0
CIRCLE
  5
43C
330
1F
100
AcDbEntity
  8
gaikei
370
    30
100
AcDbCircle
 10
85.61134
 20
190.573847
 30
0.0
 40
2.800000000000004
  0
LINE
  5
43D
330
1F
100
AcDbEntity
  8
gaikei
370
    30
100
AcDbLine
 10
84.30076
 20
191.884428
 30
0.0
 11
86.921921
 21
189.263266
 31
0.0
  0
LINE
  5
43E
330
1F
100
AcDbEntity
  8
gaikei
370
    30
100
AcDbLine
 10
86.921921
 20
191.884428
 30
0.0
 11
84.30076
 21
189.263266
 31
0.0
  0
CIRCLE
  5
43F
330
1F
100
AcDbEntity
  8
gaikei
370
    30
100
AcDbCircle
 10
99.61134
 20
190.573847
 30
0.0
 40
2.800000000000004
  0
LINE
  5
440
330
1F
100
AcDbEntity
  8
gaikei
370
    30
100
AcDbLine
 10
98.30076
 20
191.884428
 30
0.0
 11
100.921921
 21
189.263266
 31
0.0
  0
LINE
  5
441
330
1F
100
AcDbEntity
  8
gaikei
370
    30
100
AcDbLine
 10
100.921921
 20
191.884428
 30
0.0
 11
98.30076
 21
189.263266
 31
0.0
  0
CIRCLE
  5
442
330
1F
100
AcDbEntity
  8
gaikei
370
    30
100
AcDbCircle
 10
85.61134
 20
182.073847
 30
0.0
 40
2.800000000000004
  0
LINE
  5
443
330
1F
100
AcDbEntity
  8
gaikei
370
    30
100
AcDbLine
 10
84.30076
 20
183.384428
 30
0.0
 11
86.921921
 21
180.763266
 31
0.0
  0
LINE
  5
444
330
1F
100
AcDbEntity
  8
gaikei
370
    30
100
AcDbLine
 10
86.921921
 20
183.384428
 30
0.0
 11
84.30076
 21
180.763266
 31
0.0
  0
CIRCLE
  5
445
330
1F
100
AcDbEntity
  8
gaikei
370
    30
100
AcDbCircle
 10
92.61134
 20
182.073847
 30
0.0
 40
2.800000000000004
  0
LINE
  5
446
330
1F
100
AcDbEntity
  8
gaikei
370
    30
100
AcDbLine
 10
91.30076
 20
183.384428
 30
0.0
 11
93.921921
 21
180.763266
 31
0.0
  0
LINE
  5
447
330
1F
100
AcDbEntity
  8
gaikei
370
    30
100
AcDbLine
 10
93.921921
 20
183.384428
 30
0.0
 11
91.30076
 21
180.763266
 31
0.0
  0
LINE
  5
448
330
1F
100
AcDbEntity
  8
gaikei
370
    30
100
AcDbLine
 10
96.61134
 20
235.723847
 30
0.0
 11
102.61134
 21
235.723847
 31
0.0
  0
LINE
  5
449
330
1F
100
AcDbEntity
  8
gaikei
370
    30
100
AcDbLine
 10
82.61134
 20
235.723847
 30
0.0
 11
88.61134
 21
235.723847
 31
0.0
  0
LINE
  5
44A
330
1F
100
AcDbEntity
  8
gaikei
370
    30
100
AcDbLine
 10
88.61134
 20
178.223847
 30
0.0
 11
82.61134
 21
178.223847
 31
0.0
  0
LINE
  5
44B
330
1F
100
AcDbEntity
  8
gaikei
370
    30
100
AcDbLine
 10
95.61134
 20
178.223847
 30
0.0
 11
89.61134
 21
178.223847
 31
0.0
  0
LINE
  5
44C
330
1F
100
AcDbEntity
  8
gaikei
370
    30
100
AcDbLine
 10
96.61134
 20
185.723847
 30
0.0
 11
104.11134
 21
185.723847
 31
0.0
  0
LINE
  5
44D
330
1F
100
AcDbEntity
  8
gaikei
370
    30
100
AcDbLine
 10
89.61134
 20
185.723847
 30
0.0
 11
95.61134
 21
185.723847
 31
0.0
  0
LINE
  5
44E
330
1F
100
AcDbEntity
  8
gaikei
370
    30
100
AcDbLine
 10
96.61134
 20
185.223847
 30
0.0
 11
95.61134
 21
185.223847
 31
0.0
  0
LINE
  5
44F
330
1F
100
AcDbEntity
  8
gaikei
370
    30
100
AcDbLine
 10
89.61134
 20
185.223847
 30
0.0
 11
88.61134
 21
185.223847
 31
0.0
  0
LINE
  5
450
330
1F
100
AcDbEntity
  8
gaikei
370
    30
100
AcDbLine
 10
82.61134
 20
185.223847
 30
0.0
 11
81.11134
 21
185.223847
 31
0.0
  0
LINE
  5
451
330
1F
100
AcDbEntity
  8
moji
  6
CENTER
 62
     2
370
    30
100
AcDbLine
 10
89.56134
 20
170.130553
 30
0.0
 11
89.56134
 21
176.361717
 31
0.0
  0
LINE
  5
452
330
1F
100
AcDbEntity
  8
moji
  6
CENTER
 62
     2
370
    30
100
AcDbLine
 10
80.11134
 20
240.723847
 30
0.0
 11
90.11134
 21
240.723847
 31
0.0
  0
LINE
  5
453
330
1F
100
AcDbEntity
  8
moji
  6
CENTER
 62
     2
370
    30
100
AcDbLine
 10
85.11134
 20
235.723847
 30
0.0
 11
85.11134
 21
245.723847
 31
0.0
  0
LINE
  5
454
330
1F
100
AcDbEntity
  8
moji
  6
CENTER
 62
     2
370
    30
100
AcDbLine
 10
95.11134
 20
181.723847
 30
0.0
 11
105.11134
 21
181.723847
 31
0.0
  0
LINE
  5
455
330
1F
100
AcDbEntity
  8
moji
  6
CENTER
 62
     2
370
    30
100
AcDbLine
 10
100.11134
 20
176.723847
 30
0.0
 11
100.11134
 21
186.723847
 31
0.0
  0
LINE
  5
456
330
1F
100
AcDbEntity
  8
moji
  6
CENTER
 62
     2
370
    30
100
AcDbLine
 10
78.81134
 20
211.223847
 30
0.0
 11
106.91134
 21
211.223847
 31
0.0
  0
TEXT
  5
457
330
1F
100
AcDbEntity
  8
001
 62
     4
370
    30
100
AcDbText
 10
54.470842
 20
257.520875
 30
0.0
 40
2.7
  1
２－４．２ｘ５
 41
0.583333
100
AcDbText
  0
LINE
  5
458
330
1F
100
AcDbEntity
  8
shiyouwaku
370
    30
100
AcDbLine
 10
282.442992
 20
227.775067
 30
0.0
 11
282.442992
 21
112.775067
 31
0.0
  0
LINE
  5
459
330
1F
100
AcDbEntity
  8
shiyouwaku
370
    30
100
AcDbLine
 10
382.442992
 20
227.775067
 30
0.0
 11
382.442992
 21
112.775067
 31
0.0
  0
LINE
  5
45A
330
1F
100
AcDbEntity
  8
gaikei
370
    30
100
AcDbLine
 10
91.91134
 20
226.223847
 30
0.0
 11
90.28634
 21
226.223847
 31
0.0
  0
LINE
  5
45B
330
1F
100
AcDbEntity
  8
gaikei
370
    30
100
AcDbLine
 10
91.91134
 20
227.123847
 30
0.0
 11
90.28634
 21
227.123847
 31
0.0
  0
LINE
  5
45C
330
1F
100
AcDbEntity
  8
001
370
     9
100
AcDbLine
 10
95.958297
 20
225.484744
 30
0.0
 11
92.431445
 21
225.484744
 31
0.0
  0
LINE
  5
45D
330
1F
100
AcDbEntity
  8
gaikei
370
    30
100
AcDbLine
 10
96.41134
 20
225.223847
 30
0.0
 11
104.11134
 21
225.223847
 31
0.0
  0
LINE
  5
45E
330
1F
100
AcDbEntity
  8
gaikei
370
    30
100
AcDbLine
 10
91.91134
 20
225.223847
 30
0.0
 11
81.11134
 21
225.223847
 31
0.0
  0
LINE
  5
45F
330
1F
100
AcDbEntity
  8
001
370
     9
100
AcDbLine
 10
95.958297
 20
222.823847
 30
0.0
 11
92.431445
 21
222.823847
 31
0.0
  0
LINE
  5
460
330
1F
100
AcDbEntity
  8
001
370
    30
100
AcDbLine
 10
96.41134
 20
222.023847
 30
0.0
 11
91.91134
 21
222.023847
 31
0.0
  0
LINE
  5
461
330
1F
100
AcDbEntity
  8
001
370
    30
100
AcDbLine
 10
91.91134
 20
222.023847
 30
0.0
 11
91.91134
 21
228.123847
 31
0.0
  0
LINE
  5
462
330
1F
100
AcDbEntity
  8
001
370
    30
100
AcDbLine
 10
96.41134
 20
222.023847
 30
0.0
 11
96.41134
 21
228.123847
 31
0.0
  0
LINE
  5
463
330
1F
100
AcDbEntity
  8
001
370
    30
100
AcDbLine
 10
96.41134
 20
222.323847
 30
0.0
 11
91.91134
 21
222.323847
 31
0.0
  0
LINE
  5
464
330
1F
100
AcDbEntity
  8
001
370
     9
100
AcDbLine
 10
89.264383
 20
196.96295
 30
0.0
 11
92.791236
 21
196.96295
 31
0.0
  0
LINE
  5
465
330
1F
100
AcDbEntity
  8
001
370
     9
100
AcDbLine
 10
89.264383
 20
199.623847
 30
0.0
 11
92.791236
 21
199.623847
 31
0.0
  0
LINE
  5
466
330
1F
100
AcDbEntity
  8
001
370
    30
100
AcDbLine
 10
88.81134
 20
200.423847
 30
0.0
 11
93.31134
 21
200.423847
 31
0.0
  0
LINE
  5
467
330
1F
100
AcDbEntity
  8
001
370
    30
100
AcDbLine
 10
93.31134
 20
200.423847
 30
0.0
 11
93.31134
 21
194.323847
 31
0.0
  0
LINE
  5
468
330
1F
100
AcDbEntity
  8
001
370
    30
100
AcDbLine
 10
88.81134
 20
200.423847
 30
0.0
 11
88.81134
 21
194.323847
 31
0.0
  0
LINE
  5
469
330
1F
100
AcDbEntity
  8
001
370
    30
100
AcDbLine
 10
88.81134
 20
200.123847
 30
0.0
 11
93.31134
 21
200.123847
 31
0.0
  0
LINE
  5
46A
330
1F
100
AcDbEntity
  8
gaikei
370
    30
100
AcDbLine
 10
93.31134
 20
195.323847
 30
0.0
 11
94.93634
 21
195.323847
 31
0.0
  0
LINE
  5
46B
330
1F
100
AcDbEntity
  8
gaikei
370
    30
100
AcDbLine
 10
94.93634
 20
196.223847
 30
0.0
 11
93.31134
 21
196.223847
 31
0.0
  0
LINE
  5
46C
330
1F
100
AcDbEntity
  8
gaikei
370
    30
100
AcDbLine
 10
93.31134
 20
197.223847
 30
0.0
 11
104.11134
 21
197.223847
 31
0.0
  0
LINE
  5
46D
330
1F
100
AcDbEntity
  8
gaikei
370
    30
100
AcDbLine
 10
88.81134
 20
197.223847
 30
0.0
 11
81.11134
 21
197.223847
 31
0.0
  0
CIRCLE
  5
46E
330
1F
100
AcDbEntity
  8
001
370
    30
100
AcDbCircle
 10
91.11134
 20
216.723847
 30
0.0
 40
1.5
  0
LINE
  5
46F
330
1F
100
AcDbEntity
  8
001
  6
CENTER
 62
     2
370
    30
100
AcDbLine
 10
91.11134
 20
218.723847
 30
0.0
 11
91.11134
 21
214.723847
 31
0.0
  0
LINE
  5
470
330
1F
100
AcDbEntity
  8
001
  6
CENTER
 62
     2
370
    30
100
AcDbLine
 10
89.11134
 20
216.723847
 30
0.0
 11
93.11134
 21
216.723847
 31
0.0
  0
LINE
  5
471
330
1F
100
AcDbEntity
  8
001
370
    30
100
AcDbLine
 10
96.51134
 20
200.423847
 30
0.0
 11
96.51134
 21
212.223847
 31
0.0
  0
LINE
  5
472
330
1F
100
AcDbEntity
  8
001
370
    30
100
AcDbLine
 10
92.11134
 20
200.423847
 30
0.0
 11
92.11134
 21
212.223847
 31
0.0
  0
LINE
  5
473
330
1F
100
AcDbEntity
  8
001
370
    30
100
AcDbLine
 10
96.51134
 20
200.423847
 30
0.0
 11
92.11134
 21
200.423847
 31
0.0
  0
LINE
  5
474
330
1F
100
AcDbEntity
  8
001
370
    30
100
AcDbLine
 10
96.51134
 20
212.223847
 30
0.0
 11
92.11134
 21
212.223847
 31
0.0
  0
LINE
  5
475
330
1F
100
AcDbEntity
  8
001
370
     9
100
AcDbLine
 10
-0.1
 20
0.0
 30
0.0
 11
0.1
 21
0.0
 31
0.0
  0
LINE
  5
476
330
1F
100
AcDbEntity
  8
001
370
     9
100
AcDbLine
 10
0.0
 20
-0.1
 30
0.0
 11
0.0
 21
0.1
 31
0.0
  0
TEXT
  5
477
330
1F
100
AcDbEntity
  8
001
370
     9
100
AcDbText
 10
18.896247
 20
16.937205
 30
0.0
 40
0.1
  1
Ａ３製品図面（田中さんＶｅｒ）
 41
0.291667
100
AcDbText
  0
TEXT
  5
478
330
1F
100
AcDbEntity
  8
001
370
     9
100
AcDbText
 10
18.896247
 20
16.787205
 30
0.0
 40
0.1
  1
’１３．０８．２１
 41
0.291667
100
AcDbText
  0
TEXT
  5
479
330
1F
100
AcDbEntity
  8
001
370
     9
100
AcDbText
 10
18.896247
 20
16.637205
 30
0.0
 40
0.1
  1
００版（平野）
 41
0.291667
100
AcDbText
  0
LINE
  5
47A
330
1F
100
AcDbEntity
  8
001
 62
    40
370
    30
100
AcDbLine
 10
96.41134
 20
130.395386
 30
0.0
 11
96.41134
 21
130.121244
 31
0.0
  0
LINE
  5
47B
330
1F
100
AcDbEntity
  8
001
 62
    40
370
    30
100
AcDbLine
 10
88.81134
 20
114.621244
 30
0.0
 11
93.31134
 21
114.621244
 31
0.0
  0
LINE
  5
47C
330
1F
100
AcDbEntity
  8
001
 62
    40
370
    30
100
AcDbLine
 10
88.81134
 20
130.395386
 30
0.0
 11
88.81134
 21
77.021244
 31
0.0
  0
LINE
  5
47D
330
1F
100
AcDbEntity
  8
001
 62
    40
370
    30
100
AcDbLine
 10
93.31134
 20
130.395386
 30
0.0
 11
93.31134
 21
77.021244
 31
0.0
  0
LINE
  5
47E
330
1F
100
AcDbEntity
  8
001
370
    30
100
AcDbLine
 10
81.11134
 20
130.121244
 30
0.0
 11
88.81134
 21
130.121244
 31
0.0
  0
LINE
  5
47F
330
1F
100
AcDbEntity
  8
001
370
    30
100
AcDbLine
 10
93.31134
 20
130.121244
 30
0.0
 11
104.11134
 21
130.121244
 31
0.0
  0
LINE
  5
480
330
1F
100
AcDbEntity
  8
001
370
    30
100
AcDbLine
 10
104.11134
 20
130.121244
 30
0.0
 11
104.11134
 21
77.021244
 31
0.0
  0
LINE
  5
481
330
1F
100
AcDbEntity
  8
001
370
    30
100
AcDbLine
 10
81.11134
 20
130.121244
 30
0.0
 11
81.11134
 21
77.021244
 31
0.0
  0
LINE
  5
482
330
1F
100
AcDbEntity
  8
gaikei
 62
   253
370
    30
100
AcDbLine
 10
81.11134
 20
50.021244
 30
0.0
 11
104.11134
 21
50.021244
 31
0.0
  0
LINE
  5
483
330
1F
100
AcDbEntity
  8
gaikei
 62
   253
370
    30
100
AcDbLine
 10
81.11134
 20
46.621244
 30
0.0
 11
104.11134
 21
46.621244
 31
0.0
  0
LINE
  5
484
330
1F
100
AcDbEntity
  8
gaikei
 62
   253
370
    30
100
AcDbLine
 10
81.11134
 20
74.621244
 30
0.0
 11
104.11134
 21
74.621244
 31
0.0
  0
LINE
  5
485
330
1F
100
AcDbEntity
  8
gaikei
 62
   253
370
    30
100
AcDbLine
 10
81.11134
 20
77.021244
 30
0.0
 11
104.11134
 21
77.021244
 31
0.0
  0
LINE
  5
486
330
1F
100
AcDbEntity
  8
gaikei
 62
   253
370
    30
100
AcDbLine
 10
81.11134
 20
77.021244
 30
0.0
 11
81.11134
 21
46.621244
 31
0.0
  0
LINE
  5
487
330
1F
100
AcDbEntity
  8
gaikei
 62
   253
370
    30
100
AcDbLine
 10
104.11134
 20
77.021244
 30
0.0
 11
104.11134
 21
46.621244
 31
0.0
  0
ARC
  5
488
330
1F
100
AcDbEntity
  8
001
370
    30
100
AcDbCircle
 10
91.06134
 20
128.689994
 30
0.0
 40
3.03125
100
AcDbArc
 50
42.075022
 51
137.924978
  0
ARC
  5
489
330
1F
100
AcDbEntity
  8
001
370
    30
100
AcDbCircle
 10
94.16134
 20
128.689994
 30
0.0
 40
3.03125
100
AcDbArc
 50
42.075022
 51
120.753142
  0
LINE
  5
48A
330
1F
100
AcDbEntity
  8
001
370
    30
100
AcDbLine
 10
96.41134
 20
130.721244
 30
0.0
 11
96.41134
 21
130.395386
 31
0.0
  0
LINE
  5
48B
330
1F
100
AcDbEntity
  8
001
370
    30
100
AcDbLine
 10
93.31134
 20
130.721244
 30
0.0
 11
93.31134
 21
130.395386
 31
0.0
  0
LINE
  5
48C
330
1F
100
AcDbEntity
  8
001
370
    30
100
AcDbLine
 10
88.81134
 20
130.721244
 30
0.0
 11
88.81134
 21
130.395386
 31
0.0
  0
LINE
  5
48D
330
1F
100
AcDbEntity
  8
001
 62
    40
370
    30
100
AcDbLine
 10
92.926288
 20
130.395386
 30
0.0
 11
89.171437
 21
130.395386
 31
0.0
  0
LINE
  5
48E
330
1F
100
AcDbEntity
  8
001
370
    30
100
AcDbLine
 10
82.11134
 20
50.021244
 30
0.0
 11
82.11134
 21
46.621244
 31
0.0
  0
LINE
  5
48F
330
1F
100
AcDbEntity
  8
001
370
    30
100
AcDbLine
 10
96.11134
 20
50.021244
 30
0.0
 11
96.11134
 21
46.621244
 31
0.0
  0
LINE
  5
490
330
1F
100
AcDbEntity
  8
001
370
    30
100
AcDbLine
 10
94.76134
 20
50.021244
 30
0.0
 11
94.76134
 21
46.621244
 31
0.0
  0
LINE
  5
491
330
1F
100
AcDbEntity
  8
001
370
    30
100
AcDbLine
 10
92.06134
 20
50.021244
 30
0.0
 11
92.06134
 21
46.621244
 31
0.0
  0
LINE
  5
492
330
1F
100
AcDbEntity
  8
001
370
    30
100
AcDbLine
 10
87.06134
 20
50.021244
 30
0.0
 11
87.06134
 21
46.621244
 31
0.0
  0
LINE
  5
493
330
1F
100
AcDbEntity
  8
001
370
    30
100
AcDbLine
 10
84.36134
 20
50.021244
 30
0.0
 11
84.36134
 21
46.621244
 31
0.0
  0
LINE
  5
494
330
1F
100
AcDbEntity
  8
001
370
    30
100
AcDbLine
 10
104.11134
 20
52.621244
 30
0.0
 11
96.11134
 21
52.621244
 31
0.0
  0
LINE
  5
495
330
1F
100
AcDbEntity
  8
001
370
    30
100
AcDbLine
 10
88.11134
 20
53.821244
 30
0.0
 11
82.11134
 21
53.821244
 31
0.0
  0
LINE
  5
496
330
1F
100
AcDbEntity
  8
001
370
    30
100
AcDbLine
 10
89.11134
 20
53.821244
 30
0.0
 11
95.11134
 21
53.821244
 31
0.0
  0
LINE
  5
497
330
1F
100
AcDbEntity
  8
001
370
    30
100
AcDbLine
 10
89.11134
 20
57.121244
 30
0.0
 11
95.11134
 21
57.121244
 31
0.0
  0
LINE
  5
498
330
1F
100
AcDbEntity
  8
001
370
    30
100
AcDbLine
 10
88.11134
 20
57.121244
 30
0.0
 11
82.11134
 21
57.121244
 31
0.0
  0
LINE
  5
499
330
1F
100
AcDbEntity
  8
gaikei
 62
   253
370
    30
100
AcDbLine
 10
88.11134
 20
61.621244
 30
0.0
 11
89.11134
 21
61.621244
 31
0.0
  0
LINE
  5
49A
330
1F
100
AcDbEntity
  8
gaikei
 62
   253
370
    30
100
AcDbLine
 10
82.11134
 20
61.621244
 30
0.0
 11
81.11134
 21
61.621244
 31
0.0
  0
LINE
  5
49B
330
1F
100
AcDbEntity
  8
gaikei
 62
   253
370
    30
100
AcDbLine
 10
96.11134
 20
61.621244
 30
0.0
 11
95.11134
 21
61.621244
 31
0.0
  0
LINE
  5
49C
330
1F
100
AcDbEntity
  8
001
370
    30
100
AcDbLine
 10
92.759765
 20
57.121244
 30
0.0
 11
92.759765
 21
57.377538
 31
0.0
  0
LINE
  5
49D
330
1F
100
AcDbEntity
  8
001
370
    30
100
AcDbLine
 10
92.759765
 20
57.377538
 30
0.0
 11
95.11134
 21
57.121244
 31
0.0
  0
LINE
  5
49E
330
1F
100
AcDbEntity
  8
001
370
    30
100
AcDbLine
 10
91.60675
 20
57.121244
 30
0.0
 11
91.60675
 21
57.377538
 31
0.0
  0
LINE
  5
49F
330
1F
100
AcDbEntity
  8
001
370
    30
100
AcDbLine
 10
91.60675
 20
57.377538
 30
0.0
 11
89.255174
 21
57.121244
 31
0.0
  0
LINE
  5
4A0
330
1F
100
AcDbEntity
  8
001
370
    30
100
AcDbLine
 10
95.11134
 20
58.379882
 30
0.0
 11
94.933257
 21
58.621244
 31
0.0
  0
LINE
  5
4A1
330
1F
100
AcDbEntity
  8
001
370
    30
100
AcDbLine
 10
89.11134
 20
58.239037
 30
0.0
 11
89.433257
 21
58.621244
 31
0.0
  0
LINE
  5
4A2
330
1F
100
AcDbEntity
  8
001
370
    30
100
AcDbLine
 10
85.687848
 20
57.121244
 30
0.0
 11
85.687848
 21
57.377538
 31
0.0
  0
LINE
  5
4A3
330
1F
100
AcDbEntity
  8
001
370
    30
100
AcDbLine
 10
85.687848
 20
57.377538
 30
0.0
 11
88.039423
 21
57.121244
 31
0.0
  0
LINE
  5
4A4
330
1F
100
AcDbEntity
  8
001
370
    30
100
AcDbLine
 10
84.534833
 20
57.121244
 30
0.0
 11
84.534833
 21
57.377538
 31
0.0
  0
LINE
  5
4A5
330
1F
100
AcDbEntity
  8
001
370
    30
100
AcDbLine
 10
84.534833
 20
57.377538
 30
0.0
 11
82.183257
 21
57.121244
 31
0.0
  0
LINE
  5
4A6
330
1F
100
AcDbEntity
  8
001
370
    30
100
AcDbLine
 10
88.11134
 20
58.28241
 30
0.0
 11
87.86134
 21
58.621244
 31
0.0
  0
LINE
  5
4A7
330
1F
100
AcDbEntity
  8
001
370
    30
100
AcDbLine
 10
82.11134
 20
58.324423
 30
0.0
 11
82.36134
 21
58.621244
 31
0.0
  0
LINE
  5
4A8
330
1F
100
AcDbEntity
  8
001
370
    30
100
AcDbLine
 10
88.11134
 20
53.821244
 30
0.0
 11
88.11134
 21
74.621244
 31
0.0
  0
LINE
  5
4A9
330
1F
100
AcDbEntity
  8
001
370
    30
100
AcDbLine
 10
89.11134
 20
74.621244
 30
0.0
 11
89.11134
 21
53.821244
 31
0.0
  0
LINE
  5
4AA
330
1F
100
AcDbEntity
  8
001
370
    30
100
AcDbLine
 10
95.11134
 20
74.621244
 30
0.0
 11
95.11134
 21
53.821244
 31
0.0
  0
LINE
  5
4AB
330
1F
100
AcDbEntity
  8
001
370
    30
100
AcDbLine
 10
96.11134
 20
74.621244
 30
0.0
 11
96.11134
 21
52.621244
 31
0.0
  0
LINE
  5
4AC
330
1F
100
AcDbEntity
  8
001
370
    30
100
AcDbLine
 10
82.11134
 20
74.621244
 30
0.0
 11
82.11134
 21
53.821244
 31
0.0
  0
LINE
  5
4AD
330
1F
100
AcDbEntity
  8
001
370
    30
100
AcDbLine
 10
103.11134
 20
68.621244
 30
0.0
 11
96.11134
 21
68.621244
 31
0.0
  0
LINE
  5
4AE
330
1F
100
AcDbEntity
  8
001
370
    30
100
AcDbLine
 10
88.11134
 20
68.621244
 30
0.0
 11
82.11134
 21
68.621244
 31
0.0
  0
LINE
  5
4AF
330
1F
100
AcDbEntity
  8
001
370
    30
100
AcDbLine
 10
102.61134
 20
68.621244
 30
0.0
 11
96.61134
 21
68.621244
 31
0.0
  0
LINE
  5
4B0
330
1F
100
AcDbEntity
  8
001
370
    30
100
AcDbLine
 10
100.187848
 20
68.621244
 30
0.0
 11
100.187848
 21
68.877538
 31
0.0
  0
LINE
  5
4B1
330
1F
100
AcDbEntity
  8
001
370
    30
100
AcDbLine
 10
100.187848
 20
68.877538
 30
0.0
 11
102.539423
 21
68.621244
 31
0.0
  0
LINE
  5
4B2
330
1F
100
AcDbEntity
  8
001
370
    30
100
AcDbLine
 10
99.034833
 20
68.621244
 30
0.0
 11
99.034833
 21
68.877538
 31
0.0
  0
LINE
  5
4B3
330
1F
100
AcDbEntity
  8
001
370
    30
100
AcDbLine
 10
99.034833
 20
68.877538
 30
0.0
 11
96.683257
 21
68.621244
 31
0.0
  0
LINE
  5
4B4
330
1F
100
AcDbEntity
  8
001
370
    30
100
AcDbLine
 10
88.11134
 20
68.621244
 30
0.0
 11
82.11134
 21
68.621244
 31
0.0
  0
LINE
  5
4B5
330
1F
100
AcDbEntity
  8
001
370
    30
100
AcDbLine
 10
85.687848
 20
68.621244
 30
0.0
 11
85.687848
 21
68.877538
 31
0.0
  0
LINE
  5
4B6
330
1F
100
AcDbEntity
  8
001
370
    30
100
AcDbLine
 10
85.687848
 20
68.877538
 30
0.0
 11
88.039423
 21
68.621244
 31
0.0
  0
LINE
  5
4B7
330
1F
100
AcDbEntity
  8
001
370
    30
100
AcDbLine
 10
84.534833
 20
68.621244
 30
0.0
 11
84.534833
 21
68.877538
 31
0.0
  0
LINE
  5
4B8
330
1F
100
AcDbEntity
  8
001
370
    30
100
AcDbLine
 10
84.534833
 20
68.877538
 30
0.0
 11
82.183257
 21
68.621244
 31
0.0
  0
LINE
  5
4B9
330
1F
100
AcDbEntity
  8
001
370
    30
100
AcDbLine
 10
88.11134
 20
69.78241
 30
0.0
 11
87.86134
 21
70.121244
 31
0.0
  0
LINE
  5
4BA
330
1F
100
AcDbEntity
  8
001
370
    30
100
AcDbLine
 10
82.11134
 20
69.824423
 30
0.0
 11
82.36134
 21
70.121244
 31
0.0
  0
LINE
  5
4BB
330
1F
100
AcDbEntity
  8
001
370
    30
100
AcDbLine
 10
102.851769
 20
69.456549
 30
0.0
 11
102.36134
 21
70.121244
 31
0.0
  0
LINE
  5
4BC
330
1F
100
AcDbEntity
  8
001
370
    30
100
AcDbLine
 10
96.388491
 20
69.559838
 30
0.0
 11
96.86134
 21
70.121244
 31
0.0
  0
LINE
  5
4BD
330
1F
100
AcDbEntity
  8
001
370
    30
100
AcDbLine
 10
102.851769
 20
69.456549
 30
0.0
 11
102.851769
 21
68.621244
 31
0.0
  0
LINE
  5
4BE
330
1F
100
AcDbEntity
  8
001
370
    30
100
AcDbLine
 10
96.388491
 20
69.559838
 30
0.0
 11
96.388491
 21
68.621244
 31
0.0
  0
LINE
  5
4BF
330
1F
100
AcDbEntity
  8
001
370
    30
100
AcDbLine
 10
103.11134
 20
74.621244
 30
0.0
 11
103.11134
 21
64.621244
 31
0.0
  0
LINE
  5
4C0
330
1F
100
AcDbEntity
  8
001
 62
     2
370
     9
100
AcDbLine
 10
102.468223
 20
64.621244
 30
0.0
 11
96.622024
 21
64.621244
 31
0.0
  0
LINE
  5
4C1
330
1F
100
AcDbEntity
  8
gaikei
 62
   253
370
    30
100
AcDbLine
 10
95.11134
 20
63.121244
 30
0.0
 11
96.11134
 21
63.121244
 31
0.0
  0
LINE
  5
4C2
330
1F
100
AcDbEntity
  8
gaikei
 62
   253
370
    30
100
AcDbLine
 10
88.11134
 20
63.121244
 30
0.0
 11
89.11134
 21
63.121244
 31
0.0
  0
LINE
  5
4C3
330
1F
100
AcDbEntity
  8
gaikei
 62
   253
370
    30
100
AcDbLine
 10
82.11134
 20
63.121244
 30
0.0
 11
81.11134
 21
63.121244
 31
0.0
  0
LINE
  5
4C4
330
1F
100
AcDbEntity
  8
001
 62
     2
370
     9
100
AcDbLine
 10
87.445992
 20
64.621244
 30
0.0
 11
82.905675
 21
64.621244
 31
0.0
  0
LINE
  5
4C5
330
1F
100
AcDbEntity
  8
gaikei
 62
   253
370
    30
100
AcDbLine
 10
82.11134
 20
73.121244
 30
0.0
 11
81.11134
 21
73.121244
 31
0.0
  0
LINE
  5
4C6
330
1F
100
AcDbEntity
  8
gaikei
 62
   253
370
    30
100
AcDbLine
 10
89.11134
 20
73.121244
 30
0.0
 11
88.11134
 21
73.121244
 31
0.0
  0
LINE
  5
4C7
330
1F
100
AcDbEntity
  8
gaikei
 62
   253
370
    30
100
AcDbLine
 10
96.11134
 20
73.121244
 30
0.0
 11
95.11134
 21
73.121244
 31
0.0
  0
LINE
  5
4C8
330
1F
100
AcDbEntity
  8
gaikei
 62
   253
370
    30
100
AcDbLine
 10
103.11134
 20
73.121244
 30
0.0
 11
104.11134
 21
73.121244
 31
0.0
  0
TEXT
  5
4C9
330
1F
100
AcDbEntity
  8
moji
 62
     2
370
    30
100
AcDbText
 10
285.442992
 20
153.775067
 30
0.0
 40
3.0
  1
フェールセーフ機能　：　有（スイッチで有無設定可能）
 41
1.0
100
AcDbText
  0
ENDSEC
  0
SECTION
  2
OBJECTS
  0
DICTIONARY
  5
C
330
0
100
AcDbDictionary
281
     1
  3
ACAD_GROUP
350
D
  3
ACAD_LAYOUT
350
1A
  3
ACAD_MLEADERSTYLE
350
4CC
  3
ACAD_MLINESTYLE
350
17
  3
ACAD_PLOTSETTINGS
350
19
  3
ACAD_PLOTSTYLENAME
350
E
  3
ACAD_SCALELIST
350
19C
  3
ACAD_VISUALSTYLE
350
2A
  3
AcDbVariableDictionary
350
4CA
  0
DICTIONARY
  5
D
102
{ACAD_REACTORS
330
C
102
}
330
C
100
AcDbDictionary
281
     1
  0
DICTIONARY
  5
1A
102
{ACAD_REACTORS
330
C
102
}
330
C
100
AcDbDictionary
281
     1
  3
Layout1
350
1E
  3
Layout2
350
26
  3
Model
350
22
  0
DICTIONARY
  5
4CC
102
{ACAD_REACTORS
330
C
102
}
330
C
100
AcDbDictionary
281
     1
  0
DICTIONARY
  5
17
102
{ACAD_REACTORS
330
C
102
}
330
C
100
AcDbDictionary
281
     1
  3
Standard
350
18
  0
DICTIONARY
  5
19
102
{ACAD_REACTORS
330
C
102
}
330
C
100
AcDbDictionary
281
     1
  0
ACDBDICTIONARYWDFLT
  5
E
102
{ACAD_REACTORS
330
C
102
}
330
C
100
AcDbDictionary
281
     1
  3
Normal
350
F
100
AcDbDictionaryWithDefault
340
F
  0
DICTIONARY
  5
19C
102
{ACAD_REACTORS
330
C
102
}
330
C
100
AcDbDictionary
281
     1
  3
A0
350
19D
  3
A1
350
19E
  3
A2
350
19F
  3
A3
350
1A0
  3
A4
350
1A1
  3
A5
350
1A2
  3
A6
350
1A3
  3
A7
350
1A4
  3
A8
350
1A5
  3
A9
350
1A6
  3
B0
350
1A7
  3
B1
350
1A8
  3
B2
350
1A9
  3
B3
350
1AA
  3
B4
350
1AB
  3
B5
350
1AC
  3
B6
350
1AD
  3
B7
350
1AE
  3
B8
350
1AF
  3
B9
350
1B0
  3
C0
350
1B1
  3
C1
350
1B2
  3
C2
350
1B3
  3
C3
350
1B4
  3
C4
350
1B5
  3
C5
350
1B6
  3
C6
350
1B7
  3
C7
350
1B8
  3
C8
350
1B9
  3
C9
350
1BA
  3
D0
350
1BB
  3
D1
350
1BC
  3
D2
350
1BD
  0
DICTIONARY
  5
2A
102
{ACAD_REACTORS
330
C
102
}
330
C
100
AcDbDictionary
281
     1
  3
2dWireframe
350
2F
  3
3D Hidden
350
31
  3
3dWireframe
350
30
  3
Basic
350
32
  3
Brighten
350
36
  3
ColorChange
350
3A
  3
Conceptual
350
34
  3
Dim
350
35
  3
Facepattern
350
39
  3
Flat
350
2B
  3
FlatWithEdges
350
2C
  3
Gouraud
350
2D
  3
GouraudWithEdges
350
2E
  3
Linepattern
350
38
  3
Realistic
350
33
  3
Thicken
350
37
  0
DICTIONARY
  5
4CA
102
{ACAD_REACTORS
330
C
102
}
330
C
100
AcDbDictionary
281
     1
  3
CANNOSCALE
350
4CF
  3
PSOLHEIGHT
350
4CE
  3
PSOLWIDTH
350
4CD
  0
LAYOUT
  5
1E
102
{ACAD_REACTORS
330
1A
102
}
330
1A
100
AcDbPlotSettings
  1

  2
none_device
  4

  6

 40
0.0
 41
0.0
 42
0.0
 43
0.0
 44
0.0
 45
0.0
 46
0.0
 47
0.0
 48
0.0
 49
0.0
140
0.0
141
0.0
142
1.0
143
1.0
 70
   688
 72
     0
 73
     0
 74
     5
  7

 75
    16
147
1.0
148
0.0
149
0.0
100
AcDbLayout
  1
Layout1
 70
     1
 71
     1
 10
0.0
 20
0.0
 11
12.0
 21
9.0
 12
0.0
 22
0.0
 32
0.0
 14
1.000000E+20
 24
1.000000E+20
 34
0.0
 15
-1.000000E+20
 25
-1.000000E+20
 35
0.0
146
0.0
 13
0.0
 23
0.0
 33
0.0
 16
1.0
 26
0.0
 36
0.0
 17
0.0
 27
1.0
 37
0.0
 76
     0
330
1B
  0
LAYOUT
  5
26
102
{ACAD_REACTORS
330
1A
102
}
330
1A
100
AcDbPlotSettings
  1

  2
none_device
  4

  6

 40
0.0
 41
0.0
 42
0.0
 43
0.0
 44
0.0
 45
0.0
 46
0.0
 47
0.0
 48
0.0
 49
0.0
140
0.0
141
0.0
142
1.0
143
1.0
 70
   688
 72
     0
 73
     0
 74
     5
  7

 75
    16
147
1.0
148
0.0
149
0.0
100
AcDbLayout
  1
Layout2
 70
     1
 71
     2
 10
0.0
 20
0.0
 11
0.0
 21
0.0
 12
0.0
 22
0.0
 32
0.0
 14
0.0
 24
0.0
 34
0.0
 15
0.0
 25
0.0
 35
0.0
146
0.0
 13
0.0
 23
0.0
 33
0.0
 16
1.0
 26
0.0
 36
0.0
 17
0.0
 27
1.0
 37
0.0
 76
     0
330
23
  0
LAYOUT
  5
22
102
{ACAD_REACTORS
330
1A
102
}
330
1A
100
AcDbPlotSettings
  1

  2
none_device
  4

  6

 40
0.0
 41
0.0
 42
0.0
 43
0.0
 44
0.0
 45
0.0
 46
0.0
 47
0.0
 48
0.0
 49
0.0
140
0.0
141
0.0
142
1.0
143
1.0
 70
  1712
 72
     0
 73
     0
 74
     0
  7

 75
     0
147
1.0
148
0.0
149
0.0
100
AcDbLayout
  1
Model
 70
     1
 71
     0
 10
0.0
 20
0.0
 11
12.0
 21
9.0
 12
0.0
 22
0.0
 32
0.0
 14
-0.100006
 24
-0.100006
 34
0.0
 15
402.0
 25
285.452606
 35
0.0
146
0.0
 13
0.0
 23
0.0
 33
0.0
 16
1.0
 26
0.0
 36
0.0
 17
0.0
 27
1.0
 37
0.0
 76
     0
330
1F
331
29
  0
MLINESTYLE
  5
18
102
{ACAD_REACTORS
330
17
102
}
330
17
100
AcDbMlineStyle
  2
Standard
 70
     0
  3

 62
   256
 51
90.0
 52
90.0
 71
     2
 49
0.5
 62
   256
  6
BYLAYER
 49
-0.5
 62
   256
  6
BYLAYER
  0
ACDBPLACEHOLDER
  5
F
102
{ACAD_REACTORS
330
E
102
}
330
E
  0
SCALE
  5
19D
102
{ACAD_REACTORS
330
19C
102
}
330
19C
100
AcDbScale
 70
     0
300
1:1
140
1.0
141
1.0
290
     1
  0
SCALE
  5
19E
102
{ACAD_REACTORS
330
19C
102
}
330
19C
100
AcDbScale
 70
     0
300
1:2
140
1.0
141
2.0
290
     0
  0
SCALE
  5
19F
102
{ACAD_REACTORS
330
19C
102
}
330
19C
100
AcDbScale
 70
     0
300
1:4
140
1.0
141
4.0
290
     0
  0
SCALE
  5
1A0
102
{ACAD_REACTORS
330
19C
102
}
330
19C
100
AcDbScale
 70
     0
300
1:5
140
1.0
141
5.0
290
     0
  0
SCALE
  5
1A1
102
{ACAD_REACTORS
330
19C
102
}
330
19C
100
AcDbScale
 70
     0
300
1:8
140
1.0
141
8.0
290
     0
  0
SCALE
  5
1A2
102
{ACAD_REACTORS
330
19C
102
}
330
19C
100
AcDbScale
 70
     0
300
1:10
140
1.0
141
10.0
290
     0
  0
SCALE
  5
1A3
102
{ACAD_REACTORS
330
19C
102
}
330
19C
100
AcDbScale
 70
     0
300
1:16
140
1.0
141
16.0
290
     0
  0
SCALE
  5
1A4
102
{ACAD_REACTORS
330
19C
102
}
330
19C
100
AcDbScale
 70
     0
300
1:20
140
1.0
141
20.0
290
     0
  0
SCALE
  5
1A5
102
{ACAD_REACTORS
330
19C
102
}
330
19C
100
AcDbScale
 70
     0
300
1:30
140
1.0
141
30.0
290
     0
  0
SCALE
  5
1A6
102
{ACAD_REACTORS
330
19C
102
}
330
19C
100
AcDbScale
 70
     0
300
1:40
140
1.0
141
40.0
290
     0
  0
SCALE
  5
1A7
102
{ACAD_REACTORS
330
19C
102
}
330
19C
100
AcDbScale
 70
     0
300
1:50
140
1.0
141
50.0
290
     0
  0
SCALE
  5
1A8
102
{ACAD_REACTORS
330
19C
102
}
330
19C
100
AcDbScale
 70
     0
300
1:100
140
1.0
141
100.0
290
     0
  0
SCALE
  5
1A9
102
{ACAD_REACTORS
330
19C
102
}
330
19C
100
AcDbScale
 70
     0
300
2:1
140
2.0
141
1.0
290
     0
  0
SCALE
  5
1AA
102
{ACAD_REACTORS
330
19C
102
}
330
19C
100
AcDbScale
 70
     0
300
4:1
140
4.0
141
1.0
290
     0
  0
SCALE
  5
1AB
102
{ACAD_REACTORS
330
19C
102
}
330
19C
100
AcDbScale
 70
     0
300
8:1
140
8.0
141
1.0
290
     0
  0
SCALE
  5
1AC
102
{ACAD_REACTORS
330
19C
102
}
330
19C
100
AcDbScale
 70
     0
300
10:1
140
10.0
141
1.0
290
     0
  0
SCALE
  5
1AD
102
{ACAD_REACTORS
330
19C
102
}
330
19C
100
AcDbScale
 70
     0
300
100:1
140
100.0
141
1.0
290
     0
  0
SCALE
  5
1AE
102
{ACAD_REACTORS
330
19C
102
}
330
19C
100
AcDbScale
 70
     0
300
1/128" = 1'-0"
140
0.007812
141
12.0
290
     0
  0
SCALE
  5
1AF
102
{ACAD_REACTORS
330
19C
102
}
330
19C
100
AcDbScale
 70
     0
300
1/64" = 1'-0"
140
0.015625
141
12.0
290
     0
  0
SCALE
  5
1B0
102
{ACAD_REACTORS
330
19C
102
}
330
19C
100
AcDbScale
 70
     0
300
1/32" = 1'-0"
140
0.03125
141
12.0
290
     0
  0
SCALE
  5
1B1
102
{ACAD_REACTORS
330
19C
102
}
330
19C
100
AcDbScale
 70
     0
300
1/16" = 1'-0"
140
0.0625
141
12.0
290
     0
  0
SCALE
  5
1B2
102
{ACAD_REACTORS
330
19C
102
}
330
19C
100
AcDbScale
 70
     0
300
3/32" = 1'-0"
140
0.09375
141
12.0
290
     0
  0
SCALE
  5
1B3
102
{ACAD_REACTORS
330
19C
102
}
330
19C
100
AcDbScale
 70
     0
300
1/8" = 1'-0"
140
0.125
141
12.0
290
     0
  0
SCALE
  5
1B4
102
{ACAD_REACTORS
330
19C
102
}
330
19C
100
AcDbScale
 70
     0
300
3/16" = 1'-0"
140
0.1875
141
12.0
290
     0
  0
SCALE
  5
1B5
102
{ACAD_REACTORS
330
19C
102
}
330
19C
100
AcDbScale
 70
     0
300
1/4" = 1'-0"
140
0.25
141
12.0
290
     0
  0
SCALE
  5
1B6
102
{ACAD_REACTORS
330
19C
102
}
330
19C
100
AcDbScale
 70
     0
300
3/8" = 1'-0"
140
0.375
141
12.0
290
     0
  0
SCALE
  5
1B7
102
{ACAD_REACTORS
330
19C
102
}
330
19C
100
AcDbScale
 70
     0
300
1/2" = 1'-0"
140
0.5
141
12.0
290
     0
  0
SCALE
  5
1B8
102
{ACAD_REACTORS
330
19C
102
}
330
19C
100
AcDbScale
 70
     0
300
3/4" = 1'-0"
140
0.75
141
12.0
290
     0
  0
SCALE
  5
1B9
102
{ACAD_REACTORS
330
19C
102
}
330
19C
100
AcDbScale
 70
     0
300
1" = 1'-0"
140
1.0
141
12.0
290
     0
  0
SCALE
  5
1BA
102
{ACAD_REACTORS
330
19C
102
}
330
19C
100
AcDbScale
 70
     0
300
1-1/2" = 1'-0"
140
1.5
141
12.0
290
     0
  0
SCALE
  5
1BB
102
{ACAD_REACTORS
330
19C
102
}
330
19C
100
AcDbScale
 70
     0
300
3" = 1'-0"
140
3.0
141
12.0
290
     0
  0
SCALE
  5
1BC
102
{ACAD_REACTORS
330
19C
102
}
330
19C
100
AcDbScale
 70
     0
300
6" = 1'-0"
140
6.0
141
12.0
290
     0
  0
SCALE
  5
1BD
102
{ACAD_REACTORS
330
19C
102
}
330
19C
100
AcDbScale
 70
     0
300
1'-0" = 1'-0"
140
12.0
141
12.0
290
     0
  0
VISUALSTYLE
  5
2F
102
{ACAD_REACTORS
330
2A
102
}
330
2A
100
AcDbVisualStyle
  2
2dWireframe
 70
     4
 71
     0
 72
     2
 73
     0
 90
        0
 40
-0.6
 41
-30.0
 62
     5
 63
     7
 74
     1
 91
        4
 64
     7
 65
   257
 75
     1
175
     1
 42
1.0
 92
        0
 66
   257
 43
1.0
 76
     1
 77
     6
 78
     2
 67
     7
 79
     5
170
     0
171
     0
290
     0
174
     0
 93
        1
 44
0.0
173
     0
291
     0
 45
0.0
1001
ACAD
1000
AcDbSavedByObjectVersion
1070
     0
  0
VISUALSTYLE
  5
31
102
{ACAD_REACTORS
330
2A
102
}
330
2A
100
AcDbVisualStyle
  2
3D Hidden
 70
     6
 71
     1
 72
     2
 73
     2
 90
        0
 40
-0.6
 41
-30.0
 62
     5
 63
     7
 74
     2
 91
        2
 64
     7
 65
   257
 75
     2
175
     1
 42
40.0
 92
        0
 66
   257
 43
1.0
 76
     1
 77
     6
 78
     2
 67
     7
 79
     3
170
     0
171
     0
290
     0
174
     0
 93
        1
 44
0.0
173
     0
291
     0
 45
0.0
1001
ACAD
1000
AcDbSavedByObjectVersion
1070
     0
  0
VISUALSTYLE
  5
30
102
{ACAD_REACTORS
330
2A
102
}
330
2A
100
AcDbVisualStyle
  2
3dWireframe
 70
     5
 71
     0
 72
     2
 73
     0
 90
        0
 40
-0.6
 41
-30.0
 62
     5
 63
     7
 74
     1
 91
        4
 64
     7
 65
   257
 75
     1
175
     1
 42
1.0
 92
        0
 66
   257
 43
1.0
 76
     1
 77
     6
 78
     2
 67
     7
 79
     5
170
     0
171
     0
290
     0
174
     0
 93
        1
 44
0.0
173
     0
291
     0
 45
0.0
1001
ACAD
1000
AcDbSavedByObjectVersion
1070
     0
  0
VISUALSTYLE
  5
32
102
{ACAD_REACTORS
330
2A
102
}
330
2A
100
AcDbVisualStyle
  2
Basic
 70
     7
 71
     1
 72
     0
 73
     1
 90
        0
 40
-0.6
 41
-30.0
 62
     5
 63
     7
 74
     0
 91
        4
 64
     7
 65
   257
 75
     1
175
     1
 42
1.0
 92
        8
 66
     7
 43
1.0
 76
     1
 77
     6
 78
     2
 67
     7
 79
     5
170
     0
171
     0
290
     0
174
     0
 93
        1
 44
0.0
173
     0
291
     1
 45
0.0
1001
ACAD
1000
AcDbSavedByObjectVersion
1070
     0
  0
VISUALSTYLE
  5
36
102
{ACAD_REACTORS
330
2A
102
}
330
2A
100
AcDbVisualStyle
  2
Brighten
 70
    12
 71
     2
 72
     2
 73
     0
 90
        0
 40
-0.6
 41
-30.0
 62
     5
 63
     7
 74
     1
 91
        4
 64
     7
 65
   257
 75
     1
175
     1
 42
1.0
 92
        8
 66
     7
 43
1.0
 76
     1
 77
     6
 78
     2
 67
     7
 79
     5
170
     0
171
     0
290
     0
174
     0
 93
        1
 44
50.0
173
     0
291
     1
 45
0.0
1001
ACAD
1000
AcDbSavedByObjectVersion
1070
     0
  0
VISUALSTYLE
  5
3A
102
{ACAD_REACTORS
330
2A
102
}
330
2A
100
AcDbVisualStyle
  2
ColorChange
 70
    16
 71
     2
 72
     2
 73
     3
 90
        0
 40
-0.6
 41
-30.0
 62
     5
 63
     8
 74
     1
 91
        4
 64
     7
 65
   257
 75
     1
175
     1
 42
1.0
 92
        8
 66
     8
 43
1.0
 76
     1
 77
     6
 78
     2
 67
     7
 79
     5
170
     0
171
     0
290
     0
174
     0
 93
        1
 44
0.0
173
     0
291
     1
 45
0.0
1001
ACAD
1000
AcDbSavedByObjectVersion
1070
     0
  0
VISUALSTYLE
  5
34
102
{ACAD_REACTORS
330
2A
102
}
330
2A
100
AcDbVisualStyle
  2
Conceptual
 70
     9
 71
     3
 72
     2
 73
     0
 90
        0
 40
-0.6
 41
-30.0
 62
     5
 63
     7
 74
     2
 91
        2
 64
     7
 65
   257
 75
     1
175
     1
 42
40.0
 92
        8
 66
     7
 43
1.0
 76
     1
 77
     6
 78
     2
 67
     7
 79
     3
170
     0
171
     0
290
     0
174
     0
 93
        1
 44
0.0
173
     0
291
     0
 45
0.0
1001
ACAD
1000
AcDbSavedByObjectVersion
1070
     0
  0
VISUALSTYLE
  5
35
102
{ACAD_REACTORS
330
2A
102
}
330
2A
100
AcDbVisualStyle
  2
Dim
 70
    11
 71
     2
 72
     2
 73
     0
 90
        0
 40
-0.6
 41
-30.0
 62
     5
 63
     7
 74
     1
 91
        4
 64
     7
 65
   257
 75
     1
175
     1
 42
1.0
 92
        8
 66
     7
 43
1.0
 76
     1
 77
     6
 78
     2
 67
     7
 79
     5
170
     0
171
     0
290
     0
174
     0
 93
        1
 44
-50.0
173
     0
291
     1
 45
0.0
1001
ACAD
1000
AcDbSavedByObjectVersion
1070
     0
  0
VISUALSTYLE
  5
39
102
{ACAD_REACTORS
330
2A
102
}
330
2A
100
AcDbVisualStyle
  2
Facepattern
 70
    15
 71
     2
 72
     2
 73
     0
 90
        0
 40
-0.6
 41
-30.0
 62
     5
 63
     7
 74
     1
 91
        4
 64
     7
 65
   257
 75
     1
175
     1
 42
1.0
 92
        8
 66
     7
 43
1.0
 76
     1
 77
     6
 78
     2
 67
     7
 79
     5
170
     0
171
     0
290
     0
174
     0
 93
        1
 44
0.0
173
     0
291
     1
 45
0.0
1001
ACAD
1000
AcDbSavedByObjectVersion
1070
     0
  0
VISUALSTYLE
  5
2B
102
{ACAD_REACTORS
330
2A
102
}
330
2A
100
AcDbVisualStyle
  2
Flat
 70
     0
 71
     2
 72
     1
 73
     1
 90
        2
 40
-0.6
 41
30.0
 62
     5
 63
     7
 74
     0
 91
        4
 64
     7
 65
   257
 75
     1
175
     1
 42
1.0
 92
        8
 66
     7
 43
1.0
 76
     1
 77
     6
 78
     2
 67
     7
 79
     5
170
     0
171
     0
290
     0
174
     0
 93
       13
 44
0.0
173
     0
291
     1
 45
0.0
1001
ACAD
1000
AcDbSavedByObjectVersion
1070
     0
  0
VISUALSTYLE
  5
2C
102
{ACAD_REACTORS
330
2A
102
}
330
2A
100
AcDbVisualStyle
  2
FlatWithEdges
 70
     1
 71
     2
 72
     1
 73
     1
 90
        2
 40
-0.6
 41
30.0
 62
     5
 63
     7
 74
     1
 91
        4
 64
     7
 65
   257
 75
     1
175
     1
 42
1.0
 92
        0
 66
   257
 43
1.0
 76
     1
 77
     6
 78
     2
 67
     7
 79
     5
170
     0
171
     0
290
     0
174
     0
 93
       13
 44
0.0
173
     0
291
     1
 45
0.0
1001
ACAD
1000
AcDbSavedByObjectVersion
1070
     0
  0
VISUALSTYLE
  5
2D
102
{ACAD_REACTORS
330
2A
102
}
330
2A
100
AcDbVisualStyle
  2
Gouraud
 70
     2
 71
     2
 72
     2
 73
     1
 90
        2
 40
-0.6
 41
30.0
 62
     5
 63
     7
 74
     0
 91
        4
 64
     7
 65
   257
 75
     1
175
     1
 42
1.0
 92
        0
 66
     7
 43
1.0
 76
     1
 77
     6
 78
     2
 67
     7
 79
     5
170
     0
171
     0
290
     0
174
     0
 93
       13
 44
0.0
173
     0
291
     1
 45
0.0
1001
ACAD
1000
AcDbSavedByObjectVersion
1070
     0
  0
VISUALSTYLE
  5
2E
102
{ACAD_REACTORS
330
2A
102
}
330
2A
100
AcDbVisualStyle
  2
GouraudWithEdges
 70
     3
 71
     2
 72
     2
 73
     1
 90
        2
 40
-0.6
 41
30.0
 62
     5
 63
     7
 74
     1
 91
        4
 64
     7
 65
   257
 75
     1
175
     1
 42
1.0
 92
        0
 66
   257
 43
1.0
 76
     1
 77
     6
 78
     2
 67
     7
 79
     5
170
     0
171
     0
290
     0
174
     0
 93
       13
 44
0.0
173
     0
291
     1
 45
0.0
1001
ACAD
1000
AcDbSavedByObjectVersion
1070
     0
  0
VISUALSTYLE
  5
38
102
{ACAD_REACTORS
330
2A
102
}
330
2A
100
AcDbVisualStyle
  2
Linepattern
 70
    14
 71
     2
 72
     2
 73
     0
 90
        0
 40
-0.6
 41
-30.0
 62
     5
 63
     7
 74
     1
 91
        4
 64
     7
 65
   257
 75
     7
175
     7
 42
1.0
 92
        8
 66
     7
 43
1.0
 76
     1
 77
     6
 78
     2
 67
     7
 79
     5
170
     0
171
     0
290
     0
174
     0
 93
        1
 44
0.0
173
     0
291
     1
 45
0.0
1001
ACAD
1000
AcDbSavedByObjectVersion
1070
     0
  0
VISUALSTYLE
  5
33
102
{ACAD_REACTORS
330
2A
102
}
330
2A
100
AcDbVisualStyle
  2
Realistic
 70
     8
 71
     2
 72
     2
 73
     0
 90
        0
 40
-0.6
 41
-30.0
 62
     5
 63
     7
 74
     1
 91
        0
 64
     7
 65
   257
 75
     1
175
     1
 42
1.0
 92
        8
 66
     8
 43
1.0
 76
     1
 77
     6
 78
     2
 67
     7
 79
     5
170
     0
171
     0
290
     0
174
     0
 93
       13
 44
0.0
173
     0
291
     0
 45
0.0
1001
ACAD
1000
AcDbSavedByObjectVersion
1070
     0
  0
VISUALSTYLE
  5
37
102
{ACAD_REACTORS
330
2A
102
}
330
2A
100
AcDbVisualStyle
  2
Thicken
 70
    13
 71
     2
 72
     2
 73
     0
 90
        0
 40
-0.6
 41
-30.0
 62
     5
 63
     7
 74
     1
 91
        4
 64
     7
 65
   257
 75
     1
175
     1
 42
1.0
 92
       12
 66
     7
 43
1.0
 76
     1
 77
     6
 78
     2
 67
     7
 79
     5
170
     0
171
     0
290
     0
174
     0
 93
        1
 44
0.0
173
     0
291
     1
 45
0.0
1001
ACAD
1000
AcDbSavedByObjectVersion
1070
     0
  0
DICTIONARYVAR
  5
4CF
102
{ACAD_REACTORS
330
4CA
102
}
330
4CA
100
DictionaryVariables
280
     0
  1
1:1
  0
DICTIONARYVAR
  5
4CE
102
{ACAD_REACTORS
330
4CA
102
}
330
4CA
100
DictionaryVariables
280
     0
  1
80.000000
  0
DICTIONARYVAR
  5
4CD
102
{ACAD_REACTORS
330
4CA
102
}
330
4CA
100
DictionaryVariables
280
     0
  1
5.000000
  0
ENDSEC
  0
EOF
