  0
SECTION
  2
HEADER
  9
$ACADVER
  1
AC1018
  9
$ACADMAINTVER
 70
   104
  9
$DWGCODEPAGE
  3
ANSI_932
  9
$LASTSAVEDBY
  1
t-hayashi
  9
$INSBASE
 10
0.0
 20
0.0
 30
0.0
  9
$EXTMIN
 10
62.4627047616669
 20
-18.82736511231155
 30
0.0
  9
$EXTMAX
 10
366.1916771288431
 20
169.6783370392937
 30
0.0
  9
$LIMMIN
 10
0.0
 20
0.0
  9
$LIMMAX
 10
297.0
 20
210.0
  9
$ORTHOMODE
 70
     0
  9
$REGENMODE
 70
     1
  9
$FILLMODE
 70
     1
  9
$QTEXTMODE
 70
     0
  9
$MIRRTEXT
 70
     0
  9
$LTSCALE
 40
1.0
  9
$ATTMODE
 70
     1
  9
$TEXTSIZE
 40
9.0
  9
$TRACEWID
 40
1.0
  9
$TEXTSTYLE
  7
Standard
  9
$CLAYER
  8
hojo
  9
$CELTYPE
  6
ByLayer
  9
$CECOLOR
 62
   256
  9
$CELTSCALE
 40
1.0
  9
$DISPSILH
 70
     0
  9
$DIMSCALE
 40
1.0
  9
$DIMASZ
 40
3.0
  9
$DIMEXO
 40
5.0
  9
$DIMDLI
 40
6.0
  9
$DIMRND
 40
0.0
  9
$DIMDLE
 40
0.0
  9
$DIMEXE
 40
2.0
  9
$DIMTP
 40
0.0
  9
$DIMTM
 40
0.0
  9
$DIMTXT
 40
3.0
  9
$DIMCEN
 40
2.5
  9
$DIMTSZ
 40
0.0
  9
$DIMTOL
 70
     0
  9
$DIMLIM
 70
     0
  9
$DIMTIH
 70
     0
  9
$DIMTOH
 70
     0
  9
$DIMSE1
 70
     0
  9
$DIMSE2
 70
     0
  9
$DIMTAD
 70
     1
  9
$DIMZIN
 70
     8
  9
$DIMBLK
  1
Open30
  9
$DIMASO
 70
     1
  9
$DIMSHO
 70
     1
  9
$DIMPOST
  1

  9
$DIMAPOST
  1

  9
$DIMALT
 70
     0
  9
$DIMALTD
 70
     3
  9
$DIMALTF
 40
0.03937007874016
  9
$DIMLFAC
 40
1.0
  9
$DIMTOFL
 70
     1
  9
$DIMTVP
 40
0.0
  9
$DIMTIX
 70
     0
  9
$DIMSOXD
 70
     0
  9
$DIMSAH
 70
     0
  9
$DIMBLK1
  1

  9
$DIMBLK2
  1

  9
$DIMSTYLE
  2
ISO-25
  9
$DIMCLRD
 70
     4
  9
$DIMCLRE
 70
     4
  9
$DIMCLRT
 70
     4
  9
$DIMTFAC
 40
1.0
  9
$DIMGAP
 40
1.0
  9
$DIMJUST
 70
     0
  9
$DIMSD1
 70
     0
  9
$DIMSD2
 70
     0
  9
$DIMTOLJ
 70
     0
  9
$DIMTZIN
 70
     8
  9
$DIMALTZ
 70
     0
  9
$DIMALTTZ
 70
     0
  9
$DIMUPT
 70
     0
  9
$DIMDEC
 70
     2
  9
$DIMTDEC
 70
     2
  9
$DIMALTU
 70
     2
  9
$DIMALTTD
 70
     3
  9
$DIMTXSTY
  7
Standard
  9
$DIMAUNIT
 70
     0
  9
$DIMADEC
 70
     0
  9
$DIMALTRND
 40
0.0
  9
$DIMAZIN
 70
     0
  9
$DIMDSEP
 70
    46
  9
$DIMATFIT
 70
     3
  9
$DIMFRAC
 70
     0
  9
$DIMLDRBLK
  1
Open30
  9
$DIMLUNIT
 70
     2
  9
$DIMLWD
 70
    -2
  9
$DIMLWE
 70
    -2
  9
$DIMTMOVE
 70
     0
  9
$LUNITS
 70
     2
  9
$LUPREC
 70
     4
  9
$SKETCHINC
 40
1.0
  9
$FILLETRAD
 40
1.0
  9
$AUNITS
 70
     0
  9
$AUPREC
 70
     0
  9
$MENU
  1
.
  9
$ELEVATION
 40
0.0
  9
$PELEVATION
 40
0.0
  9
$THICKNESS
 40
0.0
  9
$LIMCHECK
 70
     0
  9
$CHAMFERA
 40
0.0
  9
$CHAMFERB
 40
0.0
  9
$CHAMFERC
 40
0.0
  9
$CHAMFERD
 40
0.0
  9
$SKPOLY
 70
     0
  9
$TDCREATE
 40
2455497.994904688
  9
$TDUCREATE
 40
2455497.619904688
  9
$TDUPDATE
 40
2455618.781616933
  9
$TDUUPDATE
 40
2455618.406616933
  9
$TDINDWG
 40
0.8845823843
  9
$TDUSRTIMER
 40
0.8845823843
  9
$USRTIMER
 70
     1
  9
$ANGBASE
 50
0.0
  9
$ANGDIR
 70
     0
  9
$PDMODE
 70
     0
  9
$PDSIZE
 40
0.0
  9
$PLINEWID
 40
0.0
  9
$SPLFRAME
 70
     0
  9
$SPLINETYPE
 70
     6
  9
$SPLINESEGS
 70
     8
  9
$HANDSEED
  5
19FD
  9
$SURFTAB1
 70
     6
  9
$SURFTAB2
 70
     6
  9
$SURFTYPE
 70
     6
  9
$SURFU
 70
     6
  9
$SURFV
 70
     6
  9
$UCSBASE
  2

  9
$UCSNAME
  2

  9
$UCSORG
 10
0.0
 20
0.0
 30
0.0
  9
$UCSXDIR
 10
1.0
 20
0.0
 30
0.0
  9
$UCSYDIR
 10
0.0
 20
1.0
 30
0.0
  9
$UCSORTHOREF
  2

  9
$UCSORTHOVIEW
 70
     0
  9
$UCSORGTOP
 10
0.0
 20
0.0
 30
0.0
  9
$UCSORGBOTTOM
 10
0.0
 20
0.0
 30
0.0
  9
$UCSORGLEFT
 10
0.0
 20
0.0
 30
0.0
  9
$UCSORGRIGHT
 10
0.0
 20
0.0
 30
0.0
  9
$UCSORGFRONT
 10
0.0
 20
0.0
 30
0.0
  9
$UCSORGBACK
 10
0.0
 20
0.0
 30
0.0
  9
$PUCSBASE
  2

  9
$PUCSNAME
  2

  9
$PUCSORG
 10
0.0
 20
0.0
 30
0.0
  9
$PUCSXDIR
 10
1.0
 20
0.0
 30
0.0
  9
$PUCSYDIR
 10
0.0
 20
1.0
 30
0.0
  9
$PUCSORTHOREF
  2

  9
$PUCSORTHOVIEW
 70
     0
  9
$PUCSORGTOP
 10
0.0
 20
0.0
 30
0.0
  9
$PUCSORGBOTTOM
 10
0.0
 20
0.0
 30
0.0
  9
$PUCSORGLEFT
 10
0.0
 20
0.0
 30
0.0
  9
$PUCSORGRIGHT
 10
0.0
 20
0.0
 30
0.0
  9
$PUCSORGFRONT
 10
0.0
 20
0.0
 30
0.0
  9
$PUCSORGBACK
 10
0.0
 20
0.0
 30
0.0
  9
$USERI1
 70
     0
  9
$USERI2
 70
     0
  9
$USERI3
 70
     0
  9
$USERI4
 70
     0
  9
$USERI5
 70
     0
  9
$USERR1
 40
0.0
  9
$USERR2
 40
0.0
  9
$USERR3
 40
0.0
  9
$USERR4
 40
0.0
  9
$USERR5
 40
0.0
  9
$WORLDVIEW
 70
     1
  9
$SHADEDGE
 70
     3
  9
$SHADEDIF
 70
    70
  9
$TILEMODE
 70
     1
  9
$MAXACTVP
 70
    64
  9
$PINSBASE
 10
0.0
 20
0.0
 30
0.0
  9
$PLIMCHECK
 70
     0
  9
$PEXTMIN
 10
3.070773833669022
 20
5.873386204737187
 30
0.0
  9
$PEXTMAX
 10
285.4943319513993
 20
198.4049299931636
 30
0.0
  9
$PLIMMIN
 10
-3.757080078125
 20
-4.180416584014892
  9
$PLIMMAX
 10
293.2112426757813
 20
205.7929110527039
  9
$UNITMODE
 70
     0
  9
$VISRETAIN
 70
     1
  9
$PLINEGEN
 70
     0
  9
$PSLTSCALE
 70
     1
  9
$TREEDEPTH
 70
  3020
  9
$CMLSTYLE
  2
Standard
  9
$CMLJUST
 70
     0
  9
$CMLSCALE
 40
20.0
  9
$PROXYGRAPHICS
 70
     1
  9
$MEASUREMENT
 70
     1
  9
$CELWEIGHT
370
    -1
  9
$ENDCAPS
280
     0
  9
$JOINSTYLE
280
     0
  9
$LWDISPLAY
290
     0
  9
$INSUNITS
 70
     4
  9
$HYPERLINKBASE
  1

  9
$STYLESHEET
  1

  9
$XEDIT
290
     1
  9
$CEPSNTYPE
380
     0
  9
$PSTYLEMODE
290
     1
  9
$FINGERPRINTGUID
  2
{03A8F9F0-C856-470B-BDF9-D9C40928B69F}
  9
$VERSIONGUID
  2
{2CE029C3-7D62-4C2C-B034-84300F66C012}
  9
$EXTNAMES
290
     1
  9
$PSVPSCALE
 40
0.0
  9
$OLESTARTUP
290
     0
  9
$SORTENTS
280
   127
  9
$INDEXCTL
280
     0
  9
$HIDETEXT
280
     1
  9
$XCLIPFRAME
290
     0
  9
$HALOGAP
280
     0
  9
$OBSCOLOR
 70
   257
  9
$OBSLTYPE
280
     0
  9
$INTERSECTIONDISPLAY
280
     0
  9
$INTERSECTIONCOLOR
 70
   257
  9
$DIMASSOC
280
     2
  9
$PROJECTNAME
  1

  0
ENDSEC
  0
SECTION
  2
CLASSES
  0
CLASS
  1
ACDBDICTIONARYWDFLT
  2
AcDbDictionaryWithDefault
  3
ObjectDBX Classes
 90
        0
 91
        1
280
     0
281
     0
  0
CLASS
  1
MATERIAL
  2
AcDbMaterial
  3
ObjectDBX Classes
 90
     1153
 91
        3
280
     0
281
     0
  0
CLASS
  1
DIMASSOC
  2
AcDbDimAssoc
  3
"AcDbDimAssoc|Product Desc:     AcDim ARX App For Dimension|Company:          Autodesk, Inc.|WEB Address:      www.autodesk.com"
 90
        0
 91
        4
280
     0
281
     0
  0
CLASS
  1
VISUALSTYLE
  2
AcDbVisualStyle
  3
ObjectDBX Classes
 90
     4095
 91
       16
280
     0
281
     0
  0
CLASS
  1
TABLESTYLE
  2
AcDbTableStyle
  3
ObjectDBX Classes
 90
     4095
 91
        1
280
     0
281
     0
  0
CLASS
  1
SCALE
  2
AcDbScale
  3
ObjectDBX Classes
 90
     1153
 91
       33
280
     0
281
     0
  0
CLASS
  1
MLEADERSTYLE
  2
AcDbMLeaderStyle
  3
ACDB_MLEADERSTYLE_CLASS
 90
     4095
 91
        1
280
     0
281
     0
  0
CLASS
  1
DICTIONARYVAR
  2
AcDbDictionaryVar
  3
ObjectDBX Classes
 90
        0
 91
        3
280
     0
281
     0
  0
CLASS
  1
CELLSTYLEMAP
  2
AcDbCellStyleMap
  3
ObjectDBX Classes
 90
     1152
 91
        1
280
     0
281
     0
  0
ENDSEC
  0
SECTION
  2
TABLES
  0
TABLE
  2
VPORT
  5
8
330
0
100
AcDbSymbolTable
 70
     1
  0
VPORT
  5
198E
330
8
100
AcDbSymbolTableRecord
100
AcDbViewportTableRecord
  2
*Active
 70
     0
 10
0.0
 20
0.0
 11
1.0
 21
1.0
 12
261.2403585425395
 22
95.57933461308456
 13
0.0
 23
0.0
 14
10.0
 24
10.0
 15
10.0
 25
10.0
 16
0.0
 26
0.0
 36
1.0
 17
0.0
 27
0.0
 37
0.0
 40
230.6917997558295
 41
2.304913294797688
 42
50.0
 43
0.0
 44
0.0
 50
0.0
 51
0.0
 71
     0
 72
  1000
 73
     1
 74
     3
 75
     0
 76
     0
 77
     0
 78
     0
281
     0
 65
     1
110
0.0
120
0.0
130
0.0
111
1.0
121
0.0
131
0.0
112
0.0
122
1.0
132
0.0
 79
     0
146
0.0
  0
ENDTAB
  0
TABLE
  2
LTYPE
  5
5
330
0
100
AcDbSymbolTable
 70
     1
  0
LTYPE
  5
14
330
5
100
AcDbSymbolTableRecord
100
AcDbLinetypeTableRecord
  2
ByBlock
 70
     0
  3

 72
    65
 73
     0
 40
0.0
  0
LTYPE
  5
15
330
5
100
AcDbSymbolTableRecord
100
AcDbLinetypeTableRecord
  2
ByLayer
 70
     0
  3

 72
    65
 73
     0
 40
0.0
  0
LTYPE
  5
16
330
5
100
AcDbSymbolTableRecord
100
AcDbLinetypeTableRecord
  2
Continuous
 70
     0
  3
Solid line
 72
    65
 73
     0
 40
0.0
  0
ENDTAB
  0
TABLE
  2
LAYER
  5
2
102
{ACAD_XDICTIONARY
360
5C
102
}
330
0
100
AcDbSymbolTable
 70
    10
  0
LAYER
  5
10
102
{ACAD_XDICTIONARY
360
19E0
102
}
330
2
100
AcDbSymbolTableRecord
100
AcDbLayerTableRecord
  2
0
 70
     0
 62
     7
  6
Continuous
370
    -3
390
F
  0
LAYER
  5
2D
102
{ACAD_XDICTIONARY
360
19E2
102
}
330
2
100
AcDbSymbolTableRecord
100
AcDbLayerTableRecord
  2
gaikei
 70
     0
 62
     7
  6
Continuous
370
    -3
390
F
  0
LAYER
  5
2E
102
{ACAD_XDICTIONARY
360
19E4
102
}
330
2
100
AcDbSymbolTableRecord
100
AcDbLayerTableRecord
  2
sumpo
 70
     0
 62
     4
  6
Continuous
370
    -3
390
F
  0
LAYER
  5
2F
102
{ACAD_XDICTIONARY
360
19E6
102
}
330
2
100
AcDbSymbolTableRecord
100
AcDbLayerTableRecord
  2
fuzoku
 70
     0
 62
     3
  6
Continuous
370
    -3
390
F
  0
LAYER
  5
30
102
{ACAD_XDICTIONARY
360
19E8
102
}
330
2
100
AcDbSymbolTableRecord
100
AcDbLayerTableRecord
  2
moji
 70
     0
 62
     2
  6
Continuous
370
    -3
390
F
  0
LAYER
  5
48
102
{ACAD_XDICTIONARY
360
19EA
102
}
330
2
100
AcDbSymbolTableRecord
100
AcDbLayerTableRecord
  2
hojo
 70
     0
 62
     6
  6
Continuous
370
    -3
390
F
  0
LAYER
  5
8F4
330
2
100
AcDbSymbolTableRecord
100
AcDbLayerTableRecord
  2
Defpoints
 70
     0
 62
     7
  6
Continuous
290
     0
370
    -3
390
F
  0
LAYER
  5
B26
102
{ACAD_XDICTIONARY
360
19EC
102
}
330
2
100
AcDbSymbolTableRecord
100
AcDbLayerTableRecord
  2
shiyouwaku
 70
     0
 62
     7
  6
Continuous
370
    -3
390
F
  0
LAYER
  5
B29
102
{ACAD_XDICTIONARY
360
19EE
102
}
330
2
100
AcDbSymbolTableRecord
100
AcDbLayerTableRecord
  2
zubanwaku
 70
     0
 62
     7
  6
Continuous
370
    -3
390
F
  0
LAYER
  5
B2A
102
{ACAD_XDICTIONARY
360
19F0
102
}
330
2
100
AcDbSymbolTableRecord
100
AcDbLayerTableRecord
  2
zubanmoji
 70
     0
 62
     3
  6
Continuous
370
    -3
390
F
  0
ENDTAB
  0
TABLE
  2
STYLE
  5
3
330
0
100
AcDbSymbolTable
 70
     2
  0
STYLE
  5
11
330
3
100
AcDbSymbolTableRecord
100
AcDbTextStyleTableRecord
  2
Standard
 70
     0
 40
0.0
 41
1.0
 50
0.0
 71
     0
 42
9.0
  3
romans.shx
  4
extfont.shx
  0
STYLE
  5
425
330
3
100
AcDbSymbolTableRecord
100
AcDbTextStyleTableRecord
  2
KKZ-Y
 70
     0
 40
0.0
 41
1.0
 50
0.0
 71
     0
 42
300.0
  3
TXT
  4
EXTFONT
  0
ENDTAB
  0
TABLE
  2
VIEW
  5
6
330
0
100
AcDbSymbolTable
 70
     0
  0
ENDTAB
  0
TABLE
  2
UCS
  5
7
330
0
100
AcDbSymbolTable
 70
     0
  0
ENDTAB
  0
TABLE
  2
APPID
  5
9
330
0
100
AcDbSymbolTable
 70
     6
  0
APPID
  5
12
330
9
100
AcDbSymbolTableRecord
100
AcDbRegAppTableRecord
  2
ACAD
 70
     0
  0
APPID
  5
51
330
9
100
AcDbSymbolTableRecord
100
AcDbRegAppTableRecord
  2
AcadAnnotative
 70
     0
  0
APPID
  5
52
330
9
100
AcDbSymbolTableRecord
100
AcDbRegAppTableRecord
  2
ACAD_DSTYLE_DIMJAG
 70
     0
  0
APPID
  5
53
330
9
100
AcDbSymbolTableRecord
100
AcDbRegAppTableRecord
  2
ACAD_DSTYLE_DIMTALN
 70
     0
  0
APPID
  5
54
330
9
100
AcDbSymbolTableRecord
100
AcDbRegAppTableRecord
  2
ACAD_PSEXT
 70
     0
  0
APPID
  5
19D7
330
9
100
AcDbSymbolTableRecord
100
AcDbRegAppTableRecord
  2
ACAD_MLEADERVER
 70
     0
  0
ENDTAB
  0
TABLE
  2
DIMSTYLE
  5
A
330
0
100
AcDbSymbolTable
 70
     3
100
AcDbDimStyleTable
 71
     3
340
29
340
4F
340
50
  0
DIMSTYLE
105
29
102
{ACAD_REACTORS
330
163A
330
163D
330
1640
330
1643
102
}
330
A
100
AcDbSymbolTableRecord
100
AcDbDimStyleTableRecord
  2
ISO-25
 70
     0
 41
3.0
 42
5.0
 43
6.0
 44
2.0
 73
     0
 74
     0
 77
     1
 78
     8
140
3.0
141
2.5
143
0.03937007874016
147
1.0
171
     3
172
     1
176
     4
177
     4
178
     4
271
     2
272
     2
274
     3
283
     0
284
     8
340
11
341
8EC
342
8EC
  0
DIMSTYLE
105
4F
330
A
100
AcDbSymbolTableRecord
100
AcDbDimStyleTableRecord
  2
Standard
 70
     0
340
11
  0
DIMSTYLE
105
50
330
A
100
AcDbSymbolTableRecord
100
AcDbDimStyleTableRecord
  2
Annotative
 70
     0
 40
0.0
340
11
1001
AcadAnnotative
1000
AnnotativeData
1002
{
1070
     1
1070
     1
1002
}
1001
ACAD_DSTYLE_DIMJAG
1070
   388
1040
1.5
1001
ACAD_DSTYLE_DIMTALN
1070
   392
1070
     0
  0
ENDTAB
  0
TABLE
  2
BLOCK_RECORD
  5
1
330
0
100
AcDbSymbolTable
 70
     5
  0
BLOCK_RECORD
  5
21
330
1
100
AcDbSymbolTableRecord
100
AcDbBlockTableRecord
  2
*Model_Space
340
24
  0
BLOCK_RECORD
  5
187F
330
1
100
AcDbSymbolTableRecord
100
AcDbBlockTableRecord
  2
*Paper_Space
340
1880
  0
BLOCK_RECORD
  5
8EC
330
1
100
AcDbSymbolTableRecord
100
AcDbBlockTableRecord
  2
_Open30
340
0
102
{BLKREFS
331
194B
331
194C
331
1954
331
1955
331
195D
331
195E
331
1966
331
1967
102
}
  0
BLOCK_RECORD
  5
17DA
330
1
100
AcDbSymbolTableRecord
100
AcDbBlockTableRecord
  2
*D1
340
0
  0
BLOCK_RECORD
  5
17E6
330
1
100
AcDbSymbolTableRecord
100
AcDbBlockTableRecord
  2
*D2
340
0
  0
BLOCK_RECORD
  5
17F2
330
1
100
AcDbSymbolTableRecord
100
AcDbBlockTableRecord
  2
*D3
340
0
  0
BLOCK_RECORD
  5
1800
330
1
100
AcDbSymbolTableRecord
100
AcDbBlockTableRecord
  2
*D4
340
0
  0
ENDTAB
  0
ENDSEC
  0
SECTION
  2
BLOCKS
  0
BLOCK
  5
22
330
21
100
AcDbEntity
  8
0
100
AcDbBlockBegin
  2
*Model_Space
 70
     0
 10
0.0
 20
0.0
 30
0.0
  3
*Model_Space
  1

  0
ENDBLK
  5
23
330
21
100
AcDbEntity
  8
0
100
AcDbBlockEnd
  0
BLOCK
  5
1881
330
187F
100
AcDbEntity
 67
     1
  8
0
100
AcDbBlockBegin
  2
*Paper_Space
 70
     0
 10
0.0
 20
0.0
 30
0.0
  3
*Paper_Space
  1

  0
ENDBLK
  5
1882
330
187F
100
AcDbEntity
 67
     1
  8
0
100
AcDbBlockEnd
  0
BLOCK
  5
8F0
330
8EC
100
AcDbEntity
  8
0
100
AcDbBlockBegin
  2
_Open30
 70
     0
 10
0.0
 20
0.0
 30
0.0
  3
_Open30
  1

  0
LINE
  5
8ED
330
8EC
100
AcDbEntity
  8
0
  6
ByBlock
 62
     0
370
    -2
100
AcDbLine
 10
-1.0
 20
0.26794919
 30
0.0
 11
0.0
 21
0.0
 31
0.0
  0
LINE
  5
8EE
330
8EC
100
AcDbEntity
  8
0
  6
ByBlock
 62
     0
370
    -2
100
AcDbLine
 10
0.0
 20
0.0
 30
0.0
 11
-1.0
 21
-0.26794919
 31
0.0
  0
LINE
  5
8EF
330
8EC
100
AcDbEntity
  8
0
  6
ByBlock
 62
     0
370
    -2
100
AcDbLine
 10
0.0
 20
0.0
 30
0.0
 11
-1.0
 21
0.0
 31
0.0
  0
ENDBLK
  5
8F1
330
8EC
100
AcDbEntity
  8
0
100
AcDbBlockEnd
  0
BLOCK
  5
17E4
330
17DA
100
AcDbEntity
  8
0
100
AcDbBlockBegin
  2
*D1
 70
     1
 10
0.0
 20
0.0
 30
0.0
  3
*D1
  1

  0
LINE
  5
1963
330
17DA
100
AcDbEntity
  8
sumpo
 62
     4
370
    -2
100
AcDbLine
 10
82.37584479164951
 20
133.0551586484193
 30
0.0
 11
64.46270476166694
 21
133.0551586484193
 31
0.0
  0
LINE
  5
1964
330
17DA
100
AcDbEntity
  8
sumpo
 62
     4
370
    -2
100
AcDbLine
 10
90.37584479164952
 20
97.05515864841936
 30
0.0
 11
64.46270476166694
 21
97.05515864841936
 31
0.0
  0
LINE
  5
1965
330
17DA
100
AcDbEntity
  8
sumpo
 62
     4
370
    -2
100
AcDbLine
 10
66.46270476166694
 20
130.0551586484193
 30
0.0
 11
66.46270476166694
 21
100.0551586484193
 31
0.0
  0
INSERT
  5
1966
330
17DA
100
AcDbEntity
  8
sumpo
 62
     4
370
    -2
100
AcDbBlockReference
  2
_Open30
 10
66.46270476166694
 20
133.0551586484193
 30
0.0
 41
3.0
 42
3.0
 43
3.0
 50
90.0
  0
INSERT
  5
1967
330
17DA
100
AcDbEntity
  8
sumpo
 62
     4
370
    -2
100
AcDbBlockReference
  2
_Open30
 10
66.46270476166694
 20
97.05515864841936
 30
0.0
 41
3.0
 42
3.0
 43
3.0
 50
270.0
  0
MTEXT
  5
1968
330
17DA
100
AcDbEntity
  8
sumpo
 62
     4
100
AcDbMText
 10
63.96270476166692
 20
115.0551586484193
 30
0.0
 40
3.0
 41
0.0
 71
     5
 72
     1
  1
72
 11
0.0000000000000001
 21
1.0
 31
0.0
 73
     1
 44
1.0
  0
POINT
  5
1969
330
17DA
100
AcDbEntity
  8
Defpoints
 62
     0
100
AcDbPoint
 10
87.37584479164951
 20
133.0551586484193
 30
0.0
  0
POINT
  5
196A
330
17DA
100
AcDbEntity
  8
Defpoints
 62
     0
100
AcDbPoint
 10
95.37584479164952
 20
97.05515864841936
 30
0.0
  0
POINT
  5
196B
330
17DA
100
AcDbEntity
  8
Defpoints
 62
     0
100
AcDbPoint
 10
66.46270476166694
 20
97.05515864841936
 30
0.0
  0
ENDBLK
  5
17E5
330
17DA
100
AcDbEntity
  8
0
100
AcDbBlockEnd
  0
BLOCK
  5
17F0
330
17E6
100
AcDbEntity
  8
0
100
AcDbBlockBegin
  2
*D2
 70
     1
 10
0.0
 20
0.0
 30
0.0
  3
*D2
  1

  0
LINE
  5
195A
330
17E6
100
AcDbEntity
  8
sumpo
 62
     4
370
    -2
100
AcDbLine
 10
82.37584479164951
 20
133.0551586484193
 30
0.0
 11
70.46270476166694
 21
133.0551586484193
 31
0.0
  0
LINE
  5
195B
330
17E6
100
AcDbEntity
  8
sumpo
 62
     4
370
    -2
100
AcDbLine
 10
82.37584479164951
 20
98.05515864841936
 30
0.0
 11
70.46270476166694
 21
98.05515864841936
 31
0.0
  0
LINE
  5
195C
330
17E6
100
AcDbEntity
  8
sumpo
 62
     4
370
    -2
100
AcDbLine
 10
72.46270476166694
 20
130.0551586484193
 30
0.0
 11
72.46270476166694
 21
101.0551586484193
 31
0.0
  0
INSERT
  5
195D
330
17E6
100
AcDbEntity
  8
sumpo
 62
     4
370
    -2
100
AcDbBlockReference
  2
_Open30
 10
72.46270476166694
 20
133.0551586484193
 30
0.0
 41
3.0
 42
3.0
 43
3.0
 50
90.0
  0
INSERT
  5
195E
330
17E6
100
AcDbEntity
  8
sumpo
 62
     4
370
    -2
100
AcDbBlockReference
  2
_Open30
 10
72.46270476166694
 20
98.05515864841936
 30
0.0
 41
3.0
 42
3.0
 43
3.0
 50
270.0
  0
MTEXT
  5
195F
330
17E6
100
AcDbEntity
  8
sumpo
 62
     4
100
AcDbMText
 10
69.96270476166691
 20
115.5551586484193
 30
0.0
 40
3.0
 41
0.0
 71
     5
 72
     1
  1
70
 11
0.0000000000000001
 21
1.0
 31
0.0
 73
     1
 44
1.0
  0
POINT
  5
1960
330
17E6
100
AcDbEntity
  8
Defpoints
 62
     0
100
AcDbPoint
 10
87.37584479164951
 20
133.0551586484193
 30
0.0
  0
POINT
  5
1961
330
17E6
100
AcDbEntity
  8
Defpoints
 62
     0
100
AcDbPoint
 10
87.37584479164951
 20
98.05515864841936
 30
0.0
  0
POINT
  5
1962
330
17E6
100
AcDbEntity
  8
Defpoints
 62
     0
100
AcDbPoint
 10
72.46270476166694
 20
98.05515864841936
 30
0.0
  0
ENDBLK
  5
17F1
330
17E6
100
AcDbEntity
  8
0
100
AcDbBlockEnd
  0
BLOCK
  5
17FE
330
17F2
100
AcDbEntity
  8
0
100
AcDbBlockBegin
  2
*D3
 70
     1
 10
0.0
 20
0.0
 30
0.0
  3
*D3
  1

  0
LINE
  5
1951
330
17F2
100
AcDbEntity
  8
sumpo
 62
     4
370
    -2
100
AcDbLine
 10
87.37584479164951
 20
138.0551586484193
 30
0.0
 11
87.37584479164951
 21
152.101157801897
 31
0.0
  0
LINE
  5
1952
330
17F2
100
AcDbEntity
  8
sumpo
 62
     4
370
    -2
100
AcDbLine
 10
109.8758447916495
 20
138.0551586484193
 30
0.0
 11
109.8758447916495
 21
152.101157801897
 31
0.0
  0
LINE
  5
1953
330
17F2
100
AcDbEntity
  8
sumpo
 62
     4
370
    -2
100
AcDbLine
 10
90.37584479164952
 20
150.101157801897
 30
0.0
 11
106.8758447916495
 21
150.101157801897
 31
0.0
  0
INSERT
  5
1954
330
17F2
100
AcDbEntity
  8
sumpo
 62
     4
370
    -2
100
AcDbBlockReference
  2
_Open30
 10
87.37584479164951
 20
150.101157801897
 30
0.0
 41
3.0
 42
3.0
 43
3.0
 50
180.0
  0
INSERT
  5
1955
330
17F2
100
AcDbEntity
  8
sumpo
 62
     4
370
    -2
100
AcDbBlockReference
  2
_Open30
 10
109.8758447916495
 20
150.101157801897
 30
0.0
 41
3.0
 42
3.0
 43
3.0
  0
MTEXT
  5
1956
330
17F2
100
AcDbEntity
  8
sumpo
 62
     4
100
AcDbMText
 10
98.62584479164951
 20
152.601157801897
 30
0.0
 40
3.0
 41
0.0
 71
     5
 72
     1
  1
45
 73
     1
 44
1.0
  0
POINT
  5
1957
330
17F2
100
AcDbEntity
  8
Defpoints
 62
     0
100
AcDbPoint
 10
87.37584479164951
 20
133.0551586484193
 30
0.0
  0
POINT
  5
1958
330
17F2
100
AcDbEntity
  8
Defpoints
 62
     0
100
AcDbPoint
 10
109.8758447916495
 20
133.0551586484193
 30
0.0
  0
POINT
  5
1959
330
17F2
100
AcDbEntity
  8
Defpoints
 62
     0
100
AcDbPoint
 10
109.8758447916495
 20
150.101157801897
 30
0.0
  0
ENDBLK
  5
17FF
330
17F2
100
AcDbEntity
  8
0
100
AcDbBlockEnd
  0
BLOCK
  5
180A
330
1800
100
AcDbEntity
  8
0
100
AcDbBlockBegin
  2
*D4
 70
     1
 10
0.0
 20
0.0
 30
0.0
  3
*D4
  1

  0
LINE
  5
1948
330
1800
100
AcDbEntity
  8
sumpo
 62
     4
370
    -2
100
AcDbLine
 10
132.4732635899058
 20
137.5551586484193
 30
0.0
 11
132.4732635899058
 21
152.101157801897
 31
0.0
  0
LINE
  5
1949
330
1800
100
AcDbEntity
  8
sumpo
 62
     4
370
    -2
100
AcDbLine
 10
165.9732635899059
 20
138.0551586484194
 30
0.0
 11
165.9732635899059
 21
152.101157801897
 31
0.0
  0
LINE
  5
194A
330
1800
100
AcDbEntity
  8
sumpo
 62
     4
370
    -2
100
AcDbLine
 10
135.4732635899059
 20
150.101157801897
 30
0.0
 11
162.973263589906
 21
150.101157801897
 31
0.0
  0
INSERT
  5
194B
330
1800
100
AcDbEntity
  8
sumpo
 62
     4
370
    -2
100
AcDbBlockReference
  2
_Open30
 10
132.4732635899058
 20
150.101157801897
 30
0.0
 41
3.0
 42
3.0
 43
3.0
 50
180.0
  0
INSERT
  5
194C
330
1800
100
AcDbEntity
  8
sumpo
 62
     4
370
    -2
100
AcDbBlockReference
  2
_Open30
 10
165.9732635899059
 20
150.101157801897
 30
0.0
 41
3.0
 42
3.0
 43
3.0
  0
MTEXT
  5
194D
330
1800
100
AcDbEntity
  8
sumpo
 62
     4
100
AcDbMText
 10
149.2232635899059
 20
152.601157801897
 30
0.0
 40
3.0
 41
0.0
 71
     5
 72
     1
  1
67
 73
     1
 44
1.0
  0
POINT
  5
194E
330
1800
100
AcDbEntity
  8
Defpoints
 62
     0
100
AcDbPoint
 10
132.4732635899058
 20
132.5551586484193
 30
0.0
  0
POINT
  5
194F
330
1800
100
AcDbEntity
  8
Defpoints
 62
     0
100
AcDbPoint
 10
165.9732635899059
 20
133.0551586484194
 30
0.0
  0
POINT
  5
1950
330
1800
100
AcDbEntity
  8
Defpoints
 62
     0
100
AcDbPoint
 10
165.9732635899059
 20
150.101157801897
 30
0.0
  0
ENDBLK
  5
180B
330
1800
100
AcDbEntity
  8
0
100
AcDbBlockEnd
  0
ENDSEC
  0
SECTION
  2
ENTITIES
  0
LINE
  5
B2B
330
21
100
AcDbEntity
  8
zubanwaku
100
AcDbLine
 10
241.691677128843
 20
17.17263488768844
 30
0.0
 11
241.6916771288431
 21
-18.82736511231155
 31
0.0
  0
LINE
  5
B2E
330
21
100
AcDbEntity
  8
zubanwaku
100
AcDbLine
 10
241.691677128843
 20
17.17263488768844
 30
0.0
 11
366.1916771288431
 21
17.17263488768845
 31
0.0
  0
LINE
  5
B33
330
21
100
AcDbEntity
  8
zubanwaku
100
AcDbLine
 10
241.691677128843
 20
8.172634887688445
 30
0.0
 11
366.1916771288431
 21
8.172634887688452
 31
0.0
  0
LINE
  5
B34
330
21
100
AcDbEntity
  8
zubanwaku
100
AcDbLine
 10
241.691677128843
 20
-0.8273651123115541
 30
0.0
 11
366.1916771288431
 21
-0.827365112311547
 31
0.0
  0
LINE
  5
B35
330
21
100
AcDbEntity
  8
zubanwaku
100
AcDbLine
 10
241.691677128843
 20
-9.827365112311554
 30
0.0
 11
366.1916771288431
 21
-9.827365112311554
 31
0.0
  0
LINE
  5
B36
330
21
100
AcDbEntity
  8
zubanwaku
100
AcDbLine
 10
241.691677128843
 20
-18.82736511231155
 30
0.0
 11
366.1916771288431
 21
-18.82736511231155
 31
0.0
  0
LINE
  5
B3D
330
21
100
AcDbEntity
  8
zubanwaku
100
AcDbLine
 10
259.691677128843
 20
17.17263488768844
 30
0.0
 11
259.6916771288431
 21
-9.827365112311554
 31
0.0
  0
LINE
  5
B3E
330
21
100
AcDbEntity
  8
zubanwaku
100
AcDbLine
 10
328.6916771288431
 20
17.17263488768844
 30
0.0
 11
328.6916771288431
 21
-0.827365112311547
 31
0.0
  0
LINE
  5
B3F
330
21
100
AcDbEntity
  8
zubanwaku
100
AcDbLine
 10
346.6916771288431
 20
17.17263488768844
 30
0.0
 11
346.6916771288431
 21
-0.827365112311547
 31
0.0
  0
LINE
  5
B40
330
21
100
AcDbEntity
  8
zubanwaku
100
AcDbLine
 10
366.1916771288431
 20
17.17263488768844
 30
0.0
 11
366.1916771288431
 21
-18.82736511231155
 31
0.0
  0
TEXT
  5
B45
330
21
100
AcDbEntity
  8
zubanmoji
100
AcDbText
 10
245.891677128843
 20
10.42263488768844
 30
0.0
 40
4.5
  1
名称
 72
     1
 11
250.691677128843
 21
12.67263488768844
 31
0.0
100
AcDbText
 73
     2
  0
TEXT
  5
B47
330
21
100
AcDbEntity
  8
zubanmoji
100
AcDbText
 10
263.741677128843
 20
10.42263488768844
 30
0.0
 40
4.5
  1
漏水検知器　外形寸法図
 72
     1
 11
292.691677128843
 21
12.67263488768844
 31
0.0
100
AcDbText
 73
     2
  0
TEXT
  5
B48
330
21
100
AcDbEntity
  8
zubanmoji
100
AcDbText
 10
332.8916771288431
 20
10.42263488768844
 30
0.0
 40
4.5
  1
尺度
 72
     1
 11
337.6916771288431
 21
12.67263488768844
 31
0.0
100
AcDbText
 73
     2
  0
TEXT
  5
B4B
330
21
100
AcDbEntity
  8
zubanmoji
100
AcDbText
 10
245.891677128843
 20
1.422634887688445
 30
0.0
 40
4.5
  1
型式
 72
     1
 11
250.691677128843
 21
3.672634887688445
 31
0.0
100
AcDbText
 73
     2
  0
TEXT
  5
B4C
330
21
100
AcDbEntity
  8
zubanmoji
100
AcDbText
 10
272.2273914145573
 20
1.422634887688445
 30
0.0
 40
4.5
  1
AD-AS-1CM
 72
     1
 11
292.691677128843
 21
3.672634887688445
 31
0.0
100
AcDbText
 73
     2
  0
TEXT
  5
B4D
330
21
100
AcDbEntity
  8
zubanmoji
100
AcDbText
 10
332.8916771288431
 20
1.422634887688445
 30
0.0
 40
4.5
  1
単位
 72
     1
 11
337.6916771288431
 21
3.672634887688445
 31
0.0
100
AcDbText
 73
     2
  0
TEXT
  5
B4E
330
21
100
AcDbEntity
  8
zubanmoji
100
AcDbText
 10
349.2631057002717
 20
1.422634887688445
 30
0.0
 40
4.5
  1
mm
 72
     1
 11
355.6916771288431
 21
3.672634887688445
 31
0.0
100
AcDbText
 73
     2
  0
TEXT
  5
B4F
330
21
100
AcDbEntity
  8
zubanmoji
100
AcDbText
 10
245.7416771288431
 20
-7.577365112311554
 30
0.0
 40
4.5
  1
図番
 72
     1
 11
250.691677128843
 21
-5.327365112311554
 31
0.0
100
AcDbText
 73
     2
  0
TEXT
  5
B50
330
21
100
AcDbEntity
  8
zubanmoji
100
AcDbText
 10
266.0506269351354
 20
-7.577365112311554
 30
0.0
 40
4.5
  1
TTS-KS-W3131-1
 72
     1
 11
296.8006269351354
 21
-5.327365112311554
 31
0.0
100
AcDbText
 73
     2
  0
TEXT
  5
B51
330
21
100
AcDbEntity
  8
zubanmoji
100
AcDbText
 10
257.6175006067728
 20
-15.84570805426224
 30
0.0
 40
3.0
  1
TATSUTA ELECTRIC WIRE & CABLE CO., LTD. 
 72
     1
 11
305.9889291782014
 21
-14.34570805426224
 31
0.0
100
AcDbText
 73
     2
  0
TEXT
  5
125F
330
21
100
AcDbEntity
  8
moji
100
AcDbText
 10
1414.276227074711
 20
343.7095352342497
 30
0.0
 40
9.0
  1

 11
1414.276227074711
 21
348.2095352342497
 31
0.0
100
AcDbText
 73
     2
  0
DIMENSION
  5
163A
102
{ACAD_XDICTIONARY
360
163B
102
}
102
{ACAD_REACTORS
330
163C
102
}
330
21
100
AcDbEntity
  8
sumpo
100
AcDbDimension
  2
*D1
 10
66.46270476166694
 20
97.05515864841936
 30
0.0
 11
63.96270476166692
 21
115.0551586484193
 31
0.0
 70
    32
  1
72
 71
     5
 42
35.99999999999996
  3
ISO-25
100
AcDbAlignedDimension
 13
87.37584479164951
 23
133.0551586484193
 33
0.0
 14
95.37584479164952
 24
97.05515864841936
 34
0.0
 50
90.0
100
AcDbRotatedDimension
  0
DIMENSION
  5
163D
102
{ACAD_XDICTIONARY
360
163E
102
}
102
{ACAD_REACTORS
330
163F
102
}
330
21
100
AcDbEntity
  8
sumpo
100
AcDbDimension
  2
*D2
 10
72.46270476166694
 20
98.05515864841936
 30
0.0
 11
69.96270476166691
 21
115.5551586484193
 31
0.0
 70
    32
  1
70
 71
     5
 42
34.99999999999996
  3
ISO-25
100
AcDbAlignedDimension
 13
87.37584479164951
 23
133.0551586484193
 33
0.0
 14
87.37584479164951
 24
98.05515864841936
 34
0.0
 50
90.0
100
AcDbRotatedDimension
  0
DIMENSION
  5
1640
102
{ACAD_XDICTIONARY
360
1641
102
}
102
{ACAD_REACTORS
330
1642
102
}
330
21
100
AcDbEntity
  8
sumpo
100
AcDbDimension
  2
*D3
 10
109.8758447916495
 20
150.101157801897
 30
0.0
 11
98.62584479164951
 21
152.601157801897
 31
0.0
 70
    32
  1
45
 71
     5
 42
22.5
  3
ISO-25
100
AcDbAlignedDimension
 13
87.37584479164951
 23
133.0551586484193
 33
0.0
 14
109.8758447916495
 24
133.0551586484193
 34
0.0
100
AcDbRotatedDimension
  0
DIMENSION
  5
1643
102
{ACAD_XDICTIONARY
360
1644
102
}
102
{ACAD_REACTORS
330
1645
102
}
330
21
100
AcDbEntity
  8
sumpo
100
AcDbDimension
  2
*D4
 10
165.9732635899059
 20
150.101157801897
 30
0.0
 11
149.2232635899059
 21
152.601157801897
 31
0.0
 70
    32
  1
67
 71
     5
 42
33.50000000000008
  3
ISO-25
100
AcDbAlignedDimension
 13
132.4732635899058
 23
132.5551586484193
 33
0.0
 14
165.9732635899059
 24
133.0551586484194
 34
0.0
100
AcDbRotatedDimension
  0
LINE
  5
1646
330
21
100
AcDbEntity
  8
shiyouwaku
100
AcDbLine
 10
345.6525644168749
 20
169.6783370392937
 30
0.0
 11
345.6525644168749
 21
49.67833703929375
 31
0.0
  0
TEXT
  5
1647
330
21
100
AcDbEntity
  8
moji
100
AcDbText
 10
248.652564416875
 20
50.67833703929376
 30
0.0
 40
3.0
  1
材質・色　：　ABS樹脂・グレー
 11
248.652564416875
 21
52.17833703929375
 31
0.0
100
AcDbText
 73
     2
  0
TEXT
  5
1648
330
21
100
AcDbEntity
  8
moji
100
AcDbText
 10
248.652564416875
 20
55.67833703929376
 30
0.0
 40
3.0
  1
重量　：　約150g
 11
248.652564416875
 21
57.17833703929375
 31
0.0
100
AcDbText
 73
     2
  0
TEXT
  5
1649
330
21
100
AcDbEntity
  8
moji
100
AcDbText
 10
248.652564416875
 20
60.67833703929375
 30
0.0
 40
3.0
  1
外形寸法　：　（W）45×（H）72×（D）67
 11
248.652564416875
 21
62.17833703929375
 31
0.0
100
AcDbText
 73
     2
  0
TEXT
  5
164A
330
21
100
AcDbEntity
  8
moji
100
AcDbText
 10
248.652564416875
 20
65.67833703929375
 30
0.0
 40
3.0
  1
取付方法　：　DINレールに取付可能
 11
248.652564416875
 21
67.17833703929375
 31
0.0
100
AcDbText
 73
     2
  0
TEXT
  5
164B
330
21
100
AcDbEntity
  8
moji
100
AcDbText
 10
248.652564416875
 20
70.67833703929375
 30
0.0
 40
3.0
  1
チェック機能　：　無
 11
248.652564416875
 21
72.17833703929375
 31
0.0
100
AcDbText
 73
     2
  0
TEXT
  5
164C
330
21
100
AcDbEntity
  8
moji
100
AcDbText
 10
248.652564416875
 20
115.6783370392937
 30
0.0
 40
3.0
  1
　　　　　　　　　断線接点　無
 11
248.652564416875
 21
117.1783370392937
 31
0.0
100
AcDbText
 73
     2
  0
TEXT
  5
164D
330
21
100
AcDbEntity
  8
moji
100
AcDbText
 10
248.652564416875
 20
75.67833703929375
 30
0.0
 40
3.0
  1
ブザー設定機能　：　無
 11
248.652564416875
 21
77.17833703929375
 31
0.0
100
AcDbText
 73
     2
  0
TEXT
  5
164E
330
21
100
AcDbEntity
  8
moji
100
AcDbText
 10
248.652564416875
 20
80.67833703929375
 30
0.0
 40
3.0
  1
フェールセーフ機能　：　無
 11
248.652564416875
 21
82.17833703929375
 31
0.0
100
AcDbText
 73
     2
  0
TEXT
  5
164F
330
21
100
AcDbEntity
  8
moji
100
AcDbText
 10
248.652564416875
 20
85.67833703929375
 30
0.0
 40
3.0
  1
警報保持機能　：　無
 11
248.652564416875
 21
87.17833703929375
 31
0.0
100
AcDbText
 73
     2
  0
TEXT
  5
1650
330
21
100
AcDbEntity
  8
moji
100
AcDbText
 10
248.652564416875
 20
90.67833703929375
 30
0.0
 40
3.0
  1
断線検知機能　：　無
 11
248.652564416875
 21
92.17833703929375
 31
0.0
100
AcDbText
 73
     2
  0
TEXT
  5
1651
330
21
100
AcDbEntity
  8
moji
100
AcDbText
 10
248.652564416875
 20
95.67833703929375
 30
0.0
 40
3.0
  1
感度調整　：　有（2/5/8kΩ）
 11
248.652564416875
 21
97.17833703929375
 31
0.0
100
AcDbText
 73
     2
  0
TEXT
  5
1652
330
21
100
AcDbEntity
  8
moji
100
AcDbText
 10
248.652564416875
 20
105.6783370392937
 30
0.0
 40
3.0
  1
（抵抗負荷）　　　　　DC　30V 2.0A
 11
248.652564416875
 21
107.1783370392937
 31
0.0
100
AcDbText
 73
     2
  0
TEXT
  5
1653
330
21
100
AcDbEntity
  8
moji
100
AcDbText
 10
248.652564416875
 20
110.6783370392937
 30
0.0
 40
3.0
  1
制御出力接点負荷　：　AC125V 0.5A
 11
248.652564416875
 21
112.1783370392937
 31
0.0
100
AcDbText
 73
     2
  0
TEXT
  5
1654
330
21
100
AcDbEntity
  8
moji
100
AcDbText
 10
248.652564416875
 20
120.6783370392937
 30
0.0
 40
3.0
  1
制御接点構成　：　漏水接点　1c×1点
 11
248.652564416875
 21
122.1783370392937
 31
0.0
100
AcDbText
 73
     2
  0
TEXT
  5
1655
330
21
100
AcDbEntity
  8
moji
100
AcDbText
 10
248.652564416875
 20
125.6783370392937
 30
0.0
 40
3.0
  1
断線警報　：　無
 11
248.652564416875
 21
127.1783370392937
 31
0.0
100
AcDbText
 73
     2
  0
TEXT
  5
1656
330
21
100
AcDbEntity
  8
moji
100
AcDbText
 10
248.652564416875
 20
130.6783370392937
 30
0.0
 40
3.0
  1
漏水警報　：　橙色LEDランプ・点滅
 11
248.652564416875
 21
132.1783370392937
 31
0.0
100
AcDbText
 73
     2
  0
TEXT
  5
1657
330
21
100
AcDbEntity
  8
moji
100
AcDbText
 10
248.652564416875
 20
135.6783370392937
 30
0.0
 40
3.0
  1
センサ短絡電流　：　0.3mA以下
 11
248.652564416875
 21
137.1783370392937
 31
0.0
100
AcDbText
 73
     2
  0
TEXT
  5
1658
330
21
100
AcDbEntity
  8
moji
100
AcDbText
 10
248.652564416875
 20
140.6783370392937
 30
0.0
 40
3.0
  1
センサ印加電圧　：　AC5.0V（最大値）
 11
248.652564416875
 21
142.1783370392937
 31
0.0
100
AcDbText
 73
     2
  0
TEXT
  5
1659
330
21
100
AcDbEntity
  8
moji
100
AcDbText
 10
248.652564416875
 20
145.6783370392937
 30
0.0
 40
3.0
  1
周波数　：　50/60Hz
 11
248.652564416875
 21
147.1783370392937
 31
0.0
100
AcDbText
 73
     2
  0
TEXT
  5
165A
330
21
100
AcDbEntity
  8
moji
100
AcDbText
 10
248.652564416875
 20
150.6783370392937
 30
0.0
 40
3.0
  1
電源電圧　：　AC100 or AC200V
 11
248.652564416875
 21
152.1783370392937
 31
0.0
100
AcDbText
 73
     2
  0
TEXT
  5
165B
330
21
100
AcDbEntity
  8
moji
100
AcDbText
 10
248.652564416875
 20
155.6783370392937
 30
0.0
 40
3.0
  1
センサ回路数　：　1
 11
248.652564416875
 21
157.1783370392937
 31
0.0
100
AcDbText
 73
     2
  0
TEXT
  5
165C
330
21
100
AcDbEntity
  8
moji
100
AcDbText
 10
248.652564416875
 20
160.6783370392937
 30
0.0
 40
3.0
  1
型番　：　AD-AS-1CM
 11
248.652564416875
 21
162.1783370392937
 31
0.0
100
AcDbText
 73
     2
  0
LINE
  5
165D
330
21
100
AcDbEntity
  8
zubanwaku
100
AcDbLine
 10
245.6525644168749
 20
49.67833703929375
 30
0.0
 11
345.6525644168749
 21
49.67833703929375
 31
0.0
  0
LINE
  5
165E
330
21
100
AcDbEntity
  8
zubanwaku
100
AcDbLine
 10
245.6525644168749
 20
104.6783370392937
 30
0.0
 11
345.6525644168749
 21
104.6783370392937
 31
0.0
  0
LINE
  5
165F
330
21
100
AcDbEntity
  8
zubanwaku
100
AcDbLine
 10
245.6525644168749
 20
94.67833703929375
 30
0.0
 11
345.6525644168749
 21
94.67833703929375
 31
0.0
  0
LINE
  5
1660
330
21
100
AcDbEntity
  8
zubanwaku
100
AcDbLine
 10
245.6525644168749
 20
89.67833703929375
 30
0.0
 11
345.6525644168749
 21
89.67833703929375
 31
0.0
  0
LINE
  5
1661
330
21
100
AcDbEntity
  8
zubanwaku
100
AcDbLine
 10
245.6525644168749
 20
84.67833703929375
 30
0.0
 11
345.6525644168749
 21
84.67833703929375
 31
0.0
  0
LINE
  5
1662
330
21
100
AcDbEntity
  8
zubanwaku
100
AcDbLine
 10
245.6525644168749
 20
79.67833703929375
 30
0.0
 11
345.6525644168749
 21
79.67833703929375
 31
0.0
  0
LINE
  5
1663
330
21
100
AcDbEntity
  8
zubanwaku
100
AcDbLine
 10
245.6525644168749
 20
74.67833703929375
 30
0.0
 11
345.6525644168749
 21
74.67833703929375
 31
0.0
  0
LINE
  5
1664
330
21
100
AcDbEntity
  8
zubanwaku
100
AcDbLine
 10
245.6525644168749
 20
69.67833703929375
 30
0.0
 11
345.6525644168749
 21
69.67833703929375
 31
0.0
  0
LINE
  5
1665
330
21
100
AcDbEntity
  8
zubanwaku
100
AcDbLine
 10
245.6525644168749
 20
64.67833703929375
 30
0.0
 11
345.6525644168749
 21
64.67833703929375
 31
0.0
  0
LINE
  5
1666
330
21
100
AcDbEntity
  8
zubanwaku
100
AcDbLine
 10
245.6525644168749
 20
59.67833703929375
 30
0.0
 11
345.6525644168749
 21
59.67833703929375
 31
0.0
  0
LINE
  5
1667
330
21
100
AcDbEntity
  8
zubanwaku
100
AcDbLine
 10
245.6525644168749
 20
54.67833703929375
 30
0.0
 11
345.6525644168749
 21
54.67833703929375
 31
0.0
  0
LINE
  5
1668
330
21
100
AcDbEntity
  8
zubanwaku
100
AcDbLine
 10
245.6525644168749
 20
114.6783370392937
 30
0.0
 11
345.6525644168749
 21
114.6783370392937
 31
0.0
  0
LINE
  5
1669
330
21
100
AcDbEntity
  8
zubanwaku
100
AcDbLine
 10
245.6525644168749
 20
124.6783370392937
 30
0.0
 11
345.6525644168749
 21
124.6783370392937
 31
0.0
  0
LINE
  5
166A
330
21
100
AcDbEntity
  8
zubanwaku
100
AcDbLine
 10
245.6525644168749
 20
129.6783370392937
 30
0.0
 11
345.6525644168749
 21
129.6783370392937
 31
0.0
  0
LINE
  5
166B
330
21
100
AcDbEntity
  8
zubanwaku
100
AcDbLine
 10
245.6525644168749
 20
134.6783370392937
 30
0.0
 11
345.6525644168749
 21
134.6783370392937
 31
0.0
  0
LINE
  5
166C
330
21
100
AcDbEntity
  8
zubanwaku
100
AcDbLine
 10
245.6525644168749
 20
139.6783370392937
 30
0.0
 11
345.6525644168749
 21
139.6783370392937
 31
0.0
  0
LINE
  5
166D
330
21
100
AcDbEntity
  8
zubanwaku
100
AcDbLine
 10
245.6525644168749
 20
144.6783370392937
 30
0.0
 11
345.6525644168749
 21
144.6783370392937
 31
0.0
  0
LINE
  5
166E
330
21
100
AcDbEntity
  8
zubanwaku
100
AcDbLine
 10
245.6525644168749
 20
149.6783370392937
 30
0.0
 11
345.6525644168749
 21
149.6783370392937
 31
0.0
  0
LINE
  5
166F
330
21
100
AcDbEntity
  8
zubanwaku
100
AcDbLine
 10
245.6525644168749
 20
154.6783370392937
 30
0.0
 11
345.6525644168749
 21
154.6783370392937
 31
0.0
  0
LINE
  5
1670
330
21
100
AcDbEntity
  8
zubanwaku
100
AcDbLine
 10
245.6525644168749
 20
159.6783370392937
 30
0.0
 11
345.6525644168749
 21
159.6783370392937
 31
0.0
  0
LINE
  5
1671
330
21
100
AcDbEntity
  8
zubanwaku
100
AcDbLine
 10
245.6525644168749
 20
164.6783370392937
 30
0.0
 11
345.6525644168749
 21
164.6783370392937
 31
0.0
  0
LINE
  5
1672
330
21
100
AcDbEntity
  8
shiyouwaku
100
AcDbLine
 10
245.6525644168749
 20
169.6783370392937
 30
0.0
 11
245.6525644168749
 21
49.67833703929375
 31
0.0
  0
LINE
  5
1673
330
21
100
AcDbEntity
  8
zubanwaku
100
AcDbLine
 10
245.6525644168749
 20
169.6783370392937
 30
0.0
 11
345.6525644168749
 21
169.6783370392937
 31
0.0
  0
TEXT
  5
1674
330
21
100
AcDbEntity
  8
moji
100
AcDbText
 10
283.4525644168749
 20
165.6783370392937
 30
0.0
 40
3.0
  1
仕　　　　　様
 72
     1
 11
295.6525644168749
 21
167.1783370392937
 31
0.0
100
AcDbText
 73
     2
  0
LINE
  5
1675
102
{ACAD_REACTORS
330
163C
102
}
330
21
100
AcDbEntity
  8
gaikei
100
AcDbLine
 10
95.37584479164952
 20
97.05515864841936
 30
0.0
 11
101.8758447916495
 21
97.05515864841936
 31
0.0
  0
ARC
  5
1676
330
21
100
AcDbEntity
  8
gaikei
100
AcDbCircle
 10
154.9732635899058
 20
98.05515864841936
 30
0.0
 40
1.050000000000011
100
AcDbArc
 50
180.0
 51
359.9999999999968
  0
LINE
  5
1677
330
21
100
AcDbEntity
  8
gaikei
100
AcDbLine
 10
95.37584479164948
 20
56.87859698283194
 30
0.0
 11
101.8758447916495
 21
56.87859698283188
 31
0.0
  0
LINE
  5
1678
330
21
100
AcDbEntity
  8
gaikei
100
AcDbLine
 10
95.37584479164953
 20
58.87859698283193
 30
0.0
 11
101.8758447916495
 21
58.87859698283193
 31
0.0
  0
LINE
  5
1679
330
21
100
AcDbEntity
  8
gaikei
100
AcDbLine
 10
100.4508447916494
 20
133.0551586484193
 30
0.0
 11
100.4508447916494
 21
126.5551586484193
 31
0.0
  0
LINE
  5
167A
330
21
100
AcDbEntity
  8
gaikei
100
AcDbLine
 10
100.4508447916494
 20
126.5551586484193
 30
0.0
 11
96.8008447916495
 21
126.5551586484193
 31
0.0
  0
LINE
  5
167B
330
21
100
AcDbEntity
  8
gaikei
100
AcDbLine
 10
96.8008447916495
 20
126.5551586484193
 30
0.0
 11
96.80084479164946
 21
133.0551586484193
 31
0.0
  0
LINE
  5
167C
330
21
100
AcDbEntity
  8
fuzoku
100
AcDbLine
 10
100.4508447916494
 20
126.9551586484193
 30
0.0
 11
96.8008447916495
 21
126.9551586484193
 31
0.0
  0
LINE
  5
167D
330
21
100
AcDbEntity
  8
fuzoku
100
AcDbLine
 10
100.4508447916494
 20
131.0551586484193
 30
0.0
 11
96.80084479164946
 21
131.0551586484193
 31
0.0
  0
LINE
  5
167E
330
21
100
AcDbEntity
  8
fuzoku
100
AcDbLine
 10
100.4508447916494
 20
130.8051586484193
 30
0.0
 11
96.80084479164946
 21
130.8051586484193
 31
0.0
  0
ARC
  5
167F
330
21
100
AcDbEntity
  8
fuzoku
100
AcDbCircle
 10
98.62584479164949
 20
128.8801586484193
 30
0.0
 40
2.0
100
AcDbArc
 50
105.7405485251685
 51
155.8531520035003
  0
CIRCLE
  5
1680
330
21
100
AcDbEntity
  8
fuzoku
100
AcDbCircle
 10
98.62584479164949
 20
128.8801586484193
 30
0.0
 40
1.5
  0
ARC
  5
1681
330
21
100
AcDbEntity
  8
fuzoku
100
AcDbCircle
 10
98.62584479164949
 20
128.8801586484193
 30
0.0
 40
2.0
100
AcDbArc
 50
204.1468479965033
 51
254.2594514748315
  0
ARC
  5
1682
330
21
100
AcDbEntity
  8
fuzoku
100
AcDbCircle
 10
98.62584479164949
 20
128.8801586484193
 30
0.0
 40
2.0
100
AcDbArc
 50
285.7405485251685
 51
335.8531520035003
  0
ARC
  5
1683
330
21
100
AcDbEntity
  8
fuzoku
100
AcDbCircle
 10
98.62584479164949
 20
128.8801586484193
 30
0.0
 40
2.0
100
AcDbArc
 50
24.14684799650332
 51
74.25945147483151
  0
LINE
  5
1684
330
21
100
AcDbEntity
  8
fuzoku
100
AcDbLine
 10
98.77584479164951
 20
127.6301586484193
 30
0.0
 11
98.77584479164946
 21
128.7301586484193
 31
0.0
  0
LINE
  5
1685
330
21
100
AcDbEntity
  8
fuzoku
100
AcDbLine
 10
98.4758447916495
 20
127.6301586484193
 30
0.0
 11
98.47584479164948
 21
128.7301586484193
 31
0.0
  0
LINE
  5
1686
330
21
100
AcDbEntity
  8
fuzoku
100
AcDbLine
 10
98.77584479164946
 20
128.7301586484193
 30
0.0
 11
100.1183259473094
 21
128.7301586484193
 31
0.0
  0
LINE
  5
1687
330
21
100
AcDbEntity
  8
fuzoku
100
AcDbLine
 10
98.77584479164946
 20
129.0301586484192
 30
0.0
 11
100.1183259473094
 21
129.0301586484192
 31
0.0
  0
LINE
  5
1688
330
21
100
AcDbEntity
  8
fuzoku
100
AcDbLine
 10
98.77584479164946
 20
129.0301586484192
 30
0.0
 11
98.77584479164946
 21
130.1301586484193
 31
0.0
  0
LINE
  5
1689
330
21
100
AcDbEntity
  8
fuzoku
100
AcDbLine
 10
98.47584479164945
 20
129.0301586484192
 30
0.0
 11
98.4758447916495
 21
130.1301586484193
 31
0.0
  0
LINE
  5
168A
330
21
100
AcDbEntity
  8
fuzoku
100
AcDbLine
 10
97.13336363598953
 20
129.0301586484192
 30
0.0
 11
98.47584479164945
 21
129.0301586484192
 31
0.0
  0
LINE
  5
168B
330
21
100
AcDbEntity
  8
fuzoku
100
AcDbLine
 10
97.13336363598953
 20
128.7301586484193
 30
0.0
 11
98.47584479164948
 21
128.7301586484193
 31
0.0
  0
LINE
  5
168C
330
21
100
AcDbEntity
  8
gaikei
100
AcDbLine
 10
96.80084479164946
 20
132.0551586484193
 30
0.0
 11
100.4508447916494
 21
132.0551586484193
 31
0.0
  0
LINE
  5
168D
330
21
100
AcDbEntity
  8
gaikei
100
AcDbLine
 10
92.45084479164948
 20
132.0551586484193
 30
0.0
 11
96.10084479164948
 21
132.0551586484193
 31
0.0
  0
LINE
  5
168E
330
21
100
AcDbEntity
  8
fuzoku
100
AcDbLine
 10
92.78336363598956
 20
128.7301586484193
 30
0.0
 11
94.12584479164948
 21
128.7301586484193
 31
0.0
  0
LINE
  5
168F
330
21
100
AcDbEntity
  8
fuzoku
100
AcDbLine
 10
92.78336363598956
 20
129.0301586484192
 30
0.0
 11
94.12584479164946
 21
129.0301586484192
 31
0.0
  0
LINE
  5
1690
330
21
100
AcDbEntity
  8
fuzoku
100
AcDbLine
 10
94.12584479164946
 20
129.0301586484192
 30
0.0
 11
94.12584479164953
 21
130.1301586484193
 31
0.0
  0
LINE
  5
1691
330
21
100
AcDbEntity
  8
fuzoku
100
AcDbLine
 10
94.42584479164949
 20
129.0301586484192
 30
0.0
 11
94.42584479164949
 21
130.1301586484193
 31
0.0
  0
LINE
  5
1692
330
21
100
AcDbEntity
  8
fuzoku
100
AcDbLine
 10
94.42584479164949
 20
129.0301586484192
 30
0.0
 11
95.76832594730943
 21
129.0301586484192
 31
0.0
  0
LINE
  5
1693
330
21
100
AcDbEntity
  8
fuzoku
100
AcDbLine
 10
94.42584479164949
 20
128.7301586484193
 30
0.0
 11
95.76832594730943
 21
128.7301586484193
 31
0.0
  0
LINE
  5
1694
330
21
100
AcDbEntity
  8
fuzoku
100
AcDbLine
 10
94.12584479164948
 20
127.6301586484193
 30
0.0
 11
94.12584479164948
 21
128.7301586484193
 31
0.0
  0
LINE
  5
1695
330
21
100
AcDbEntity
  8
fuzoku
100
AcDbLine
 10
94.42584479164949
 20
127.6301586484193
 30
0.0
 11
94.42584479164949
 21
128.7301586484193
 31
0.0
  0
ARC
  5
1696
330
21
100
AcDbEntity
  8
fuzoku
100
AcDbCircle
 10
94.27584479164947
 20
128.8801586484193
 30
0.0
 40
2.0
100
AcDbArc
 50
24.14684799650332
 51
74.25945147483151
  0
ARC
  5
1697
330
21
100
AcDbEntity
  8
fuzoku
100
AcDbCircle
 10
94.27584479164947
 20
128.8801586484193
 30
0.0
 40
2.0
100
AcDbArc
 50
285.7405485251685
 51
335.8531520035003
  0
ARC
  5
1698
330
21
100
AcDbEntity
  8
fuzoku
100
AcDbCircle
 10
94.27584479164947
 20
128.8801586484193
 30
0.0
 40
2.0
100
AcDbArc
 50
204.1468479965033
 51
254.2594514748315
  0
CIRCLE
  5
1699
330
21
100
AcDbEntity
  8
fuzoku
100
AcDbCircle
 10
94.27584479164947
 20
128.8801586484193
 30
0.0
 40
1.5
  0
ARC
  5
169A
330
21
100
AcDbEntity
  8
fuzoku
100
AcDbCircle
 10
94.27584479164947
 20
128.8801586484193
 30
0.0
 40
2.0
100
AcDbArc
 50
105.7405485251685
 51
155.8531520035003
  0
LINE
  5
169B
330
21
100
AcDbEntity
  8
fuzoku
100
AcDbLine
 10
96.10084479164948
 20
130.8051586484193
 30
0.0
 11
92.45084479164948
 21
130.8051586484193
 31
0.0
  0
LINE
  5
169C
330
21
100
AcDbEntity
  8
fuzoku
100
AcDbLine
 10
96.10084479164948
 20
131.0551586484193
 30
0.0
 11
92.45084479164948
 21
131.0551586484193
 31
0.0
  0
LINE
  5
169D
330
21
100
AcDbEntity
  8
fuzoku
100
AcDbLine
 10
96.10084479164951
 20
126.9551586484193
 30
0.0
 11
92.45084479164948
 21
126.9551586484193
 31
0.0
  0
LINE
  5
169E
330
21
100
AcDbEntity
  8
gaikei
100
AcDbLine
 10
92.45084479164948
 20
126.5551586484192
 30
0.0
 11
92.45084479164948
 21
133.0551586484193
 31
0.0
  0
LINE
  5
169F
330
21
100
AcDbEntity
  8
gaikei
100
AcDbLine
 10
96.10084479164951
 20
126.5551586484193
 30
0.0
 11
92.45084479164948
 21
126.5551586484192
 31
0.0
  0
LINE
  5
16A0
330
21
100
AcDbEntity
  8
gaikei
100
AcDbLine
 10
96.10084479164948
 20
133.0551586484193
 30
0.0
 11
96.10084479164951
 21
126.5551586484193
 31
0.0
  0
LINE
  5
16A1
330
21
100
AcDbEntity
  8
gaikei
100
AcDbLine
 10
88.10084479164945
 20
132.0551586484193
 30
0.0
 11
91.75084479164949
 21
132.0551586484193
 31
0.0
  0
LINE
  5
16A2
330
21
100
AcDbEntity
  8
fuzoku
100
AcDbLine
 10
88.43336363598954
 20
128.7301586484193
 30
0.0
 11
89.77584479164946
 21
128.7301586484193
 31
0.0
  0
LINE
  5
16A3
330
21
100
AcDbEntity
  8
fuzoku
100
AcDbLine
 10
88.43336363598954
 20
129.0301586484192
 30
0.0
 11
89.77584479164946
 21
129.0301586484192
 31
0.0
  0
LINE
  5
16A4
330
21
100
AcDbEntity
  8
fuzoku
100
AcDbLine
 10
89.77584479164946
 20
129.0301586484192
 30
0.0
 11
89.77584479164951
 21
130.1301586484192
 31
0.0
  0
LINE
  5
16A5
330
21
100
AcDbEntity
  8
fuzoku
100
AcDbLine
 10
90.07584479164947
 20
129.0301586484192
 30
0.0
 11
90.07584479164947
 21
130.1301586484192
 31
0.0
  0
LINE
  5
16A6
330
21
100
AcDbEntity
  8
fuzoku
100
AcDbLine
 10
90.07584479164947
 20
129.0301586484192
 30
0.0
 11
91.4183259473094
 21
129.0301586484192
 31
0.0
  0
LINE
  5
16A7
330
21
100
AcDbEntity
  8
fuzoku
100
AcDbLine
 10
90.07584479164947
 20
128.7301586484193
 30
0.0
 11
91.4183259473094
 21
128.7301586484193
 31
0.0
  0
LINE
  5
16A8
330
21
100
AcDbEntity
  8
fuzoku
100
AcDbLine
 10
89.77584479164951
 20
127.6301586484193
 30
0.0
 11
89.77584479164946
 21
128.7301586484193
 31
0.0
  0
LINE
  5
16A9
330
21
100
AcDbEntity
  8
fuzoku
100
AcDbLine
 10
90.0758447916495
 20
127.6301586484193
 30
0.0
 11
90.07584479164947
 21
128.7301586484193
 31
0.0
  0
ARC
  5
16AA
330
21
100
AcDbEntity
  8
fuzoku
100
AcDbCircle
 10
89.92584479164946
 20
128.8801586484193
 30
0.0
 40
2.0
100
AcDbArc
 50
24.14684799650332
 51
74.25945147483151
  0
ARC
  5
16AB
330
21
100
AcDbEntity
  8
fuzoku
100
AcDbCircle
 10
89.92584479164946
 20
128.8801586484193
 30
0.0
 40
2.0
100
AcDbArc
 50
285.7405485251685
 51
335.8531520035003
  0
ARC
  5
16AC
330
21
100
AcDbEntity
  8
fuzoku
100
AcDbCircle
 10
89.92584479164946
 20
128.8801586484193
 30
0.0
 40
2.0
100
AcDbArc
 50
204.1468479965033
 51
254.2594514748315
  0
CIRCLE
  5
16AD
330
21
100
AcDbEntity
  8
fuzoku
100
AcDbCircle
 10
89.92584479164946
 20
128.8801586484193
 30
0.0
 40
1.5
  0
ARC
  5
16AE
330
21
100
AcDbEntity
  8
fuzoku
100
AcDbCircle
 10
89.92584479164946
 20
128.8801586484193
 30
0.0
 40
2.0
100
AcDbArc
 50
105.7405485251685
 51
155.8531520035003
  0
LINE
  5
16AF
330
21
100
AcDbEntity
  8
fuzoku
100
AcDbLine
 10
91.75084479164949
 20
130.8051586484193
 30
0.0
 11
88.10084479164945
 21
130.8051586484193
 31
0.0
  0
LINE
  5
16B0
330
21
100
AcDbEntity
  8
fuzoku
100
AcDbLine
 10
91.75084479164949
 20
131.0551586484193
 30
0.0
 11
88.10084479164945
 21
131.0551586484193
 31
0.0
  0
LINE
  5
16B1
330
21
100
AcDbEntity
  8
fuzoku
100
AcDbLine
 10
91.75084479164949
 20
126.9551586484193
 30
0.0
 11
88.10084479164947
 21
126.9551586484193
 31
0.0
  0
LINE
  5
16B2
330
21
100
AcDbEntity
  8
gaikei
100
AcDbLine
 10
88.10084479164947
 20
126.5551586484192
 30
0.0
 11
88.10084479164945
 21
133.0551586484193
 31
0.0
  0
LINE
  5
16B3
330
21
100
AcDbEntity
  8
gaikei
100
AcDbLine
 10
91.75084479164949
 20
126.5551586484192
 30
0.0
 11
88.10084479164947
 21
126.5551586484192
 31
0.0
  0
LINE
  5
16B4
330
21
100
AcDbEntity
  8
gaikei
100
AcDbLine
 10
91.75084479164949
 20
133.0551586484193
 30
0.0
 11
91.75084479164949
 21
126.5551586484192
 31
0.0
  0
LINE
  5
16B5
330
21
100
AcDbEntity
  8
gaikei
100
AcDbLine
 10
101.1508447916494
 20
132.0551586484193
 30
0.0
 11
104.8008447916494
 21
132.0551586484193
 31
0.0
  0
LINE
  5
16B6
330
21
100
AcDbEntity
  8
fuzoku
100
AcDbLine
 10
101.4833636359895
 20
128.7301586484193
 30
0.0
 11
102.8258447916494
 21
128.7301586484193
 31
0.0
  0
LINE
  5
16B7
330
21
100
AcDbEntity
  8
fuzoku
100
AcDbLine
 10
101.4833636359895
 20
129.0301586484192
 30
0.0
 11
102.8258447916494
 21
129.0301586484192
 31
0.0
  0
LINE
  5
16B8
330
21
100
AcDbEntity
  8
fuzoku
100
AcDbLine
 10
102.8258447916494
 20
129.0301586484192
 30
0.0
 11
102.8258447916494
 21
130.1301586484193
 31
0.0
  0
LINE
  5
16B9
330
21
100
AcDbEntity
  8
fuzoku
100
AcDbLine
 10
103.1258447916495
 20
129.0301586484192
 30
0.0
 11
103.1258447916495
 21
130.1301586484193
 31
0.0
  0
LINE
  5
16BA
330
21
100
AcDbEntity
  8
fuzoku
100
AcDbLine
 10
103.1258447916495
 20
129.0301586484192
 30
0.0
 11
104.4683259473094
 21
129.0301586484192
 31
0.0
  0
LINE
  5
16BB
330
21
100
AcDbEntity
  8
fuzoku
100
AcDbLine
 10
103.1258447916495
 20
128.7301586484193
 30
0.0
 11
104.4683259473094
 21
128.7301586484193
 31
0.0
  0
LINE
  5
16BC
330
21
100
AcDbEntity
  8
fuzoku
100
AcDbLine
 10
102.8258447916494
 20
127.6301586484193
 30
0.0
 11
102.8258447916494
 21
128.7301586484193
 31
0.0
  0
LINE
  5
16BD
330
21
100
AcDbEntity
  8
fuzoku
100
AcDbLine
 10
103.1258447916495
 20
127.6301586484193
 30
0.0
 11
103.1258447916495
 21
128.7301586484193
 31
0.0
  0
ARC
  5
16BE
330
21
100
AcDbEntity
  8
fuzoku
100
AcDbCircle
 10
102.9758447916494
 20
128.8801586484193
 30
0.0
 40
2.0
100
AcDbArc
 50
24.14684799650332
 51
74.25945147483151
  0
ARC
  5
16BF
330
21
100
AcDbEntity
  8
fuzoku
100
AcDbCircle
 10
102.9758447916494
 20
128.8801586484193
 30
0.0
 40
2.0
100
AcDbArc
 50
285.7405485251685
 51
335.8531520035003
  0
ARC
  5
16C0
330
21
100
AcDbEntity
  8
fuzoku
100
AcDbCircle
 10
102.9758447916494
 20
128.8801586484193
 30
0.0
 40
2.0
100
AcDbArc
 50
204.1468479965033
 51
254.2594514748315
  0
CIRCLE
  5
16C1
330
21
100
AcDbEntity
  8
fuzoku
100
AcDbCircle
 10
102.9758447916494
 20
128.8801586484193
 30
0.0
 40
1.5
  0
ARC
  5
16C2
330
21
100
AcDbEntity
  8
fuzoku
100
AcDbCircle
 10
102.9758447916494
 20
128.8801586484193
 30
0.0
 40
2.0
100
AcDbArc
 50
105.7405485251685
 51
155.8531520035003
  0
LINE
  5
16C3
330
21
100
AcDbEntity
  8
fuzoku
100
AcDbLine
 10
104.8008447916494
 20
130.8051586484193
 30
0.0
 11
101.1508447916494
 21
130.8051586484193
 31
0.0
  0
LINE
  5
16C4
330
21
100
AcDbEntity
  8
fuzoku
100
AcDbLine
 10
104.8008447916494
 20
131.0551586484193
 30
0.0
 11
101.1508447916494
 21
131.0551586484193
 31
0.0
  0
LINE
  5
16C5
330
21
100
AcDbEntity
  8
fuzoku
100
AcDbLine
 10
104.8008447916495
 20
126.9551586484193
 30
0.0
 11
101.1508447916494
 21
126.9551586484193
 31
0.0
  0
LINE
  5
16C6
330
21
100
AcDbEntity
  8
gaikei
100
AcDbLine
 10
101.1508447916494
 20
126.5551586484193
 30
0.0
 11
101.1508447916494
 21
133.0551586484193
 31
0.0
  0
LINE
  5
16C7
330
21
100
AcDbEntity
  8
gaikei
100
AcDbLine
 10
104.8008447916495
 20
126.5551586484193
 30
0.0
 11
101.1508447916494
 21
126.5551586484193
 31
0.0
  0
LINE
  5
16C8
330
21
100
AcDbEntity
  8
gaikei
100
AcDbLine
 10
104.8008447916494
 20
133.0551586484193
 30
0.0
 11
104.8008447916495
 21
126.5551586484193
 31
0.0
  0
LINE
  5
16C9
330
21
100
AcDbEntity
  8
gaikei
100
AcDbLine
 10
105.5008447916494
 20
132.0551586484193
 30
0.0
 11
109.1508447916494
 21
132.0551586484193
 31
0.0
  0
LINE
  5
16CA
330
21
100
AcDbEntity
  8
fuzoku
100
AcDbLine
 10
105.8333636359895
 20
128.7301586484193
 30
0.0
 11
107.1758447916495
 21
128.7301586484193
 31
0.0
  0
LINE
  5
16CB
330
21
100
AcDbEntity
  8
fuzoku
100
AcDbLine
 10
105.8333636359895
 20
129.0301586484192
 30
0.0
 11
107.1758447916494
 21
129.0301586484193
 31
0.0
  0
LINE
  5
16CC
330
21
100
AcDbEntity
  8
fuzoku
100
AcDbLine
 10
107.1758447916494
 20
129.0301586484193
 30
0.0
 11
107.1758447916495
 21
130.1301586484193
 31
0.0
  0
LINE
  5
16CD
330
21
100
AcDbEntity
  8
fuzoku
100
AcDbLine
 10
107.4758447916495
 20
129.0301586484193
 30
0.0
 11
107.4758447916495
 21
130.1301586484193
 31
0.0
  0
LINE
  5
16CE
330
21
100
AcDbEntity
  8
fuzoku
100
AcDbLine
 10
107.4758447916495
 20
129.0301586484193
 30
0.0
 11
108.8183259473094
 21
129.0301586484192
 31
0.0
  0
LINE
  5
16CF
330
21
100
AcDbEntity
  8
fuzoku
100
AcDbLine
 10
107.4758447916495
 20
128.7301586484193
 30
0.0
 11
108.8183259473094
 21
128.7301586484193
 31
0.0
  0
LINE
  5
16D0
330
21
100
AcDbEntity
  8
fuzoku
100
AcDbLine
 10
107.1758447916495
 20
127.6301586484193
 30
0.0
 11
107.1758447916495
 21
128.7301586484193
 31
0.0
  0
LINE
  5
16D1
330
21
100
AcDbEntity
  8
fuzoku
100
AcDbLine
 10
107.4758447916495
 20
127.6301586484193
 30
0.0
 11
107.4758447916495
 21
128.7301586484193
 31
0.0
  0
ARC
  5
16D2
330
21
100
AcDbEntity
  8
fuzoku
100
AcDbCircle
 10
107.3258447916495
 20
128.8801586484193
 30
0.0
 40
2.0
100
AcDbArc
 50
24.14684799650332
 51
74.25945147483151
  0
ARC
  5
16D3
330
21
100
AcDbEntity
  8
fuzoku
100
AcDbCircle
 10
107.3258447916495
 20
128.8801586484193
 30
0.0
 40
2.0
100
AcDbArc
 50
285.7405485251685
 51
335.8531520035003
  0
ARC
  5
16D4
330
21
100
AcDbEntity
  8
fuzoku
100
AcDbCircle
 10
107.3258447916495
 20
128.8801586484193
 30
0.0
 40
2.0
100
AcDbArc
 50
204.1468479965033
 51
254.2594514748315
  0
CIRCLE
  5
16D5
330
21
100
AcDbEntity
  8
fuzoku
100
AcDbCircle
 10
107.3258447916495
 20
128.8801586484193
 30
0.0
 40
1.5
  0
ARC
  5
16D6
330
21
100
AcDbEntity
  8
fuzoku
100
AcDbCircle
 10
107.3258447916495
 20
128.8801586484193
 30
0.0
 40
2.0
100
AcDbArc
 50
105.7405485251685
 51
155.8531520035003
  0
LINE
  5
16D7
330
21
100
AcDbEntity
  8
fuzoku
100
AcDbLine
 10
109.1508447916494
 20
130.8051586484193
 30
0.0
 11
105.5008447916494
 21
130.8051586484193
 31
0.0
  0
LINE
  5
16D8
330
21
100
AcDbEntity
  8
fuzoku
100
AcDbLine
 10
109.1508447916494
 20
131.0551586484193
 30
0.0
 11
105.5008447916494
 21
131.0551586484193
 31
0.0
  0
LINE
  5
16D9
330
21
100
AcDbEntity
  8
fuzoku
100
AcDbLine
 10
109.1508447916495
 20
126.9551586484193
 30
0.0
 11
105.5008447916495
 21
126.9551586484193
 31
0.0
  0
LINE
  5
16DA
330
21
100
AcDbEntity
  8
gaikei
100
AcDbLine
 10
105.5008447916495
 20
126.5551586484193
 30
0.0
 11
105.5008447916494
 21
133.0551586484193
 31
0.0
  0
LINE
  5
16DB
330
21
100
AcDbEntity
  8
gaikei
100
AcDbLine
 10
109.1508447916495
 20
126.5551586484193
 30
0.0
 11
105.5008447916495
 21
126.5551586484193
 31
0.0
  0
LINE
  5
16DC
330
21
100
AcDbEntity
  8
gaikei
100
AcDbLine
 10
109.1508447916494
 20
133.0551586484193
 30
0.0
 11
109.1508447916495
 21
126.5551586484193
 31
0.0
  0
LINE
  5
16DD
330
21
100
AcDbEntity
  8
fuzoku
100
AcDbLine
 10
89.77584479164951
 20
127.6301586484193
 30
0.0
 11
90.0758447916495
 21
127.6301586484193
 31
0.0
  0
LINE
  5
16DE
330
21
100
AcDbEntity
  8
fuzoku
100
AcDbLine
 10
94.12584479164948
 20
127.6301586484193
 30
0.0
 11
94.42584479164949
 21
127.6301586484193
 31
0.0
  0
LINE
  5
16DF
330
21
100
AcDbEntity
  8
fuzoku
100
AcDbLine
 10
98.4758447916495
 20
127.6301586484193
 30
0.0
 11
98.77584479164951
 21
127.6301586484193
 31
0.0
  0
LINE
  5
16E0
330
21
100
AcDbEntity
  8
fuzoku
100
AcDbLine
 10
102.8258447916494
 20
127.6301586484193
 30
0.0
 11
103.1258447916495
 21
127.6301586484193
 31
0.0
  0
LINE
  5
16E1
330
21
100
AcDbEntity
  8
fuzoku
100
AcDbLine
 10
107.1758447916495
 20
127.6301586484193
 30
0.0
 11
107.4758447916495
 21
127.6301586484193
 31
0.0
  0
LINE
  5
16E2
330
21
100
AcDbEntity
  8
fuzoku
100
AcDbLine
 10
107.1758447916495
 20
130.1301586484193
 30
0.0
 11
107.4758447916495
 21
130.1301586484193
 31
0.0
  0
LINE
  5
16E3
330
21
100
AcDbEntity
  8
fuzoku
100
AcDbLine
 10
102.8258447916494
 20
130.1301586484193
 30
0.0
 11
103.1258447916495
 21
130.1301586484193
 31
0.0
  0
LINE
  5
16E4
330
21
100
AcDbEntity
  8
fuzoku
100
AcDbLine
 10
98.47584479164948
 20
130.1301586484193
 30
0.0
 11
98.77584479164951
 21
130.1301586484193
 31
0.0
  0
LINE
  5
16E5
330
21
100
AcDbEntity
  8
fuzoku
100
AcDbLine
 10
94.12584479164948
 20
130.1301586484193
 30
0.0
 11
94.42584479164949
 21
130.1301586484193
 31
0.0
  0
LINE
  5
16E6
330
21
100
AcDbEntity
  8
fuzoku
100
AcDbLine
 10
89.77584479164949
 20
130.1301586484192
 30
0.0
 11
90.07584479164947
 21
130.1301586484192
 31
0.0
  0
LINE
  5
16E7
330
21
100
AcDbEntity
  8
fuzoku
100
AcDbLine
 10
89.77584479164951
 20
100.9801586484193
 30
0.0
 11
90.07584479164952
 21
100.9801586484193
 31
0.0
  0
LINE
  5
16E8
330
21
100
AcDbEntity
  8
fuzoku
100
AcDbLine
 10
94.12584479164953
 20
100.9801586484193
 30
0.0
 11
94.42584479164954
 21
100.9801586484193
 31
0.0
  0
LINE
  5
16E9
330
21
100
AcDbEntity
  8
fuzoku
100
AcDbLine
 10
98.4758447916495
 20
100.9801586484193
 30
0.0
 11
98.77584479164955
 21
100.9801586484193
 31
0.0
  0
LINE
  5
16EA
330
21
100
AcDbEntity
  8
fuzoku
100
AcDbLine
 10
102.8258447916495
 20
100.9801586484193
 30
0.0
 11
103.1258447916495
 21
100.9801586484193
 31
0.0
  0
LINE
  5
16EB
330
21
100
AcDbEntity
  8
fuzoku
100
AcDbLine
 10
107.1758447916495
 20
100.9801586484193
 30
0.0
 11
107.4758447916495
 21
100.9801586484193
 31
0.0
  0
LINE
  5
16EC
330
21
100
AcDbEntity
  8
fuzoku
100
AcDbLine
 10
107.1758447916495
 20
103.4801586484193
 30
0.0
 11
107.4758447916495
 21
103.4801586484193
 31
0.0
  0
LINE
  5
16ED
330
21
100
AcDbEntity
  8
fuzoku
100
AcDbLine
 10
102.8258447916495
 20
103.4801586484193
 30
0.0
 11
103.1258447916495
 21
103.4801586484193
 31
0.0
  0
LINE
  5
16EE
330
21
100
AcDbEntity
  8
fuzoku
100
AcDbLine
 10
98.4758447916495
 20
103.4801586484193
 30
0.0
 11
98.77584479164955
 21
103.4801586484193
 31
0.0
  0
LINE
  5
16EF
330
21
100
AcDbEntity
  8
fuzoku
100
AcDbLine
 10
94.12584479164953
 20
103.4801586484193
 30
0.0
 11
94.42584479164954
 21
103.4801586484193
 31
0.0
  0
LINE
  5
16F0
330
21
100
AcDbEntity
  8
fuzoku
100
AcDbLine
 10
89.77584479164951
 20
103.4801586484193
 30
0.0
 11
90.07584479164952
 21
103.4801586484193
 31
0.0
  0
CIRCLE
  5
16F1
330
21
100
AcDbEntity
  8
gaikei
100
AcDbCircle
 10
96.37584479164951
 20
118.5551586484193
 30
0.0
 40
1.5
  0
LINE
  5
16F2
330
21
100
AcDbEntity
  8
gaikei
100
AcDbLine
 10
99.87584479164951
 20
117.8051586484192
 30
0.0
 11
105.3758447916495
 21
117.8051586484192
 31
0.0
  0
LINE
  5
16F3
330
21
100
AcDbEntity
  8
gaikei
100
AcDbLine
 10
99.87584479164951
 20
120.0551586484193
 30
0.0
 11
105.3758447916495
 21
120.0551586484192
 31
0.0
  0
LINE
  5
16F4
330
21
100
AcDbEntity
  8
gaikei
100
AcDbLine
 10
99.87584479164951
 20
117.8051586484192
 30
0.0
 11
99.87584479164951
 21
120.0551586484193
 31
0.0
  0
LINE
  5
16F5
330
21
100
AcDbEntity
  8
gaikei
100
AcDbLine
 10
105.3758447916495
 20
117.8051586484192
 30
0.0
 11
105.3758447916495
 21
120.0551586484192
 31
0.0
  0
LINE
  5
16F6
330
21
100
AcDbEntity
  8
gaikei
100
AcDbLine
 10
162.9732635899058
 20
106.2551586484193
 30
0.0
 11
164.7065969232391
 21
106.2551586484193
 31
0.0
  0
LINE
  5
16F7
330
21
100
AcDbEntity
  8
gaikei
100
AcDbLine
 10
164.9732635899058
 20
106.0551586484193
 30
0.0
 11
165.9732635899058
 21
106.0551586484193
 31
0.0
  0
LINE
  5
16F8
330
21
100
AcDbEntity
  8
gaikei
100
AcDbLine
 10
95.37584479164952
 20
98.05515864841936
 30
0.0
 11
95.37584479164952
 21
97.05515864841936
 31
0.0
  0
LINE
  5
16F9
330
21
100
AcDbEntity
  8
gaikei
100
AcDbLine
 10
101.8758447916495
 20
98.05515864841936
 30
0.0
 11
101.8758447916495
 21
97.05515864841936
 31
0.0
  0
LINE
  5
16FA
330
21
100
AcDbEntity
  8
gaikei
100
AcDbLine
 10
144.8232635899058
 20
117.0551586484193
 30
0.0
 11
144.8232635899058
 21
114.0551586484193
 31
0.0
  0
LINE
  5
16FB
330
21
100
AcDbEntity
  8
gaikei
100
AcDbLine
 10
144.8232635899058
 20
114.0551586484193
 30
0.0
 11
146.5732635899058
 21
114.0551586484193
 31
0.0
  0
LINE
  5
16FC
330
21
100
AcDbEntity
  8
gaikei
100
AcDbLine
 10
144.8232635899058
 20
117.0551586484193
 30
0.0
 11
146.5732635899058
 21
117.0551586484193
 31
0.0
  0
LINE
  5
16FD
330
21
100
AcDbEntity
  8
gaikei
100
AcDbLine
 10
144.5732635899059
 20
117.3051586484193
 30
0.0
 11
144.5732635899059
 21
113.8051586484193
 31
0.0
  0
LINE
  5
16FE
330
21
100
AcDbEntity
  8
gaikei
100
AcDbLine
 10
146.5732635899058
 20
117.3051586484193
 30
0.0
 11
146.5732635899058
 21
113.8051586484193
 31
0.0
  0
ARC
  5
16FF
330
21
100
AcDbEntity
  8
gaikei
100
AcDbCircle
 10
132.9732635899058
 20
98.55515864841931
 30
0.0
 40
0.5
100
AcDbArc
 50
180.0
 51
270.0
  0
ARC
  5
1700
102
{ACAD_REACTORS
330
1645
102
}
330
21
100
AcDbEntity
  8
gaikei
100
AcDbCircle
 10
132.9732635899059
 20
132.5551586484193
 30
0.0
 40
0.5
100
AcDbArc
 50
90.0
 51
180.0
  0
LINE
  5
1701
330
21
100
AcDbEntity
  8
gaikei
100
AcDbLine
 10
165.9732635899058
 20
106.0551586484193
 30
0.0
 11
165.9732635899058
 21
98.05515864841936
 31
0.0
  0
LINE
  5
1702
330
21
100
AcDbEntity
  8
gaikei
100
AcDbLine
 10
165.9732635899059
 20
123.0551586484193
 30
0.0
 11
163.6232635899058
 21
123.8051586484193
 31
0.0
  0
LINE
  5
1703
330
21
100
AcDbEntity
  8
gaikei
100
AcDbLine
 10
163.9732635899058
 20
106.8051586484193
 30
0.0
 11
165.9732635899058
 21
105.3051586484193
 31
0.0
  0
LINE
  5
1704
330
21
100
AcDbEntity
  8
gaikei
100
AcDbLine
 10
162.9732635899058
 20
106.8051586484193
 30
0.0
 11
163.9732635899058
 21
106.8051586484193
 31
0.0
  0
LINE
  5
1705
330
21
100
AcDbEntity
  8
gaikei
100
AcDbLine
 10
162.973263589906
 20
124.3051586484194
 30
0.0
 11
163.6232635899059
 21
124.3051586484194
 31
0.0
  0
LINE
  5
1706
330
21
100
AcDbEntity
  8
gaikei
100
AcDbLine
 10
163.6232635899059
 20
124.3051586484194
 30
0.0
 11
163.6232635899058
 21
123.8051586484193
 31
0.0
  0
LINE
  5
1707
330
21
100
AcDbEntity
  8
gaikei
100
AcDbLine
 10
162.973263589906
 20
124.3051586484194
 30
0.0
 11
162.9732635899058
 21
98.05515864841936
 31
0.0
  0
LINE
  5
1708
330
21
100
AcDbEntity
  8
gaikei
100
AcDbLine
 10
144.5732635899059
 20
113.8051586484193
 30
0.0
 11
146.5732635899058
 21
113.8051586484193
 31
0.0
  0
LINE
  5
1709
330
21
100
AcDbEntity
  8
gaikei
100
AcDbLine
 10
144.5732635899059
 20
117.3051586484193
 30
0.0
 11
146.5732635899058
 21
117.3051586484193
 31
0.0
  0
LINE
  5
170A
330
21
100
AcDbEntity
  8
gaikei
100
AcDbLine
 10
108.8758447916495
 20
114.0051586484193
 30
0.0
 11
109.8758447916495
 21
114.0051586484193
 31
0.0
  0
LINE
  5
170B
330
21
100
AcDbEntity
  8
gaikei
100
AcDbLine
 10
108.8758447916495
 20
117.1051586484193
 30
0.0
 11
109.8758447916495
 21
117.1051586484193
 31
0.0
  0
LINE
  5
170C
330
21
100
AcDbEntity
  8
gaikei
100
AcDbLine
 10
87.6758447916495
 20
117.1051586484193
 30
0.0
 11
87.6758447916495
 21
114.0051586484193
 31
0.0
  0
LINE
  5
170D
330
21
100
AcDbEntity
  8
gaikei
100
AcDbLine
 10
88.3758447916495
 20
117.1051586484193
 30
0.0
 11
88.37584479164949
 21
114.0051586484193
 31
0.0
  0
LINE
  5
170E
330
21
100
AcDbEntity
  8
gaikei
100
AcDbLine
 10
132.4732635899058
 20
117.1051586484193
 30
0.0
 11
142.4732635899059
 21
117.1051586484193
 31
0.0
  0
LINE
  5
170F
330
21
100
AcDbEntity
  8
gaikei
100
AcDbLine
 10
132.4732635899058
 20
114.0051586484193
 30
0.0
 11
142.4732635899059
 21
114.0051586484193
 31
0.0
  0
LINE
  5
1710
330
21
100
AcDbEntity
  8
gaikei
100
AcDbLine
 10
132.4732635899058
 20
114.0051586484193
 30
0.0
 11
132.4732635899058
 21
98.55515864841931
 31
0.0
  0
LINE
  5
1711
330
21
100
AcDbEntity
  8
gaikei
100
AcDbLine
 10
132.9732635899059
 20
117.1051586484193
 30
0.0
 11
132.9732635899059
 21
114.0051586484193
 31
0.0
  0
LINE
  5
1712
330
21
100
AcDbEntity
  8
gaikei
100
AcDbLine
 10
109.5758447916495
 20
114.0051586484193
 30
0.0
 11
109.5758447916495
 21
117.1051586484193
 31
0.0
  0
LINE
  5
1713
330
21
100
AcDbEntity
  8
gaikei
100
AcDbLine
 10
108.8758447916495
 20
114.0051586484193
 30
0.0
 11
108.8758447916495
 21
117.1051586484193
 31
0.0
  0
LINE
  5
1714
102
{ACAD_REACTORS
330
1642
330
163F
330
163C
102
}
330
21
100
AcDbEntity
  8
gaikei
100
AcDbLine
 10
87.37584479164951
 20
133.0551586484193
 30
0.0
 11
87.37584479164951
 21
98.05515864841936
 31
0.0
  0
LINE
  5
1715
102
{ACAD_REACTORS
330
1642
102
}
330
21
100
AcDbEntity
  8
gaikei
100
AcDbLine
 10
109.8758447916495
 20
133.0551586484193
 30
0.0
 11
87.37584479164951
 21
133.0551586484193
 31
0.0
  0
LINE
  5
1716
330
21
100
AcDbEntity
  8
gaikei
100
AcDbLine
 10
109.8758447916495
 20
98.05515864841936
 30
0.0
 11
109.8758447916495
 21
133.0551586484193
 31
0.0
  0
LINE
  5
1717
330
21
100
AcDbEntity
  8
gaikei
100
AcDbLine
 10
87.37584479164951
 20
98.05515864841936
 30
0.0
 11
109.8758447916495
 21
98.05515864841936
 31
0.0
  0
ARC
  5
1718
330
21
100
AcDbEntity
  8
gaikei
100
AcDbCircle
 10
94.75084479164952
 20
48.22859698283195
 30
0.0
 40
0.75
100
AcDbArc
 50
270.0
 51
0.0
  0
ARC
  5
1719
330
21
100
AcDbEntity
  8
gaikei
100
AcDbCircle
 10
102.5008447916495
 20
48.2285969828319
 30
0.0
 40
0.75
100
AcDbArc
 50
180.0
 51
269.9999999999984
  0
LINE
  5
171A
330
21
100
AcDbEntity
  8
gaikei
100
AcDbLine
 10
102.5008447916495
 20
47.4785969828319
 30
0.0
 11
102.6758447916495
 21
47.4785969828319
 31
0.0
  0
LINE
  5
171B
330
21
100
AcDbEntity
  8
gaikei
100
AcDbLine
 10
94.57584479164953
 20
47.47859698283195
 30
0.0
 11
94.75084479164952
 21
47.47859698283195
 31
0.0
  0
LINE
  5
171C
330
21
100
AcDbEntity
  8
gaikei
100
AcDbLine
 10
95.50084479164949
 20
49.27859698283191
 30
0.0
 11
95.50084479164951
 21
48.22859698283195
 31
0.0
  0
LINE
  5
171D
330
21
100
AcDbEntity
  8
gaikei
100
AcDbLine
 10
101.7508447916495
 20
49.27859698283191
 30
0.0
 11
101.7508447916495
 21
48.2285969828319
 31
0.0
  0
LINE
  5
171E
330
21
100
AcDbEntity
  8
gaikei
100
AcDbLine
 10
94.57584479164953
 20
49.27859698283191
 30
0.0
 11
102.6758447916495
 21
49.27859698283191
 31
0.0
  0
LINE
  5
171F
330
21
100
AcDbEntity
  8
gaikei
100
AcDbLine
 10
87.37584479164951
 20
49.87859698283194
 30
0.0
 11
109.8758447916495
 21
49.87859698283194
 31
0.0
  0
LINE
  5
1720
330
21
100
AcDbEntity
  8
gaikei
100
AcDbLine
 10
94.57584479164953
 20
49.87859698283194
 30
0.0
 11
94.57584479164953
 21
46.87859698283193
 31
0.0
  0
LINE
  5
1721
330
21
100
AcDbEntity
  8
gaikei
100
AcDbLine
 10
102.6758447916495
 20
49.87859698283194
 30
0.0
 11
102.6758447916495
 21
46.87859698283193
 31
0.0
  0
LINE
  5
1722
330
21
100
AcDbEntity
  8
gaikei
100
AcDbLine
 10
95.37584479164953
 20
58.87859698283193
 30
0.0
 11
95.37584479164948
 21
56.87859698283194
 31
0.0
  0
LINE
  5
1723
330
21
100
AcDbEntity
  8
gaikei
100
AcDbLine
 10
101.8758447916495
 20
58.87859698283193
 30
0.0
 11
101.8758447916495
 21
56.87859698283188
 31
0.0
  0
LINE
  5
1724
330
21
100
AcDbEntity
  8
gaikei
100
AcDbLine
 10
87.37584479164951
 20
70.37859698283194
 30
0.0
 11
109.8758447916495
 21
70.37859698283194
 31
0.0
  0
LINE
  5
1725
330
21
100
AcDbEntity
  8
gaikei
100
AcDbLine
 10
105.5008447916495
 20
80.37859698283188
 30
0.0
 11
105.5008447916495
 21
76.52859698283191
 31
0.0
  0
LINE
  5
1726
330
21
100
AcDbEntity
  8
gaikei
100
AcDbLine
 10
109.1508447916495
 20
80.37859698283188
 30
0.0
 11
109.1508447916495
 21
76.52859698283191
 31
0.0
  0
LINE
  5
1727
330
21
100
AcDbEntity
  8
fuzoku
100
AcDbLine
 10
105.5008447916495
 20
77.02859698283191
 30
0.0
 11
109.1508447916495
 21
77.02859698283191
 31
0.0
  0
LINE
  5
1728
330
21
100
AcDbEntity
  8
gaikei
100
AcDbLine
 10
105.5008447916495
 20
76.52859698283191
 30
0.0
 11
109.1508447916495
 21
76.52859698283191
 31
0.0
  0
ELLIPSE
  5
1729
330
21
100
AcDbEntity
  8
fuzoku
100
AcDbEllipse
 10
107.3258447916495
 20
77.87859698283194
 30
0.0
 11
-1.5
 21
0.0
 31
0.0
210
0.0
220
0.0
230
1.0
 40
0.8854590366110906
 41
3.141592653589793
 42
4.612221559223117
  0
LINE
  5
172A
330
21
100
AcDbEntity
  8
fuzoku
100
AcDbLine
 10
107.1758447916495
 20
79.20012790908277
 30
0.0
 11
107.1758447916495
 21
78.37859698283193
 31
0.0
  0
LINE
  5
172B
330
21
100
AcDbEntity
  8
fuzoku
100
AcDbLine
 10
107.4758447916495
 20
79.20012790908277
 30
0.0
 11
107.4758447916495
 21
78.37859698283193
 31
0.0
  0
LINE
  5
172C
330
21
100
AcDbEntity
  8
fuzoku
100
AcDbLine
 10
107.1758447916495
 20
78.37859698283193
 30
0.0
 11
107.4758447916495
 21
78.37859698283193
 31
0.0
  0
ELLIPSE
  5
172D
330
21
100
AcDbEntity
  8
fuzoku
100
AcDbEllipse
 10
107.3258447916495
 20
77.87859698283194
 30
0.0
 11
-1.5
 21
0.0
 31
0.0
210
0.0
220
0.0
230
1.0
 40
0.8854590366110906
 41
4.812556401546224
 42
6.283185307179586
  0
LINE
  5
172E
330
21
100
AcDbEntity
  8
fuzoku
100
AcDbLine
 10
105.5008447916495
 20
77.52859698283192
 30
0.0
 11
109.1508447916495
 21
77.52859698283192
 31
0.0
  0
LINE
  5
172F
330
21
100
AcDbEntity
  8
fuzoku
100
AcDbLine
 10
105.8258447916495
 20
77.87859698283194
 30
0.0
 11
108.8258447916495
 21
77.87859698283194
 31
0.0
  0
LINE
  5
1730
330
21
100
AcDbEntity
  8
fuzoku
100
AcDbLine
 10
105.8258447916495
 20
77.87859698283194
 30
0.0
 11
105.8258447916495
 21
77.52859698283192
 31
0.0
  0
LINE
  5
1731
330
21
100
AcDbEntity
  8
fuzoku
100
AcDbLine
 10
108.8258447916495
 20
77.87859698283194
 30
0.0
 11
108.8258447916495
 21
77.52859698283192
 31
0.0
  0
LINE
  5
1732
330
21
100
AcDbEntity
  8
gaikei
100
AcDbLine
 10
101.1508447916495
 20
80.37859698283188
 30
0.0
 11
101.1508447916495
 21
76.52859698283191
 31
0.0
  0
LINE
  5
1733
330
21
100
AcDbEntity
  8
gaikei
100
AcDbLine
 10
104.8008447916495
 20
80.37859698283188
 30
0.0
 11
104.8008447916495
 21
76.52859698283191
 31
0.0
  0
LINE
  5
1734
330
21
100
AcDbEntity
  8
fuzoku
100
AcDbLine
 10
101.1508447916495
 20
77.02859698283191
 30
0.0
 11
104.8008447916495
 21
77.02859698283191
 31
0.0
  0
LINE
  5
1735
330
21
100
AcDbEntity
  8
gaikei
100
AcDbLine
 10
101.1508447916495
 20
76.52859698283191
 30
0.0
 11
104.8008447916495
 21
76.52859698283191
 31
0.0
  0
ELLIPSE
  5
1736
330
21
100
AcDbEntity
  8
fuzoku
100
AcDbEllipse
 10
102.9758447916495
 20
77.87859698283194
 30
0.0
 11
-1.5
 21
0.0
 31
0.0
210
0.0
220
0.0
230
1.0
 40
0.8854590366110906
 41
3.141592653589793
 42
4.612221559223117
  0
LINE
  5
1737
330
21
100
AcDbEntity
  8
fuzoku
100
AcDbLine
 10
102.8258447916495
 20
79.20012790908277
 30
0.0
 11
102.8258447916495
 21
78.37859698283193
 31
0.0
  0
LINE
  5
1738
330
21
100
AcDbEntity
  8
fuzoku
100
AcDbLine
 10
103.1258447916495
 20
79.20012790908277
 30
0.0
 11
103.1258447916495
 21
78.37859698283193
 31
0.0
  0
LINE
  5
1739
330
21
100
AcDbEntity
  8
fuzoku
100
AcDbLine
 10
102.8258447916495
 20
78.37859698283193
 30
0.0
 11
103.1258447916495
 21
78.37859698283193
 31
0.0
  0
ELLIPSE
  5
173A
330
21
100
AcDbEntity
  8
fuzoku
100
AcDbEllipse
 10
102.9758447916495
 20
77.87859698283194
 30
0.0
 11
-1.5
 21
0.0
 31
0.0
210
0.0
220
0.0
230
1.0
 40
0.8854590366110906
 41
4.812556401546224
 42
6.283185307179586
  0
LINE
  5
173B
330
21
100
AcDbEntity
  8
fuzoku
100
AcDbLine
 10
101.1508447916495
 20
77.52859698283192
 30
0.0
 11
104.8008447916495
 21
77.52859698283192
 31
0.0
  0
LINE
  5
173C
330
21
100
AcDbEntity
  8
fuzoku
100
AcDbLine
 10
101.4758447916495
 20
77.87859698283194
 30
0.0
 11
104.4758447916495
 21
77.87859698283194
 31
0.0
  0
LINE
  5
173D
330
21
100
AcDbEntity
  8
fuzoku
100
AcDbLine
 10
101.4758447916495
 20
77.87859698283194
 30
0.0
 11
101.4758447916495
 21
77.52859698283192
 31
0.0
  0
LINE
  5
173E
330
21
100
AcDbEntity
  8
fuzoku
100
AcDbLine
 10
104.4758447916495
 20
77.87859698283194
 30
0.0
 11
104.4758447916495
 21
77.52859698283192
 31
0.0
  0
LINE
  5
173F
330
21
100
AcDbEntity
  8
gaikei
100
AcDbLine
 10
96.8008447916495
 20
80.37859698283188
 30
0.0
 11
96.8008447916495
 21
76.52859698283191
 31
0.0
  0
LINE
  5
1740
330
21
100
AcDbEntity
  8
gaikei
100
AcDbLine
 10
100.4508447916495
 20
80.37859698283188
 30
0.0
 11
100.4508447916495
 21
76.52859698283191
 31
0.0
  0
LINE
  5
1741
330
21
100
AcDbEntity
  8
fuzoku
100
AcDbLine
 10
96.80084479164953
 20
77.02859698283191
 30
0.0
 11
100.4508447916495
 21
77.02859698283191
 31
0.0
  0
LINE
  5
1742
330
21
100
AcDbEntity
  8
gaikei
100
AcDbLine
 10
96.8008447916495
 20
76.52859698283191
 30
0.0
 11
100.4508447916495
 21
76.52859698283191
 31
0.0
  0
ELLIPSE
  5
1743
330
21
100
AcDbEntity
  8
fuzoku
100
AcDbEllipse
 10
98.62584479164951
 20
77.87859698283194
 30
0.0
 11
-1.5
 21
0.0
 31
0.0
210
0.0
220
0.0
230
1.0
 40
0.8854590366110906
 41
3.141592653589793
 42
4.612221559223117
  0
LINE
  5
1744
330
21
100
AcDbEntity
  8
fuzoku
100
AcDbLine
 10
98.47584479164957
 20
79.20012790908277
 30
0.0
 11
98.47584479164957
 21
78.37859698283193
 31
0.0
  0
LINE
  5
1745
330
21
100
AcDbEntity
  8
fuzoku
100
AcDbLine
 10
98.77584479164951
 20
79.20012790908277
 30
0.0
 11
98.77584479164951
 21
78.37859698283193
 31
0.0
  0
LINE
  5
1746
330
21
100
AcDbEntity
  8
fuzoku
100
AcDbLine
 10
98.47584479164957
 20
78.37859698283193
 30
0.0
 11
98.77584479164951
 21
78.37859698283193
 31
0.0
  0
ELLIPSE
  5
1747
330
21
100
AcDbEntity
  8
fuzoku
100
AcDbEllipse
 10
98.62584479164951
 20
77.87859698283194
 30
0.0
 11
-1.5
 21
0.0
 31
0.0
210
0.0
220
0.0
230
1.0
 40
0.8854590366110906
 41
4.812556401546224
 42
6.283185307179586
  0
LINE
  5
1748
330
21
100
AcDbEntity
  8
fuzoku
100
AcDbLine
 10
96.80084479164953
 20
77.52859698283192
 30
0.0
 11
100.4508447916495
 21
77.52859698283192
 31
0.0
  0
LINE
  5
1749
330
21
100
AcDbEntity
  8
fuzoku
100
AcDbLine
 10
97.12584479164949
 20
77.87859698283194
 30
0.0
 11
100.1258447916494
 21
77.87859698283194
 31
0.0
  0
LINE
  5
174A
330
21
100
AcDbEntity
  8
fuzoku
100
AcDbLine
 10
97.12584479164952
 20
77.87859698283194
 30
0.0
 11
97.12584479164952
 21
77.52859698283192
 31
0.0
  0
LINE
  5
174B
330
21
100
AcDbEntity
  8
fuzoku
100
AcDbLine
 10
100.1258447916495
 20
77.87859698283194
 30
0.0
 11
100.1258447916495
 21
77.52859698283192
 31
0.0
  0
LINE
  5
174C
330
21
100
AcDbEntity
  8
gaikei
100
AcDbLine
 10
92.45084479164948
 20
80.37859698283188
 30
0.0
 11
92.45084479164948
 21
76.52859698283191
 31
0.0
  0
LINE
  5
174D
330
21
100
AcDbEntity
  8
gaikei
100
AcDbLine
 10
96.10084479164951
 20
80.37859698283188
 30
0.0
 11
96.10084479164953
 21
76.52859698283191
 31
0.0
  0
LINE
  5
174E
330
21
100
AcDbEntity
  8
fuzoku
100
AcDbLine
 10
92.45084479164953
 20
77.02859698283191
 30
0.0
 11
96.10084479164953
 21
77.02859698283191
 31
0.0
  0
LINE
  5
174F
330
21
100
AcDbEntity
  8
gaikei
100
AcDbLine
 10
92.45084479164948
 20
76.52859698283191
 30
0.0
 11
96.10084479164953
 21
76.52859698283191
 31
0.0
  0
ELLIPSE
  5
1750
330
21
100
AcDbEntity
  8
fuzoku
100
AcDbEllipse
 10
94.27584479164952
 20
77.87859698283194
 30
0.0
 11
-1.5
 21
0.0
 31
0.0
210
0.0
220
0.0
230
1.0
 40
0.8854590366110906
 41
3.141592653589793
 42
4.612221559223117
  0
LINE
  5
1751
330
21
100
AcDbEntity
  8
fuzoku
100
AcDbLine
 10
94.12584479164953
 20
79.20012790908277
 30
0.0
 11
94.12584479164953
 21
78.37859698283193
 31
0.0
  0
LINE
  5
1752
330
21
100
AcDbEntity
  8
fuzoku
100
AcDbLine
 10
94.42584479164953
 20
79.20012790908277
 30
0.0
 11
94.42584479164953
 21
78.37859698283193
 31
0.0
  0
LINE
  5
1753
330
21
100
AcDbEntity
  8
fuzoku
100
AcDbLine
 10
94.12584479164953
 20
78.37859698283193
 30
0.0
 11
94.42584479164953
 21
78.37859698283193
 31
0.0
  0
ELLIPSE
  5
1754
330
21
100
AcDbEntity
  8
fuzoku
100
AcDbEllipse
 10
94.27584479164952
 20
77.87859698283194
 30
0.0
 11
-1.5
 21
0.0
 31
0.0
210
0.0
220
0.0
230
1.0
 40
0.8854590366110906
 41
4.812556401546224
 42
6.283185307179586
  0
LINE
  5
1755
330
21
100
AcDbEntity
  8
fuzoku
100
AcDbLine
 10
92.45084479164953
 20
77.52859698283192
 30
0.0
 11
96.10084479164953
 21
77.52859698283192
 31
0.0
  0
LINE
  5
1756
330
21
100
AcDbEntity
  8
fuzoku
100
AcDbLine
 10
92.77584479164948
 20
77.87859698283194
 30
0.0
 11
95.77584479164949
 21
77.87859698283194
 31
0.0
  0
LINE
  5
1757
330
21
100
AcDbEntity
  8
fuzoku
100
AcDbLine
 10
92.77584479164952
 20
77.87859698283194
 30
0.0
 11
92.77584479164952
 21
77.52859698283192
 31
0.0
  0
LINE
  5
1758
330
21
100
AcDbEntity
  8
fuzoku
100
AcDbLine
 10
95.77584479164952
 20
77.87859698283194
 30
0.0
 11
95.77584479164952
 21
77.52859698283192
 31
0.0
  0
LINE
  5
1759
330
21
100
AcDbEntity
  8
fuzoku
100
AcDbLine
 10
91.4258447916495
 20
77.87859698283194
 30
0.0
 11
91.4258447916495
 21
77.52859698283192
 31
0.0
  0
LINE
  5
175A
330
21
100
AcDbEntity
  8
fuzoku
100
AcDbLine
 10
88.42584479164949
 20
77.87859698283194
 30
0.0
 11
88.42584479164949
 21
77.52859698283192
 31
0.0
  0
LINE
  5
175B
330
21
100
AcDbEntity
  8
fuzoku
100
AcDbLine
 10
88.42584479164949
 20
77.87859698283194
 30
0.0
 11
91.4258447916495
 21
77.87859698283194
 31
0.0
  0
LINE
  5
175C
330
21
100
AcDbEntity
  8
fuzoku
100
AcDbLine
 10
88.10084479164951
 20
77.52859698283192
 30
0.0
 11
91.75084479164954
 21
77.52859698283192
 31
0.0
  0
ELLIPSE
  5
175D
330
21
100
AcDbEntity
  8
fuzoku
100
AcDbEllipse
 10
89.9258447916495
 20
77.87859698283194
 30
0.0
 11
-1.5
 21
0.0
 31
0.0
210
0.0
220
0.0
230
1.0
 40
0.8854590366110906
 41
4.812556401546224
 42
6.283185307179586
  0
LINE
  5
175E
330
21
100
AcDbEntity
  8
fuzoku
100
AcDbLine
 10
89.77584479164955
 20
78.37859698283193
 30
0.0
 11
90.07584479164952
 21
78.37859698283193
 31
0.0
  0
LINE
  5
175F
330
21
100
AcDbEntity
  8
fuzoku
100
AcDbLine
 10
90.07584479164952
 20
79.20012790908277
 30
0.0
 11
90.07584479164952
 21
78.37859698283193
 31
0.0
  0
LINE
  5
1760
330
21
100
AcDbEntity
  8
fuzoku
100
AcDbLine
 10
89.77584479164955
 20
79.20012790908277
 30
0.0
 11
89.77584479164955
 21
78.37859698283193
 31
0.0
  0
ELLIPSE
  5
1761
330
21
100
AcDbEntity
  8
fuzoku
100
AcDbEllipse
 10
89.9258447916495
 20
77.87859698283194
 30
0.0
 11
-1.5
 21
0.0
 31
0.0
210
0.0
220
0.0
230
1.0
 40
0.8854590366110906
 41
3.141592653589793
 42
4.612221559223117
  0
LINE
  5
1762
330
21
100
AcDbEntity
  8
gaikei
100
AcDbLine
 10
88.10084479164951
 20
76.52859698283191
 30
0.0
 11
91.75084479164954
 21
76.52859698283191
 31
0.0
  0
LINE
  5
1763
330
21
100
AcDbEntity
  8
fuzoku
100
AcDbLine
 10
88.10084479164951
 20
77.02859698283191
 30
0.0
 11
91.75084479164954
 21
77.02859698283191
 31
0.0
  0
LINE
  5
1764
330
21
100
AcDbEntity
  8
gaikei
100
AcDbLine
 10
91.75084479164951
 20
80.37859698283188
 30
0.0
 11
91.75084479164954
 21
76.52859698283191
 31
0.0
  0
LINE
  5
1765
330
21
100
AcDbEntity
  8
gaikei
100
AcDbLine
 10
88.10084479164951
 20
80.37859698283188
 30
0.0
 11
88.10084479164951
 21
76.52859698283191
 31
0.0
  0
LINE
  5
1766
330
21
100
AcDbEntity
  8
gaikei
100
AcDbLine
 10
109.1508447916495
 20
98.05515864841936
 30
0.0
 11
109.1508447916495
 21
104.5551586484193
 31
0.0
  0
LINE
  5
1767
330
21
100
AcDbEntity
  8
gaikei
100
AcDbLine
 10
109.1508447916495
 20
104.5551586484193
 30
0.0
 11
105.5008447916495
 21
104.5551586484193
 31
0.0
  0
LINE
  5
1768
330
21
100
AcDbEntity
  8
gaikei
100
AcDbLine
 10
105.5008447916495
 20
104.5551586484193
 30
0.0
 11
105.5008447916495
 21
98.05515864841936
 31
0.0
  0
LINE
  5
1769
330
21
100
AcDbEntity
  8
fuzoku
100
AcDbLine
 10
109.1508447916495
 20
104.1551586484193
 30
0.0
 11
105.5008447916495
 21
104.1551586484193
 31
0.0
  0
LINE
  5
176A
330
21
100
AcDbEntity
  8
fuzoku
100
AcDbLine
 10
109.1508447916495
 20
100.0551586484193
 30
0.0
 11
105.5008447916495
 21
100.0551586484193
 31
0.0
  0
LINE
  5
176B
330
21
100
AcDbEntity
  8
fuzoku
100
AcDbLine
 10
109.1508447916495
 20
100.3051586484193
 30
0.0
 11
105.5008447916495
 21
100.3051586484193
 31
0.0
  0
ARC
  5
176C
330
21
100
AcDbEntity
  8
fuzoku
100
AcDbCircle
 10
107.3258447916495
 20
102.2301586484193
 30
0.0
 40
2.0
100
AcDbArc
 50
204.1468479965033
 51
254.2594514748299
  0
CIRCLE
  5
176D
330
21
100
AcDbEntity
  8
fuzoku
100
AcDbCircle
 10
107.3258447916495
 20
102.2301586484193
 30
0.0
 40
1.5
  0
ARC
  5
176E
330
21
100
AcDbEntity
  8
fuzoku
100
AcDbCircle
 10
107.3258447916495
 20
102.2301586484193
 30
0.0
 40
2.0
100
AcDbArc
 50
105.7405485251685
 51
155.8531520034966
  0
ARC
  5
176F
330
21
100
AcDbEntity
  8
fuzoku
100
AcDbCircle
 10
107.3258447916495
 20
102.2301586484193
 30
0.0
 40
2.0
100
AcDbArc
 50
24.14684799650332
 51
74.25945147482995
  0
ARC
  5
1770
330
21
100
AcDbEntity
  8
fuzoku
100
AcDbCircle
 10
107.3258447916495
 20
102.2301586484193
 30
0.0
 40
2.0
100
AcDbArc
 50
285.7405485251685
 51
335.8531520034967
  0
LINE
  5
1771
330
21
100
AcDbEntity
  8
fuzoku
100
AcDbLine
 10
107.4758447916495
 20
103.4801586484193
 30
0.0
 11
107.4758447916495
 21
102.3801586484193
 31
0.0
  0
LINE
  5
1772
330
21
100
AcDbEntity
  8
fuzoku
100
AcDbLine
 10
107.1758447916495
 20
103.4801586484193
 30
0.0
 11
107.1758447916495
 21
102.3801586484193
 31
0.0
  0
LINE
  5
1773
330
21
100
AcDbEntity
  8
fuzoku
100
AcDbLine
 10
107.4758447916495
 20
102.3801586484193
 30
0.0
 11
108.8183259473094
 21
102.3801586484193
 31
0.0
  0
LINE
  5
1774
330
21
100
AcDbEntity
  8
fuzoku
100
AcDbLine
 10
107.4758447916495
 20
102.0801586484193
 30
0.0
 11
108.8183259473094
 21
102.0801586484194
 31
0.0
  0
LINE
  5
1775
330
21
100
AcDbEntity
  8
fuzoku
100
AcDbLine
 10
107.4758447916495
 20
102.0801586484193
 30
0.0
 11
107.4758447916495
 21
100.9801586484193
 31
0.0
  0
LINE
  5
1776
330
21
100
AcDbEntity
  8
fuzoku
100
AcDbLine
 10
107.1758447916495
 20
102.0801586484193
 30
0.0
 11
107.1758447916495
 21
100.9801586484193
 31
0.0
  0
LINE
  5
1777
330
21
100
AcDbEntity
  8
fuzoku
100
AcDbLine
 10
105.8333636359895
 20
102.0801586484194
 30
0.0
 11
107.1758447916495
 21
102.0801586484193
 31
0.0
  0
LINE
  5
1778
330
21
100
AcDbEntity
  8
fuzoku
100
AcDbLine
 10
105.8333636359895
 20
102.3801586484193
 30
0.0
 11
107.1758447916495
 21
102.3801586484193
 31
0.0
  0
LINE
  5
1779
330
21
100
AcDbEntity
  8
gaikei
100
AcDbLine
 10
105.5008447916495
 20
99.05515864841937
 30
0.0
 11
109.1508447916495
 21
99.05515864841937
 31
0.0
  0
LINE
  5
177A
330
21
100
AcDbEntity
  8
gaikei
100
AcDbLine
 10
104.8008447916495
 20
98.05515864841936
 30
0.0
 11
104.8008447916495
 21
104.5551586484193
 31
0.0
  0
LINE
  5
177B
330
21
100
AcDbEntity
  8
gaikei
100
AcDbLine
 10
104.8008447916495
 20
104.5551586484193
 30
0.0
 11
101.1508447916495
 21
104.5551586484193
 31
0.0
  0
LINE
  5
177C
330
21
100
AcDbEntity
  8
gaikei
100
AcDbLine
 10
101.1508447916495
 20
104.5551586484193
 30
0.0
 11
101.1508447916495
 21
98.05515864841936
 31
0.0
  0
LINE
  5
177D
330
21
100
AcDbEntity
  8
fuzoku
100
AcDbLine
 10
104.8008447916495
 20
104.1551586484193
 30
0.0
 11
101.1508447916495
 21
104.1551586484193
 31
0.0
  0
LINE
  5
177E
330
21
100
AcDbEntity
  8
fuzoku
100
AcDbLine
 10
104.8008447916495
 20
100.0551586484193
 30
0.0
 11
101.1508447916495
 21
100.0551586484193
 31
0.0
  0
LINE
  5
177F
330
21
100
AcDbEntity
  8
fuzoku
100
AcDbLine
 10
104.8008447916495
 20
100.3051586484193
 30
0.0
 11
101.1508447916495
 21
100.3051586484193
 31
0.0
  0
ARC
  5
1780
330
21
100
AcDbEntity
  8
fuzoku
100
AcDbCircle
 10
102.9758447916495
 20
102.2301586484193
 30
0.0
 40
2.0
100
AcDbArc
 50
204.1468479965033
 51
254.2594514748299
  0
CIRCLE
  5
1781
330
21
100
AcDbEntity
  8
fuzoku
100
AcDbCircle
 10
102.9758447916495
 20
102.2301586484193
 30
0.0
 40
1.5
  0
ARC
  5
1782
330
21
100
AcDbEntity
  8
fuzoku
100
AcDbCircle
 10
102.9758447916495
 20
102.2301586484193
 30
0.0
 40
2.0
100
AcDbArc
 50
105.7405485251685
 51
155.8531520034966
  0
ARC
  5
1783
330
21
100
AcDbEntity
  8
fuzoku
100
AcDbCircle
 10
102.9758447916495
 20
102.2301586484193
 30
0.0
 40
2.0
100
AcDbArc
 50
24.14684799650332
 51
74.25945147482995
  0
ARC
  5
1784
330
21
100
AcDbEntity
  8
fuzoku
100
AcDbCircle
 10
102.9758447916495
 20
102.2301586484193
 30
0.0
 40
2.0
100
AcDbArc
 50
285.7405485251685
 51
335.8531520034967
  0
LINE
  5
1785
330
21
100
AcDbEntity
  8
fuzoku
100
AcDbLine
 10
103.1258447916495
 20
103.4801586484193
 30
0.0
 11
103.1258447916495
 21
102.3801586484193
 31
0.0
  0
LINE
  5
1786
330
21
100
AcDbEntity
  8
fuzoku
100
AcDbLine
 10
102.8258447916495
 20
103.4801586484193
 30
0.0
 11
102.8258447916495
 21
102.3801586484193
 31
0.0
  0
LINE
  5
1787
330
21
100
AcDbEntity
  8
fuzoku
100
AcDbLine
 10
103.1258447916495
 20
102.3801586484193
 30
0.0
 11
104.4683259473094
 21
102.3801586484193
 31
0.0
  0
LINE
  5
1788
330
21
100
AcDbEntity
  8
fuzoku
100
AcDbLine
 10
103.1258447916495
 20
102.0801586484193
 30
0.0
 11
104.4683259473094
 21
102.0801586484194
 31
0.0
  0
LINE
  5
1789
330
21
100
AcDbEntity
  8
fuzoku
100
AcDbLine
 10
103.1258447916495
 20
102.0801586484193
 30
0.0
 11
103.1258447916495
 21
100.9801586484193
 31
0.0
  0
LINE
  5
178A
330
21
100
AcDbEntity
  8
fuzoku
100
AcDbLine
 10
102.8258447916494
 20
102.0801586484193
 30
0.0
 11
102.8258447916495
 21
100.9801586484193
 31
0.0
  0
LINE
  5
178B
330
21
100
AcDbEntity
  8
fuzoku
100
AcDbLine
 10
101.4833636359895
 20
102.0801586484194
 30
0.0
 11
102.8258447916494
 21
102.0801586484193
 31
0.0
  0
LINE
  5
178C
330
21
100
AcDbEntity
  8
fuzoku
100
AcDbLine
 10
101.4833636359895
 20
102.3801586484193
 30
0.0
 11
102.8258447916495
 21
102.3801586484193
 31
0.0
  0
LINE
  5
178D
330
21
100
AcDbEntity
  8
gaikei
100
AcDbLine
 10
101.1508447916495
 20
99.05515864841937
 30
0.0
 11
104.8008447916495
 21
99.05515864841937
 31
0.0
  0
LINE
  5
178E
330
21
100
AcDbEntity
  8
gaikei
100
AcDbLine
 10
91.75084479164951
 20
98.05515864841936
 30
0.0
 11
91.75084479164951
 21
104.5551586484193
 31
0.0
  0
LINE
  5
178F
330
21
100
AcDbEntity
  8
gaikei
100
AcDbLine
 10
91.75084479164951
 20
104.5551586484193
 30
0.0
 11
88.10084479164951
 21
104.5551586484193
 31
0.0
  0
LINE
  5
1790
330
21
100
AcDbEntity
  8
gaikei
100
AcDbLine
 10
88.10084479164951
 20
104.5551586484193
 30
0.0
 11
88.10084479164951
 21
98.05515864841936
 31
0.0
  0
LINE
  5
1791
330
21
100
AcDbEntity
  8
fuzoku
100
AcDbLine
 10
91.75084479164951
 20
104.1551586484193
 30
0.0
 11
88.10084479164951
 21
104.1551586484193
 31
0.0
  0
LINE
  5
1792
330
21
100
AcDbEntity
  8
fuzoku
100
AcDbLine
 10
91.75084479164951
 20
100.0551586484193
 30
0.0
 11
88.10084479164951
 21
100.0551586484193
 31
0.0
  0
LINE
  5
1793
330
21
100
AcDbEntity
  8
fuzoku
100
AcDbLine
 10
91.75084479164951
 20
100.3051586484193
 30
0.0
 11
88.10084479164951
 21
100.3051586484193
 31
0.0
  0
ARC
  5
1794
330
21
100
AcDbEntity
  8
fuzoku
100
AcDbCircle
 10
89.9258447916495
 20
102.2301586484193
 30
0.0
 40
2.0
100
AcDbArc
 50
204.1468479965033
 51
254.2594514748299
  0
CIRCLE
  5
1795
330
21
100
AcDbEntity
  8
fuzoku
100
AcDbCircle
 10
89.9258447916495
 20
102.2301586484193
 30
0.0
 40
1.5
  0
ARC
  5
1796
330
21
100
AcDbEntity
  8
fuzoku
100
AcDbCircle
 10
89.9258447916495
 20
102.2301586484193
 30
0.0
 40
2.0
100
AcDbArc
 50
105.7405485251685
 51
155.8531520034966
  0
ARC
  5
1797
330
21
100
AcDbEntity
  8
fuzoku
100
AcDbCircle
 10
89.9258447916495
 20
102.2301586484193
 30
0.0
 40
2.0
100
AcDbArc
 50
24.14684799650332
 51
74.25945147482995
  0
ARC
  5
1798
330
21
100
AcDbEntity
  8
fuzoku
100
AcDbCircle
 10
89.9258447916495
 20
102.2301586484193
 30
0.0
 40
2.0
100
AcDbArc
 50
285.7405485251685
 51
335.8531520034967
  0
LINE
  5
1799
330
21
100
AcDbEntity
  8
fuzoku
100
AcDbLine
 10
90.07584479164952
 20
103.4801586484193
 30
0.0
 11
90.07584479164952
 21
102.3801586484193
 31
0.0
  0
LINE
  5
179A
330
21
100
AcDbEntity
  8
fuzoku
100
AcDbLine
 10
89.77584479164951
 20
103.4801586484193
 30
0.0
 11
89.77584479164951
 21
102.3801586484193
 31
0.0
  0
LINE
  5
179B
330
21
100
AcDbEntity
  8
fuzoku
100
AcDbLine
 10
90.07584479164952
 20
102.3801586484193
 30
0.0
 11
91.41832594730946
 21
102.3801586484193
 31
0.0
  0
LINE
  5
179C
330
21
100
AcDbEntity
  8
fuzoku
100
AcDbLine
 10
90.07584479164952
 20
102.0801586484193
 30
0.0
 11
91.41832594730946
 21
102.0801586484194
 31
0.0
  0
LINE
  5
179D
330
21
100
AcDbEntity
  8
fuzoku
100
AcDbLine
 10
90.07584479164952
 20
102.0801586484193
 30
0.0
 11
90.07584479164952
 21
100.9801586484193
 31
0.0
  0
LINE
  5
179E
330
21
100
AcDbEntity
  8
fuzoku
100
AcDbLine
 10
89.77584479164949
 20
102.0801586484193
 30
0.0
 11
89.77584479164955
 21
100.9801586484193
 31
0.0
  0
LINE
  5
179F
330
21
100
AcDbEntity
  8
fuzoku
100
AcDbLine
 10
88.43336363598959
 20
102.0801586484194
 30
0.0
 11
89.77584479164949
 21
102.0801586484193
 31
0.0
  0
LINE
  5
17A0
330
21
100
AcDbEntity
  8
fuzoku
100
AcDbLine
 10
88.43336363598959
 20
102.3801586484193
 30
0.0
 11
89.77584479164951
 21
102.3801586484193
 31
0.0
  0
LINE
  5
17A1
330
21
100
AcDbEntity
  8
gaikei
100
AcDbLine
 10
88.10084479164951
 20
99.05515864841937
 30
0.0
 11
91.75084479164951
 21
99.05515864841937
 31
0.0
  0
LINE
  5
17A2
330
21
100
AcDbEntity
  8
gaikei
100
AcDbLine
 10
96.10084479164951
 20
98.05515864841936
 30
0.0
 11
96.10084479164951
 21
104.5551586484193
 31
0.0
  0
LINE
  5
17A3
330
21
100
AcDbEntity
  8
gaikei
100
AcDbLine
 10
96.10084479164951
 20
104.5551586484193
 30
0.0
 11
92.45084479164953
 21
104.5551586484193
 31
0.0
  0
LINE
  5
17A4
330
21
100
AcDbEntity
  8
gaikei
100
AcDbLine
 10
92.45084479164953
 20
104.5551586484193
 30
0.0
 11
92.45084479164953
 21
98.05515864841936
 31
0.0
  0
LINE
  5
17A5
330
21
100
AcDbEntity
  8
fuzoku
100
AcDbLine
 10
96.10084479164951
 20
104.1551586484193
 30
0.0
 11
92.45084479164953
 21
104.1551586484193
 31
0.0
  0
LINE
  5
17A6
330
21
100
AcDbEntity
  8
fuzoku
100
AcDbLine
 10
96.10084479164951
 20
100.0551586484193
 30
0.0
 11
92.45084479164953
 21
100.0551586484193
 31
0.0
  0
LINE
  5
17A7
330
21
100
AcDbEntity
  8
fuzoku
100
AcDbLine
 10
96.10084479164951
 20
100.3051586484193
 30
0.0
 11
92.45084479164953
 21
100.3051586484193
 31
0.0
  0
ARC
  5
17A8
330
21
100
AcDbEntity
  8
fuzoku
100
AcDbCircle
 10
94.27584479164952
 20
102.2301586484193
 30
0.0
 40
2.0
100
AcDbArc
 50
204.1468479965033
 51
254.2594514748299
  0
CIRCLE
  5
17A9
330
21
100
AcDbEntity
  8
fuzoku
100
AcDbCircle
 10
94.27584479164952
 20
102.2301586484193
 30
0.0
 40
1.5
  0
ARC
  5
17AA
330
21
100
AcDbEntity
  8
fuzoku
100
AcDbCircle
 10
94.27584479164952
 20
102.2301586484193
 30
0.0
 40
2.0
100
AcDbArc
 50
105.7405485251685
 51
155.8531520034966
  0
ARC
  5
17AB
330
21
100
AcDbEntity
  8
fuzoku
100
AcDbCircle
 10
94.27584479164952
 20
102.2301586484193
 30
0.0
 40
2.0
100
AcDbArc
 50
24.14684799650332
 51
74.25945147482995
  0
ARC
  5
17AC
330
21
100
AcDbEntity
  8
fuzoku
100
AcDbCircle
 10
94.27584479164952
 20
102.2301586484193
 30
0.0
 40
2.0
100
AcDbArc
 50
285.7405485251685
 51
335.8531520034967
  0
LINE
  5
17AD
330
21
100
AcDbEntity
  8
fuzoku
100
AcDbLine
 10
94.42584479164954
 20
103.4801586484193
 30
0.0
 11
94.42584479164953
 21
102.3801586484193
 31
0.0
  0
LINE
  5
17AE
330
21
100
AcDbEntity
  8
fuzoku
100
AcDbLine
 10
94.12584479164953
 20
103.4801586484193
 30
0.0
 11
94.12584479164953
 21
102.3801586484193
 31
0.0
  0
LINE
  5
17AF
330
21
100
AcDbEntity
  8
fuzoku
100
AcDbLine
 10
94.42584479164953
 20
102.3801586484193
 30
0.0
 11
95.76832594730944
 21
102.3801586484193
 31
0.0
  0
LINE
  5
17B0
330
21
100
AcDbEntity
  8
fuzoku
100
AcDbLine
 10
94.42584479164953
 20
102.0801586484193
 30
0.0
 11
95.76832594730944
 21
102.0801586484194
 31
0.0
  0
LINE
  5
17B1
330
21
100
AcDbEntity
  8
fuzoku
100
AcDbLine
 10
94.42584479164953
 20
102.0801586484193
 30
0.0
 11
94.42584479164953
 21
100.9801586484193
 31
0.0
  0
LINE
  5
17B2
330
21
100
AcDbEntity
  8
fuzoku
100
AcDbLine
 10
94.12584479164948
 20
102.0801586484193
 30
0.0
 11
94.12584479164957
 21
100.9801586484193
 31
0.0
  0
LINE
  5
17B3
330
21
100
AcDbEntity
  8
fuzoku
100
AcDbLine
 10
92.78336363598958
 20
102.0801586484194
 30
0.0
 11
94.12584479164948
 21
102.0801586484193
 31
0.0
  0
LINE
  5
17B4
330
21
100
AcDbEntity
  8
fuzoku
100
AcDbLine
 10
92.78336363598958
 20
102.3801586484193
 30
0.0
 11
94.12584479164953
 21
102.3801586484193
 31
0.0
  0
LINE
  5
17B5
330
21
100
AcDbEntity
  8
gaikei
100
AcDbLine
 10
92.45084479164953
 20
99.05515864841937
 30
0.0
 11
96.10084479164951
 21
99.05515864841937
 31
0.0
  0
LINE
  5
17B6
330
21
100
AcDbEntity
  8
gaikei
100
AcDbLine
 10
96.8008447916495
 20
99.05515864841937
 30
0.0
 11
100.4508447916495
 21
99.05515864841937
 31
0.0
  0
LINE
  5
17B7
330
21
100
AcDbEntity
  8
fuzoku
100
AcDbLine
 10
97.13336363598958
 20
102.3801586484193
 30
0.0
 11
98.4758447916495
 21
102.3801586484193
 31
0.0
  0
LINE
  5
17B8
330
21
100
AcDbEntity
  8
fuzoku
100
AcDbLine
 10
97.13336363598958
 20
102.0801586484194
 30
0.0
 11
98.4758447916495
 21
102.0801586484193
 31
0.0
  0
LINE
  5
17B9
330
21
100
AcDbEntity
  8
fuzoku
100
AcDbLine
 10
98.4758447916495
 20
102.0801586484193
 30
0.0
 11
98.47584479164957
 21
100.9801586484193
 31
0.0
  0
LINE
  5
17BA
330
21
100
AcDbEntity
  8
fuzoku
100
AcDbLine
 10
98.77584479164951
 20
102.0801586484193
 30
0.0
 11
98.77584479164951
 21
100.9801586484193
 31
0.0
  0
LINE
  5
17BB
330
21
100
AcDbEntity
  8
fuzoku
100
AcDbLine
 10
98.77584479164951
 20
102.0801586484193
 30
0.0
 11
100.1183259473094
 21
102.0801586484194
 31
0.0
  0
LINE
  5
17BC
330
21
100
AcDbEntity
  8
fuzoku
100
AcDbLine
 10
98.77584479164951
 20
102.3801586484193
 30
0.0
 11
100.1183259473094
 21
102.3801586484193
 31
0.0
  0
LINE
  5
17BD
330
21
100
AcDbEntity
  8
fuzoku
100
AcDbLine
 10
98.4758447916495
 20
103.4801586484193
 30
0.0
 11
98.4758447916495
 21
102.3801586484193
 31
0.0
  0
LINE
  5
17BE
330
21
100
AcDbEntity
  8
fuzoku
100
AcDbLine
 10
98.77584479164955
 20
103.4801586484193
 30
0.0
 11
98.77584479164951
 21
102.3801586484193
 31
0.0
  0
LINE
  5
17BF
330
21
100
AcDbEntity
  8
hojo
100
AcDbLine
 10
96.8008447916495
 20
102.2301586484193
 30
0.0
 11
100.4508447916495
 21
102.2301586484193
 31
0.0
  0
ARC
  5
17C0
330
21
100
AcDbEntity
  8
fuzoku
100
AcDbCircle
 10
98.62584479164951
 20
102.2301586484193
 30
0.0
 40
2.0
100
AcDbArc
 50
285.7405485251685
 51
335.8531520034967
  0
ARC
  5
17C1
330
21
100
AcDbEntity
  8
fuzoku
100
AcDbCircle
 10
98.62584479164951
 20
102.2301586484193
 30
0.0
 40
2.0
100
AcDbArc
 50
24.14684799650332
 51
74.25945147482995
  0
ARC
  5
17C2
330
21
100
AcDbEntity
  8
fuzoku
100
AcDbCircle
 10
98.62584479164951
 20
102.2301586484193
 30
0.0
 40
2.0
100
AcDbArc
 50
105.7405485251685
 51
155.8531520034966
  0
CIRCLE
  5
17C3
330
21
100
AcDbEntity
  8
fuzoku
100
AcDbCircle
 10
98.62584479164951
 20
102.2301586484193
 30
0.0
 40
1.5
  0
ARC
  5
17C4
330
21
100
AcDbEntity
  8
fuzoku
100
AcDbCircle
 10
98.62584479164951
 20
102.2301586484193
 30
0.0
 40
2.0
100
AcDbArc
 50
204.1468479965033
 51
254.2594514748299
  0
LINE
  5
17C5
330
21
100
AcDbEntity
  8
fuzoku
100
AcDbLine
 10
100.4508447916495
 20
100.3051586484193
 30
0.0
 11
96.8008447916495
 21
100.3051586484193
 31
0.0
  0
LINE
  5
17C6
330
21
100
AcDbEntity
  8
gaikei
100
AcDbLine
 10
87.37584479164951
 20
114.0051586484193
 30
0.0
 11
88.37584479164949
 21
114.0051586484193
 31
0.0
  0
LINE
  5
17C7
330
21
100
AcDbEntity
  8
gaikei
100
AcDbLine
 10
87.37584479164951
 20
117.1051586484193
 30
0.0
 11
88.37584479164949
 21
117.1051586484193
 31
0.0
  0
LINE
  5
17C8
330
21
100
AcDbEntity
  8
gaikei
100
AcDbLine
 10
108.8758447916495
 20
124.5551586484193
 30
0.0
 11
108.8758447916495
 21
106.5551586484193
 31
0.0
  0
LINE
  5
17C9
330
21
100
AcDbEntity
  8
gaikei
100
AcDbLine
 10
88.3758447916495
 20
124.5551586484192
 30
0.0
 11
88.3758447916495
 21
106.5551586484193
 31
0.0
  0
LINE
  5
17CA
330
21
100
AcDbEntity
  8
gaikei
100
AcDbLine
 10
88.3758447916495
 20
106.5551586484193
 30
0.0
 11
108.8758447916495
 21
106.5551586484193
 31
0.0
  0
LINE
  5
17CB
330
21
100
AcDbEntity
  8
gaikei
100
AcDbLine
 10
88.3758447916495
 20
124.5551586484192
 30
0.0
 11
108.8758447916495
 21
124.5551586484193
 31
0.0
  0
LINE
  5
17CC
330
21
100
AcDbEntity
  8
fuzoku
100
AcDbLine
 10
100.4508447916495
 20
100.0551586484193
 30
0.0
 11
96.8008447916495
 21
100.0551586484193
 31
0.0
  0
LINE
  5
17CD
330
21
100
AcDbEntity
  8
fuzoku
100
AcDbLine
 10
100.4508447916495
 20
104.1551586484193
 30
0.0
 11
96.8008447916495
 21
104.1551586484193
 31
0.0
  0
LINE
  5
17CE
330
21
100
AcDbEntity
  8
gaikei
100
AcDbLine
 10
96.8008447916495
 20
104.5551586484193
 30
0.0
 11
96.8008447916495
 21
98.05515864841936
 31
0.0
  0
LINE
  5
17CF
330
21
100
AcDbEntity
  8
gaikei
100
AcDbLine
 10
100.4508447916495
 20
104.5551586484193
 30
0.0
 11
96.8008447916495
 21
104.5551586484193
 31
0.0
  0
LINE
  5
17D0
330
21
100
AcDbEntity
  8
gaikei
100
AcDbLine
 10
100.4508447916495
 20
98.05515864841936
 30
0.0
 11
100.4508447916495
 21
104.5551586484193
 31
0.0
  0
LINE
  5
17D1
330
21
100
AcDbEntity
  8
gaikei
100
AcDbLine
 10
109.8758447916495
 20
80.37859698283194
 30
0.0
 11
109.8758447916495
 21
46.87859698283193
 31
0.0
  0
LINE
  5
17D2
330
21
100
AcDbEntity
  8
gaikei
100
AcDbLine
 10
87.37584479164951
 20
80.37859698283194
 30
0.0
 11
109.8758447916495
 21
80.37859698283194
 31
0.0
  0
LINE
  5
17D3
330
21
100
AcDbEntity
  8
gaikei
100
AcDbLine
 10
87.37584479164951
 20
46.87859698283193
 30
0.0
 11
109.8758447916495
 21
46.87859698283193
 31
0.0
  0
LINE
  5
17D4
330
21
100
AcDbEntity
  8
gaikei
100
AcDbLine
 10
87.37584479164951
 20
80.37859698283194
 30
0.0
 11
87.37584479164951
 21
46.87859698283193
 31
0.0
  0
LINE
  5
17D5
330
21
100
AcDbEntity
  8
gaikei
100
AcDbLine
 10
142.4732635899058
 20
133.0551586484193
 30
0.0
 11
142.4732635899058
 21
98.05515864841936
 31
0.0
  0
LINE
  5
17D6
102
{ACAD_REACTORS
330
1645
102
}
330
21
100
AcDbEntity
  8
gaikei
100
AcDbLine
 10
165.9732635899059
 20
133.0551586484194
 30
0.0
 11
165.9732635899059
 21
123.0551586484193
 31
0.0
  0
LINE
  5
17D7
330
21
100
AcDbEntity
  8
gaikei
100
AcDbLine
 10
132.4732635899058
 20
132.5551586484193
 30
0.0
 11
132.4732635899058
 21
117.1051586484193
 31
0.0
  0
LINE
  5
17D8
330
21
100
AcDbEntity
  8
gaikei
100
AcDbLine
 10
132.9732635899058
 20
98.05515864841931
 30
0.0
 11
165.9732635899058
 21
98.05515864841936
 31
0.0
  0
LINE
  5
17D9
330
21
100
AcDbEntity
  8
gaikei
100
AcDbLine
 10
132.9732635899059
 20
133.0551586484193
 30
0.0
 11
165.9732635899059
 21
133.0551586484194
 31
0.0
  0
LINE
  5
196E
330
21
100
AcDbEntity
  8
zubanwaku
100
AcDbLine
 10
245.6525644168749
 20
99.67833703929375
 30
0.0
 11
345.6525644168749
 21
99.67833703929375
 31
0.0
  0
TEXT
  5
196F
330
21
100
AcDbEntity
  8
moji
100
AcDbText
 10
248.652564416875
 20
100.6783370392937
 30
0.0
 40
3.0
  1
消費電力　：　最大2VA
 11
248.652564416875
 21
102.1783370392937
 31
0.0
100
AcDbText
 73
     2
  0
LINE
  5
1976
330
21
100
AcDbEntity
  8
zubanmoji
100
AcDbLine
 10
350.3986496968989
 20
12.67263488768844
 30
0.0
 11
362.4847045607874
 21
12.67263488768844
 31
0.0
  0
VIEWPORT
  5
1886
330
187F
100
AcDbEntity
 67
     1
  8
0
100
AcDbViewport
 10
144.7270812988281
 20
100.8062472343445
 30
0.0
 40
357.6969925920107
 41
222.1517806396485
 68
     1
 69
     1
 12
144.7270812988281
 22
100.8062472343445
 13
0.0
 23
0.0
 14
10.0
 24
10.0
 15
10.0
 25
10.0
 16
0.0
 26
0.0
 36
1.0
 17
0.0
 27
0.0
 37
0.0
 42
50.0
 43
0.0
 44
0.0
 45
222.1517806396485
 50
0.0
 51
0.0
 72
  1000
 90
    32800
  1

281
     0
 71
     1
 74
     0
110
0.0
120
0.0
130
0.0
111
1.0
121
0.0
131
0.0
112
0.0
122
1.0
132
0.0
 79
     0
146
0.0
170
     0
  0
VIEWPORT
  5
1888
330
187F
100
AcDbEntity
 67
     1
  8
hojo
100
AcDbViewport
 10
144.2825528925341
 20
102.1391580989504
 30
0.0
 40
282.4235581177303
 41
192.5315437884264
 68
     2
 69
     2
 12
190.2203607897572
 22
97.76443033407272
 13
0.0
 23
0.0
 14
10.0
 24
10.0
 15
10.0
 25
10.0
 16
0.0
 26
0.0
 36
1.0
 17
0.0
 27
0.0
 37
0.0
 42
50.0
 43
0.0
 44
0.0
 45
245.6642201174587
 50
0.0
 51
0.0
 72
  1000
 90
    32864
  1

281
     0
 71
     1
 74
     0
110
0.0
120
0.0
130
0.0
111
1.0
121
0.0
131
0.0
112
0.0
122
1.0
132
0.0
 79
     0
146
0.0
170
     0
  0
ENDSEC
  0
SECTION
  2
OBJECTS
  0
DICTIONARY
  5
C
330
0
100
AcDbDictionary
281
     1
  3
ACAD_COLOR
350
1C
  3
ACAD_GROUP
350
D
  3
ACAD_LAYOUT
350
1A
  3
ACAD_MATERIAL
350
1B
  3
ACAD_MLEADERSTYLE
350
19D5
  3
ACAD_MLINESTYLE
350
17
  3
ACAD_PLOTSETTINGS
350
19
  3
ACAD_PLOTSTYLENAME
350
E
  3
ACAD_SCALELIST
350
19B3
  3
ACAD_TABLESTYLE
350
19B1
  3
ACAD_VISUALSTYLE
350
19A0
  3
ACDB_RECOMPOSE_DATA
350
19F8
  3
AcDbVariableDictionary
350
19F2
  0
DICTIONARY
  5
5C
330
2
100
AcDbDictionary
280
     1
281
     1
  3
ACAD_LAYERFILTERS
360
89B
  3
ACAD_LAYERSTATES
360
5D
  0
DICTIONARY
  5
19E0
330
10
100
AcDbDictionary
280
     1
281
     1
  3
ADSK_XREC_LAYER_RECONCILED
360
19E1
  0
DICTIONARY
  5
19E2
330
2D
100
AcDbDictionary
280
     1
281
     1
  3
ADSK_XREC_LAYER_RECONCILED
360
19E3
  0
DICTIONARY
  5
19E4
330
2E
100
AcDbDictionary
280
     1
281
     1
  3
ADSK_XREC_LAYER_RECONCILED
360
19E5
  0
DICTIONARY
  5
19E6
330
2F
100
AcDbDictionary
280
     1
281
     1
  3
ADSK_XREC_LAYER_RECONCILED
360
19E7
  0
DICTIONARY
  5
19E8
330
30
100
AcDbDictionary
280
     1
281
     1
  3
ADSK_XREC_LAYER_RECONCILED
360
19E9
  0
DICTIONARY
  5
19EA
330
48
100
AcDbDictionary
280
     1
281
     1
  3
ADSK_XREC_LAYER_RECONCILED
360
19EB
  0
DICTIONARY
  5
19EC
330
B26
100
AcDbDictionary
280
     1
281
     1
  3
ADSK_XREC_LAYER_RECONCILED
360
19ED
  0
DICTIONARY
  5
19EE
330
B29
100
AcDbDictionary
280
     1
281
     1
  3
ADSK_XREC_LAYER_RECONCILED
360
19EF
  0
DICTIONARY
  5
19F0
330
B2A
100
AcDbDictionary
280
     1
281
     1
  3
ADSK_XREC_LAYER_RECONCILED
360
19F1
  0
DICTIONARY
  5
163B
330
163A
100
AcDbDictionary
280
     1
281
     1
  3
ACAD_DIMASSOC
360
163C
  0
DICTIONARY
  5
163E
330
163D
100
AcDbDictionary
280
     1
281
     1
  3
ACAD_DIMASSOC
360
163F
  0
DICTIONARY
  5
1641
330
1640
100
AcDbDictionary
280
     1
281
     1
  3
ACAD_DIMASSOC
360
1642
  0
DICTIONARY
  5
1644
330
1643
100
AcDbDictionary
280
     1
281
     1
  3
ACAD_DIMASSOC
360
1645
  0
DICTIONARY
  5
1C
102
{ACAD_REACTORS
330
C
102
}
330
C
100
AcDbDictionary
281
     1
  0
DICTIONARY
  5
D
102
{ACAD_REACTORS
330
C
102
}
330
C
100
AcDbDictionary
281
     1
  3
*A1
350
AE8
  0
DICTIONARY
  5
1A
102
{ACAD_REACTORS
330
C
102
}
330
C
100
AcDbDictionary
281
     1
  3
Model
350
24
  3
レイアウト1
350
1880
  0
DICTIONARY
  5
1B
102
{ACAD_REACTORS
330
C
102
}
330
C
100
AcDbDictionary
281
     1
  3
ByBlock
350
1998
  3
ByLayer
350
1990
  3
Global
350
55
  0
DICTIONARY
  5
19D5
102
{ACAD_REACTORS
330
C
102
}
330
C
100
AcDbDictionary
281
     1
  3
Standard
350
19D6
  0
DICTIONARY
  5
17
102
{ACAD_REACTORS
330
C
102
}
330
C
100
AcDbDictionary
281
     1
  3
Standard
350
18
  0
DICTIONARY
  5
19
102
{ACAD_REACTORS
330
C
102
}
330
C
100
AcDbDictionary
281
     1
  0
ACDBDICTIONARYWDFLT
  5
E
102
{ACAD_REACTORS
330
C
102
}
330
C
100
AcDbDictionary
281
     1
  3
Normal
350
F
100
AcDbDictionaryWithDefault
340
F
  0
DICTIONARY
  5
19B3
102
{ACAD_REACTORS
330
C
102
}
330
C
100
AcDbDictionary
281
     1
  3
A0
350
19B4
  3
A1
350
19B5
  3
A2
350
19B6
  3
A3
350
19B7
  3
A4
350
19B8
  3
A5
350
19B9
  3
A6
350
19BA
  3
A7
350
19BB
  3
A8
350
19BC
  3
A9
350
19BD
  3
B0
350
19BE
  3
B1
350
19BF
  3
B2
350
19C0
  3
B3
350
19C1
  3
B4
350
19C2
  3
B5
350
19C3
  3
B6
350
19C4
  3
B7
350
19C5
  3
B8
350
19C6
  3
B9
350
19C7
  3
C0
350
19C8
  3
C1
350
19C9
  3
C2
350
19CA
  3
C3
350
19CB
  3
C4
350
19CC
  3
C5
350
19CD
  3
C6
350
19CE
  3
C7
350
19CF
  3
C8
350
19D0
  3
C9
350
19D1
  3
D0
350
19D2
  3
D1
350
19D3
  3
D2
350
19D4
  0
DICTIONARY
  5
19B1
102
{ACAD_REACTORS
330
C
102
}
330
C
100
AcDbDictionary
281
     1
  3
Standard
350
19B2
  0
DICTIONARY
  5
19A0
102
{ACAD_REACTORS
330
C
102
}
330
C
100
AcDbDictionary
281
     1
  3
2dWireframe
350
19A6
  3
3D Hidden
350
19A8
  3
3dWireframe
350
19A7
  3
Basic
350
19A5
  3
Brighten
350
19AC
  3
ColorChange
350
19B0
  3
Conceptual
350
19A9
  3
Dim
350
19AB
  3
Facepattern
350
19AF
  3
Flat
350
19A1
  3
FlatWithEdges
350
19A2
  3
Gouraud
350
19A3
  3
GouraudWithEdges
350
19A4
  3
Linepattern
350
19AE
  3
Realistic
350
19AA
  3
Thicken
350
19AD
  0
XRECORD
  5
19F8
102
{ACAD_REACTORS
330
C
102
}
330
C
100
AcDbXrecord
280
     1
 90
        1
330
19B2
  0
DICTIONARY
  5
19F2
102
{ACAD_REACTORS
330
C
102
}
330
C
100
AcDbDictionary
281
     1
  3
CANNOSCALE
350
19F5
  3
CMLEADERSTYLE
350
19F4
  3
CTABLESTYLE
350
19F3
  0
DICTIONARY
  5
89B
102
{ACAD_REACTORS
330
5C
102
}
330
5C
100
AcDbDictionary
281
     1
  0
DICTIONARY
  5
5D
102
{ACAD_REACTORS
330
5C
102
}
330
5C
100
AcDbDictionary
281
     1
  0
XRECORD
  5
19E1
102
{ACAD_REACTORS
330
19E0
102
}
330
19E0
100
AcDbXrecord
280
     1
290
     1
  0
XRECORD
  5
19E3
102
{ACAD_REACTORS
330
19E2
102
}
330
19E2
100
AcDbXrecord
280
     1
290
     1
  0
XRECORD
  5
19E5
102
{ACAD_REACTORS
330
19E4
102
}
330
19E4
100
AcDbXrecord
280
     1
290
     1
  0
XRECORD
  5
19E7
102
{ACAD_REACTORS
330
19E6
102
}
330
19E6
100
AcDbXrecord
280
     1
290
     1
  0
XRECORD
  5
19E9
102
{ACAD_REACTORS
330
19E8
102
}
330
19E8
100
AcDbXrecord
280
     1
290
     1
  0
XRECORD
  5
19EB
102
{ACAD_REACTORS
330
19EA
102
}
330
19EA
100
AcDbXrecord
280
     1
290
     1
  0
XRECORD
  5
19ED
102
{ACAD_REACTORS
330
19EC
102
}
330
19EC
100
AcDbXrecord
280
     1
290
     1
  0
XRECORD
  5
19EF
102
{ACAD_REACTORS
330
19EE
102
}
330
19EE
100
AcDbXrecord
280
     1
290
     1
  0
XRECORD
  5
19F1
102
{ACAD_REACTORS
330
19F0
102
}
330
19F0
100
AcDbXrecord
280
     1
290
     1
  0
DIMASSOC
  5
163C
102
{ACAD_REACTORS
330
163B
102
}
330
163B
100
AcDbDimAssoc
330
163A
 90
        3
 70
     0
 71
     0
  1
AcDbOsnapPointRef
 72
    13
331
1714
 73
     2
 91
        0
 40
0.0
 10
0.0
 20
0.0
 30
2.000000000000000E+50
 75
     0
  1
AcDbOsnapPointRef
 72
    13
331
1675
 73
     2
 91
        0
 40
0.0
 10
0.0
 20
0.0
 30
2.000000000000000E+50
 75
     0
  0
DIMASSOC
  5
163F
102
{ACAD_REACTORS
330
163E
102
}
330
163E
100
AcDbDimAssoc
330
163D
 90
        3
 70
     0
 71
     0
  1
AcDbOsnapPointRef
 72
    13
331
1714
 73
     2
 91
        0
 40
0.0
 10
0.0
 20
0.0
 30
2.000000000000000E+50
 75
     0
  1
AcDbOsnapPointRef
 72
     1
331
1714
 73
     2
 91
        0
 40
1.0
 10
0.0
 20
0.0
 30
2.000000000000000E+50
 75
     0
  0
DIMASSOC
  5
1642
102
{ACAD_REACTORS
330
1641
102
}
330
1641
100
AcDbDimAssoc
330
1640
 90
        3
 70
     0
 71
     0
  1
AcDbOsnapPointRef
 72
    13
331
1714
 73
     2
 91
        0
 40
0.0
 10
0.0
 20
0.0
 30
2.000000000000000E+50
 75
     0
  1
AcDbOsnapPointRef
 72
    13
331
1715
 73
     2
 91
        0
 40
0.0
 10
0.0
 20
0.0
 30
2.000000000000000E+50
 75
     0
  0
DIMASSOC
  5
1645
102
{ACAD_REACTORS
330
1644
102
}
330
1644
100
AcDbDimAssoc
330
1643
 90
        3
 70
     0
 71
     0
  1
AcDbOsnapPointRef
 72
     1
331
1700
 73
     2
 91
        0
 40
3.141592653589793
 10
0.0
 20
0.0
 30
2.000000000000000E+50
 75
     0
  1
AcDbOsnapPointRef
 72
    13
331
17D6
 73
     2
 91
        0
 40
0.0
 10
0.0
 20
0.0
 30
2.000000000000000E+50
 75
     0
  0
GROUP
  5
AE8
102
{ACAD_REACTORS
330
D
102
}
330
D
100
AcDbGroup
300

 70
     1
 71
     1
  0
LAYOUT
  5
24
102
{ACAD_REACTORS
330
1A
102
}
330
1A
100
AcDbPlotSettings
  1

  2
none_device
  4
Letter_(8.50_x_11.00_Inches)
  6

 40
6.349999904632568
 41
6.349999904632568
 42
6.350006103515625
 43
6.350006103515625
 44
215.8999938964844
 45
279.3999938964844
 46
0.0
 47
0.0
 48
0.0
 49
0.0
140
0.0
141
0.0
142
1.0
143
1.0
 70
 11952
 72
     1
 73
     1
 74
     0
  7

 75
     0
147
1.0
 76
     0
 77
     2
 78
   300
148
-83.36161879895561
149
0.0
100
AcDbLayout
  1
Model
 70
     1
 71
     0
 10
0.0
 20
0.0
 11
12.0
 21
9.0
 12
0.0
 22
0.0
 32
0.0
 14
0.0
 24
0.0
 34
0.0
 15
0.0
 25
0.0
 35
0.0
146
0.0
 13
0.0
 23
0.0
 33
0.0
 16
1.0
 26
0.0
 36
0.0
 17
0.0
 27
1.0
 37
0.0
 76
     0
330
21
331
198E
  0
LAYOUT
  5
1880
102
{ACAD_REACTORS
330
1A
102
}
330
1A
100
AcDbPlotSettings
  1

  2
Canon MP990 series Printer
  4
A4
  6

 40
4.180416584014892
 41
5.831417560577392
 42
4.180404663085937
 43
3.757080078125
 44
209.9733276367187
 45
296.9683227539062
 46
0.0
 47
0.0
 48
0.0
 49
0.0
140
0.0
141
0.0
142
1.0
143
1.0
 70
   688
 72
     1
 73
     1
 74
     5
  7

 75
    16
147
1.0
 76
     1
 77
     2
 78
   300
148
0.0
149
0.0
100
AcDbLayout
  1
レイアウト1
 70
     1
 71
     1
 10
-3.757080078125
 20
-4.180416584014892
 11
293.2112426757813
 21
205.7929110527039
 12
0.0
 22
0.0
 32
0.0
 14
3.070773833669022
 24
5.873386204737187
 34
0.0
 15
285.4943319513993
 25
198.4049299931636
 35
0.0
146
0.0
 13
0.0
 23
0.0
 33
0.0
 16
1.0
 26
0.0
 36
0.0
 17
0.0
 27
1.0
 37
0.0
 76
     0
330
187F
331
1886
  0
MATERIAL
  5
1998
102
{ACAD_XDICTIONARY
360
1999
102
}
102
{ACAD_REACTORS
330
1B
102
}
330
1B
100
AcDbMaterial
  1
ByBlock
 72
     0
 43
0.0008202099737533
 43
0.0
 43
0.0
 43
0.0
 43
0.0
 43
0.0008202099737533
 43
0.0
 43
0.0
 43
0.0
 43
0.0
 43
1.0
 43
0.0
 43
0.0
 43
0.0
 43
0.0
 43
1.0
 77
     0
 47
0.0008202099737533
 47
0.0
 47
0.0
 47
0.0
 47
0.0
 47
0.0008202099737533
 47
0.0
 47
0.0
 47
0.0
 47
0.0
 47
1.0
 47
0.0
 47
0.0
 47
0.0
 47
0.0
 47
1.0
171
     0
 49
0.0008202099737533
 49
0.0
 49
0.0
 49
0.0
 49
0.0
 49
0.0008202099737533
 49
0.0
 49
0.0
 49
0.0
 49
0.0
 49
1.0
 49
0.0
 49
0.0
 49
0.0
 49
0.0
 49
1.0
175
     0
142
0.0008202099737533
142
0.0
142
0.0
142
0.0
142
0.0
142
0.0008202099737533
142
0.0
142
0.0
142
0.0
142
0.0
142
1.0
142
0.0
142
0.0
142
0.0
142
0.0
142
1.0
179
     0
144
0.0008202099737533
144
0.0
144
0.0
144
0.0
144
0.0
144
0.0008202099737533
144
0.0
144
0.0
144
0.0
144
0.0
144
1.0
144
0.0
144
0.0
144
0.0
144
0.0
144
1.0
147
0.0008202099737533
147
0.0
147
0.0
147
0.0
147
0.0
147
0.0008202099737533
147
0.0
147
0.0
147
0.0
147
0.0
147
1.0
147
0.0
147
0.0
147
0.0
147
0.0
147
1.0
  0
MATERIAL
  5
1990
102
{ACAD_XDICTIONARY
360
1991
102
}
102
{ACAD_REACTORS
330
1B
102
}
330
1B
100
AcDbMaterial
  1
ByLayer
 72
     0
 43
0.0008202099737533
 43
0.0
 43
0.0
 43
0.0
 43
0.0
 43
0.0008202099737533
 43
0.0
 43
0.0
 43
0.0
 43
0.0
 43
1.0
 43
0.0
 43
0.0
 43
0.0
 43
0.0
 43
1.0
 77
     0
 47
0.0008202099737533
 47
0.0
 47
0.0
 47
0.0
 47
0.0
 47
0.0008202099737533
 47
0.0
 47
0.0
 47
0.0
 47
0.0
 47
1.0
 47
0.0
 47
0.0
 47
0.0
 47
0.0
 47
1.0
171
     0
 49
0.0008202099737533
 49
0.0
 49
0.0
 49
0.0
 49
0.0
 49
0.0008202099737533
 49
0.0
 49
0.0
 49
0.0
 49
0.0
 49
1.0
 49
0.0
 49
0.0
 49
0.0
 49
0.0
 49
1.0
175
     0
142
0.0008202099737533
142
0.0
142
0.0
142
0.0
142
0.0
142
0.0008202099737533
142
0.0
142
0.0
142
0.0
142
0.0
142
1.0
142
0.0
142
0.0
142
0.0
142
0.0
142
1.0
179
     0
144
0.0008202099737533
144
0.0
144
0.0
144
0.0
144
0.0
144
0.0008202099737533
144
0.0
144
0.0
144
0.0
144
0.0
144
1.0
144
0.0
144
0.0
144
0.0
144
0.0
144
1.0
147
0.0008202099737533
147
0.0
147
0.0
147
0.0
147
0.0
147
0.0008202099737533
147
0.0
147
0.0
147
0.0
147
0.0
147
1.0
147
0.0
147
0.0
147
0.0
147
0.0
147
1.0
  0
MATERIAL
  5
55
102
{ACAD_XDICTIONARY
360
56
102
}
102
{ACAD_REACTORS
330
1B
102
}
330
1B
100
AcDbMaterial
  1
Global
 43
0.0208000000566244
 43
0.0
 43
0.0
 43
0.0
 43
0.0
 43
0.0208000000566244
 43
0.0
 43
0.0
 43
0.0
 43
0.0
 43
1.0
 43
0.0
 43
0.0
 43
0.0
 43
0.0
 43
1.0
 49
0.0208000000566244
 49
0.0
 49
0.0
 49
0.0
 49
0.0
 49
0.0208000000566244
 49
0.0
 49
0.0
 49
0.0
 49
0.0
 49
1.0
 49
0.0
 49
0.0
 49
0.0
 49
0.0
 49
1.0
142
0.0208000000566244
142
0.0
142
0.0
142
0.0
142
0.0
142
0.0208000000566244
142
0.0
142
0.0
142
0.0
142
0.0
142
1.0
142
0.0
142
0.0
142
0.0
142
0.0
142
1.0
144
0.0208000000566244
144
0.0
144
0.0
144
0.0
144
0.0
144
0.0208000000566244
144
0.0
144
0.0
144
0.0
144
0.0
144
1.0
144
0.0
144
0.0
144
0.0
144
0.0
144
1.0
1001
ACAD
1070
    -1
1070
     3
1070
     0
1000

1071
        0
1070
     0
  0
MLEADERSTYLE
  5
19D6
102
{ACAD_REACTORS
330
19D5
102
}
330
19D5
100
AcDbMLeaderStyle
170
     2
171
     1
172
     0
 90
        2
 40
0.0
 41
0.0
173
     1
 91
-1056964608
340
14
 92
       -2
290
     1
 42
2.0
291
     1
 43
0.36
  3
Standard
 44
4.0
300

342
11
174
     1
178
     6
175
     1
176
     0
 93
-1056964608
 45
4.0
292
     0
297
     0
 46
4.0
 94
-1056964608
 47
1.0
 49
1.0
140
1.0
293
     1
141
0.0
294
     1
177
     0
142
1.0
295
     0
296
     0
143
0.125
1001
ACAD_MLEADERVER
1070
     2
  0
MLINESTYLE
  5
18
102
{ACAD_REACTORS
330
17
102
}
330
17
100
AcDbMlineStyle
  2
STANDARD
 70
     0
  3

 62
   256
 51
90.0
 52
90.0
 71
     2
 49
0.5
 62
   256
  6
BYLAYER
 49
-0.5
 62
   256
  6
BYLAYER
  0
ACDBPLACEHOLDER
  5
F
102
{ACAD_REACTORS
330
E
102
}
330
E
  0
SCALE
  5
19B4
102
{ACAD_REACTORS
330
19B3
102
}
330
19B3
100
AcDbScale
 70
     0
300
1:1
140
1.0
141
1.0
290
     1
  0
SCALE
  5
19B5
102
{ACAD_REACTORS
330
19B3
102
}
330
19B3
100
AcDbScale
 70
     0
300
1:2
140
1.0
141
2.0
290
     0
  0
SCALE
  5
19B6
102
{ACAD_REACTORS
330
19B3
102
}
330
19B3
100
AcDbScale
 70
     0
300
1:4
140
1.0
141
4.0
290
     0
  0
SCALE
  5
19B7
102
{ACAD_REACTORS
330
19B3
102
}
330
19B3
100
AcDbScale
 70
     0
300
1:5
140
1.0
141
5.0
290
     0
  0
SCALE
  5
19B8
102
{ACAD_REACTORS
330
19B3
102
}
330
19B3
100
AcDbScale
 70
     0
300
1:8
140
1.0
141
8.0
290
     0
  0
SCALE
  5
19B9
102
{ACAD_REACTORS
330
19B3
102
}
330
19B3
100
AcDbScale
 70
     0
300
1:10
140
1.0
141
10.0
290
     0
  0
SCALE
  5
19BA
102
{ACAD_REACTORS
330
19B3
102
}
330
19B3
100
AcDbScale
 70
     0
300
1:16
140
1.0
141
16.0
290
     0
  0
SCALE
  5
19BB
102
{ACAD_REACTORS
330
19B3
102
}
330
19B3
100
AcDbScale
 70
     0
300
1:20
140
1.0
141
20.0
290
     0
  0
SCALE
  5
19BC
102
{ACAD_REACTORS
330
19B3
102
}
330
19B3
100
AcDbScale
 70
     0
300
1:30
140
1.0
141
30.0
290
     0
  0
SCALE
  5
19BD
102
{ACAD_REACTORS
330
19B3
102
}
330
19B3
100
AcDbScale
 70
     0
300
1:40
140
1.0
141
40.0
290
     0
  0
SCALE
  5
19BE
102
{ACAD_REACTORS
330
19B3
102
}
330
19B3
100
AcDbScale
 70
     0
300
1:50
140
1.0
141
50.0
290
     0
  0
SCALE
  5
19BF
102
{ACAD_REACTORS
330
19B3
102
}
330
19B3
100
AcDbScale
 70
     0
300
1:100
140
1.0
141
100.0
290
     0
  0
SCALE
  5
19C0
102
{ACAD_REACTORS
330
19B3
102
}
330
19B3
100
AcDbScale
 70
     0
300
2:1
140
2.0
141
1.0
290
     0
  0
SCALE
  5
19C1
102
{ACAD_REACTORS
330
19B3
102
}
330
19B3
100
AcDbScale
 70
     0
300
4:1
140
4.0
141
1.0
290
     0
  0
SCALE
  5
19C2
102
{ACAD_REACTORS
330
19B3
102
}
330
19B3
100
AcDbScale
 70
     0
300
8:1
140
8.0
141
1.0
290
     0
  0
SCALE
  5
19C3
102
{ACAD_REACTORS
330
19B3
102
}
330
19B3
100
AcDbScale
 70
     0
300
10:1
140
10.0
141
1.0
290
     0
  0
SCALE
  5
19C4
102
{ACAD_REACTORS
330
19B3
102
}
330
19B3
100
AcDbScale
 70
     0
300
100:1
140
100.0
141
1.0
290
     0
  0
SCALE
  5
19C5
102
{ACAD_REACTORS
330
19B3
102
}
330
19B3
100
AcDbScale
 70
     0
300
1/128" = 1'-0"
140
0.0078125
141
12.0
290
     0
  0
SCALE
  5
19C6
102
{ACAD_REACTORS
330
19B3
102
}
330
19B3
100
AcDbScale
 70
     0
300
1/64" = 1'-0"
140
0.015625
141
12.0
290
     0
  0
SCALE
  5
19C7
102
{ACAD_REACTORS
330
19B3
102
}
330
19B3
100
AcDbScale
 70
     0
300
1/32" = 1'-0"
140
0.03125
141
12.0
290
     0
  0
SCALE
  5
19C8
102
{ACAD_REACTORS
330
19B3
102
}
330
19B3
100
AcDbScale
 70
     0
300
1/16" = 1'-0"
140
0.0625
141
12.0
290
     0
  0
SCALE
  5
19C9
102
{ACAD_REACTORS
330
19B3
102
}
330
19B3
100
AcDbScale
 70
     0
300
3/32" = 1'-0"
140
0.09375
141
12.0
290
     0
  0
SCALE
  5
19CA
102
{ACAD_REACTORS
330
19B3
102
}
330
19B3
100
AcDbScale
 70
     0
300
1/8" = 1'-0"
140
0.125
141
12.0
290
     0
  0
SCALE
  5
19CB
102
{ACAD_REACTORS
330
19B3
102
}
330
19B3
100
AcDbScale
 70
     0
300
3/16" = 1'-0"
140
0.1875
141
12.0
290
     0
  0
SCALE
  5
19CC
102
{ACAD_REACTORS
330
19B3
102
}
330
19B3
100
AcDbScale
 70
     0
300
1/4" = 1'-0"
140
0.25
141
12.0
290
     0
  0
SCALE
  5
19CD
102
{ACAD_REACTORS
330
19B3
102
}
330
19B3
100
AcDbScale
 70
     0
300
3/8" = 1'-0"
140
0.375
141
12.0
290
     0
  0
SCALE
  5
19CE
102
{ACAD_REACTORS
330
19B3
102
}
330
19B3
100
AcDbScale
 70
     0
300
1/2" = 1'-0"
140
0.5
141
12.0
290
     0
  0
SCALE
  5
19CF
102
{ACAD_REACTORS
330
19B3
102
}
330
19B3
100
AcDbScale
 70
     0
300
3/4" = 1'-0"
140
0.75
141
12.0
290
     0
  0
SCALE
  5
19D0
102
{ACAD_REACTORS
330
19B3
102
}
330
19B3
100
AcDbScale
 70
     0
300
1" = 1'-0"
140
1.0
141
12.0
290
     0
  0
SCALE
  5
19D1
102
{ACAD_REACTORS
330
19B3
102
}
330
19B3
100
AcDbScale
 70
     0
300
1-1/2" = 1'-0"
140
1.5
141
12.0
290
     0
  0
SCALE
  5
19D2
102
{ACAD_REACTORS
330
19B3
102
}
330
19B3
100
AcDbScale
 70
     0
300
3" = 1'-0"
140
3.0
141
12.0
290
     0
  0
SCALE
  5
19D3
102
{ACAD_REACTORS
330
19B3
102
}
330
19B3
100
AcDbScale
 70
     0
300
6" = 1'-0"
140
6.0
141
12.0
290
     0
  0
SCALE
  5
19D4
102
{ACAD_REACTORS
330
19B3
102
}
330
19B3
100
AcDbScale
 70
     0
300
1'-0" = 1'-0"
140
12.0
141
12.0
290
     0
  0
TABLESTYLE
  5
19B2
102
{ACAD_XDICTIONARY
360
19F6
102
}
102
{ACAD_REACTORS
330
19B1
102
}
330
19B1
100
AcDbTableStyle
  3
Standard
 70
     0
 71
     0
 40
1.5
 41
1.5
280
     0
281
     0
  7
Standard
140
4.5
170
     2
 62
     0
 63
     7
283
     0
274
    -2
284
     1
 64
     0
275
    -2
285
     1
 65
     0
276
    -2
286
     1
 66
     0
277
    -2
287
     1
 67
     0
278
    -2
288
     1
 68
     0
279
    -2
289
     1
 69
     0
  7
Standard
140
6.0
170
     5
 62
     0
 63
     7
283
     0
274
    -2
284
     1
 64
     0
275
    -2
285
     1
 65
     0
276
    -2
286
     1
 66
     0
277
    -2
287
     1
 67
     0
278
    -2
288
     1
 68
     0
279
    -2
289
     1
 69
     0
  7
Standard
140
4.5
170
     5
 62
     0
 63
     7
283
     0
274
    -2
284
     1
 64
     0
275
    -2
285
     1
 65
     0
276
    -2
286
     1
 66
     0
277
    -2
287
     1
 67
     0
278
    -2
288
     1
 68
     0
279
    -2
289
     1
 69
     0
  0
VISUALSTYLE
  5
19A6
102
{ACAD_REACTORS
330
19A0
102
}
330
19A0
100
AcDbVisualStyle
  2
2dWireframe
 70
     4
 71
     0
 72
     2
 73
     0
 90
        0
 40
-0.6
 41
-30.0
 62
     5
 63
     7
421
 16777215
 74
     1
 91
        4
 64
     7
 65
   257
 75
     1
175
     1
 42
1.0
 92
        0
 66
   257
 43
1.0
 76
     1
 77
     6
 78
     2
 67
     7
 79
     5
170
     0
171
     0
290
     0
174
     0
 93
        1
 44
0.0
173
     0
291
     0
 45
0.0
1001
ACAD
1000
AcDbSavedByObjectVersion
1070
     0
  0
VISUALSTYLE
  5
19A8
102
{ACAD_REACTORS
330
19A0
102
}
330
19A0
100
AcDbVisualStyle
  2
3D Hidden
 70
     6
 71
     1
 72
     2
 73
     2
 90
        0
 40
-0.6
 41
-30.0
 62
     5
 63
     7
421
 16777215
 74
     2
 91
        2
 64
     7
 65
   257
 75
     2
175
     1
 42
40.0
 92
        0
 66
   257
 43
1.0
 76
     1
 77
     6
 78
     2
 67
     7
 79
     3
170
     0
171
     0
290
     0
174
     0
 93
        1
 44
0.0
173
     0
291
     0
 45
0.0
1001
ACAD
1000
AcDbSavedByObjectVersion
1070
     0
  0
VISUALSTYLE
  5
19A7
102
{ACAD_REACTORS
330
19A0
102
}
330
19A0
100
AcDbVisualStyle
  2
3dWireframe
 70
     5
 71
     0
 72
     2
 73
     0
 90
        0
 40
-0.6
 41
-30.0
 62
     5
 63
     7
421
 16777215
 74
     1
 91
        4
 64
     7
 65
   257
 75
     1
175
     1
 42
1.0
 92
        0
 66
   257
 43
1.0
 76
     1
 77
     6
 78
     2
 67
     7
 79
     5
170
     0
171
     0
290
     0
174
     0
 93
        1
 44
0.0
173
     0
291
     0
 45
0.0
1001
ACAD
1000
AcDbSavedByObjectVersion
1070
     0
  0
VISUALSTYLE
  5
19A5
102
{ACAD_REACTORS
330
19A0
102
}
330
19A0
100
AcDbVisualStyle
  2
Basic
 70
     7
 71
     1
 72
     0
 73
     1
 90
        0
 40
-0.6
 41
-30.0
 62
     5
 63
     7
421
 16777215
 74
     0
 91
        4
 64
     7
 65
   257
 75
     1
175
     1
 42
1.0
 92
        8
 66
     7
 43
1.0
 76
     1
 77
     6
 78
     2
 67
     7
 79
     5
170
     0
171
     0
290
     0
174
     0
 93
        1
 44
0.0
173
     0
291
     1
 45
0.0
1001
ACAD
1000
AcDbSavedByObjectVersion
1070
     0
  0
VISUALSTYLE
  5
19AC
102
{ACAD_REACTORS
330
19A0
102
}
330
19A0
100
AcDbVisualStyle
  2
Brighten
 70
    12
 71
     2
 72
     2
 73
     0
 90
        0
 40
-0.6
 41
-30.0
 62
     5
 63
     7
421
 16777215
 74
     1
 91
        4
 64
     7
 65
   257
 75
     1
175
     1
 42
1.0
 92
        8
 66
     7
 43
1.0
 76
     1
 77
     6
 78
     2
 67
     7
 79
     5
170
     0
171
     0
290
     0
174
     0
 93
        1
 44
50.0
173
     0
291
     1
 45
0.0
1001
ACAD
1000
AcDbSavedByObjectVersion
1070
     0
  0
VISUALSTYLE
  5
19B0
102
{ACAD_REACTORS
330
19A0
102
}
330
19A0
100
AcDbVisualStyle
  2
ColorChange
 70
    16
 71
     2
 72
     2
 73
     3
 90
        0
 40
-0.6
 41
-30.0
 62
     5
 63
     8
421
  8421504
 74
     1
 91
        4
 64
     7
 65
   257
 75
     1
175
     1
 42
1.0
 92
        8
 66
     8
424
  8421504
 43
1.0
 76
     1
 77
     6
 78
     2
 67
     7
 79
     5
170
     0
171
     0
290
     0
174
     0
 93
        1
 44
0.0
173
     0
291
     1
 45
0.0
1001
ACAD
1000
AcDbSavedByObjectVersion
1070
     0
  0
VISUALSTYLE
  5
19A9
102
{ACAD_REACTORS
330
19A0
102
}
330
19A0
100
AcDbVisualStyle
  2
Conceptual
 70
     9
 71
     3
 72
     2
 73
     0
 90
        0
 40
-0.6
 41
-30.0
 62
     5
 63
     7
421
 16777215
 74
     2
 91
        2
 64
     7
 65
   257
 75
     1
175
     1
 42
40.0
 92
        8
 66
     7
 43
1.0
 76
     1
 77
     6
 78
     2
 67
     7
 79
     3
170
     0
171
     0
290
     0
174
     0
 93
        1
 44
0.0
173
     0
291
     0
 45
0.0
1001
ACAD
1000
AcDbSavedByObjectVersion
1070
     0
  0
VISUALSTYLE
  5
19AB
102
{ACAD_REACTORS
330
19A0
102
}
330
19A0
100
AcDbVisualStyle
  2
Dim
 70
    11
 71
     2
 72
     2
 73
     0
 90
        0
 40
-0.6
 41
-30.0
 62
     5
 63
     7
421
 16777215
 74
     1
 91
        4
 64
     7
 65
   257
 75
     1
175
     1
 42
1.0
 92
        8
 66
     7
 43
1.0
 76
     1
 77
     6
 78
     2
 67
     7
 79
     5
170
     0
171
     0
290
     0
174
     0
 93
        1
 44
-50.0
173
     0
291
     1
 45
0.0
1001
ACAD
1000
AcDbSavedByObjectVersion
1070
     0
  0
VISUALSTYLE
  5
19AF
102
{ACAD_REACTORS
330
19A0
102
}
330
19A0
100
AcDbVisualStyle
  2
Facepattern
 70
    15
 71
     2
 72
     2
 73
     0
 90
        0
 40
-0.6
 41
-30.0
 62
     5
 63
     7
421
 16777215
 74
     1
 91
        4
 64
     7
 65
   257
 75
     1
175
     1
 42
1.0
 92
        8
 66
     7
 43
1.0
 76
     1
 77
     6
 78
     2
 67
     7
 79
     5
170
     0
171
     0
290
     0
174
     0
 93
        1
 44
0.0
173
     0
291
     1
 45
0.0
1001
ACAD
1000
AcDbSavedByObjectVersion
1070
     0
  0
VISUALSTYLE
  5
19A1
102
{ACAD_REACTORS
330
19A0
102
}
330
19A0
100
AcDbVisualStyle
  2
Flat
 70
     0
 71
     2
 72
     1
 73
     1
 90
        2
 40
-0.6
 41
30.0
 62
     5
 63
     7
421
 16777215
 74
     0
 91
        4
 64
     7
 65
   257
 75
     1
175
     1
 42
1.0
 92
        8
 66
     7
 43
1.0
 76
     1
 77
     6
 78
     2
 67
     7
 79
     5
170
     0
171
     0
290
     0
174
     0
 93
       13
 44
0.0
173
     0
291
     1
 45
0.0
1001
ACAD
1000
AcDbSavedByObjectVersion
1070
     0
  0
VISUALSTYLE
  5
19A2
102
{ACAD_REACTORS
330
19A0
102
}
330
19A0
100
AcDbVisualStyle
  2
FlatWithEdges
 70
     1
 71
     2
 72
     1
 73
     1
 90
        2
 40
-0.6
 41
30.0
 62
     5
 63
     7
421
 16777215
 74
     1
 91
        4
 64
     7
 65
   257
 75
     1
175
     1
 42
1.0
 92
        0
 66
   257
 43
1.0
 76
     1
 77
     6
 78
     2
 67
     7
 79
     5
170
     0
171
     0
290
     0
174
     0
 93
       13
 44
0.0
173
     0
291
     1
 45
0.0
1001
ACAD
1000
AcDbSavedByObjectVersion
1070
     0
  0
VISUALSTYLE
  5
19A3
102
{ACAD_REACTORS
330
19A0
102
}
330
19A0
100
AcDbVisualStyle
  2
Gouraud
 70
     2
 71
     2
 72
     2
 73
     1
 90
        2
 40
-0.6
 41
30.0
 62
     5
 63
     7
421
 16777215
 74
     0
 91
        4
 64
     7
 65
   257
 75
     1
175
     1
 42
1.0
 92
        0
 66
     7
 43
1.0
 76
     1
 77
     6
 78
     2
 67
     7
 79
     5
170
     0
171
     0
290
     0
174
     0
 93
       13
 44
0.0
173
     0
291
     1
 45
0.0
1001
ACAD
1000
AcDbSavedByObjectVersion
1070
     0
  0
VISUALSTYLE
  5
19A4
102
{ACAD_REACTORS
330
19A0
102
}
330
19A0
100
AcDbVisualStyle
  2
GouraudWithEdges
 70
     3
 71
     2
 72
     2
 73
     1
 90
        2
 40
-0.6
 41
30.0
 62
     5
 63
     7
421
 16777215
 74
     1
 91
        4
 64
     7
 65
   257
 75
     1
175
     1
 42
1.0
 92
        0
 66
   257
 43
1.0
 76
     1
 77
     6
 78
     2
 67
     7
 79
     5
170
     0
171
     0
290
     0
174
     0
 93
       13
 44
0.0
173
     0
291
     1
 45
0.0
1001
ACAD
1000
AcDbSavedByObjectVersion
1070
     0
  0
VISUALSTYLE
  5
19AE
102
{ACAD_REACTORS
330
19A0
102
}
330
19A0
100
AcDbVisualStyle
  2
Linepattern
 70
    14
 71
     2
 72
     2
 73
     0
 90
        0
 40
-0.6
 41
-30.0
 62
     5
 63
     7
421
 16777215
 74
     1
 91
        4
 64
     7
 65
   257
 75
     7
175
     7
 42
1.0
 92
        8
 66
     7
 43
1.0
 76
     1
 77
     6
 78
     2
 67
     7
 79
     5
170
     0
171
     0
290
     0
174
     0
 93
        1
 44
0.0
173
     0
291
     1
 45
0.0
1001
ACAD
1000
AcDbSavedByObjectVersion
1070
     0
  0
VISUALSTYLE
  5
19AA
102
{ACAD_REACTORS
330
19A0
102
}
330
19A0
100
AcDbVisualStyle
  2
Realistic
 70
     8
 71
     2
 72
     2
 73
     0
 90
        0
 40
-0.6
 41
-30.0
 62
     5
 63
     7
421
 16777215
 74
     1
 91
        0
 64
     7
 65
   257
 75
     1
175
     1
 42
1.0
 92
        8
 66
     8
424
  7895160
 43
1.0
 76
     1
 77
     6
 78
     2
 67
     7
 79
     5
170
     0
171
     0
290
     0
174
     0
 93
       13
 44
0.0
173
     0
291
     0
 45
0.0
1001
ACAD
1000
AcDbSavedByObjectVersion
1070
     0
  0
VISUALSTYLE
  5
19AD
102
{ACAD_REACTORS
330
19A0
102
}
330
19A0
100
AcDbVisualStyle
  2
Thicken
 70
    13
 71
     2
 72
     2
 73
     0
 90
        0
 40
-0.6
 41
-30.0
 62
     5
 63
     7
421
 16777215
 74
     1
 91
        4
 64
     7
 65
   257
 75
     1
175
     1
 42
1.0
 92
       12
 66
     7
 43
1.0
 76
     1
 77
     6
 78
     2
 67
     7
 79
     5
170
     0
171
     0
290
     0
174
     0
 93
        1
 44
0.0
173
     0
291
     1
 45
0.0
1001
ACAD
1000
AcDbSavedByObjectVersion
1070
     0
  0
DICTIONARYVAR
  5
19F5
102
{ACAD_REACTORS
330
19F2
102
}
330
19F2
100
DictionaryVariables
280
     0
  1
1:1
  0
DICTIONARYVAR
  5
19F4
102
{ACAD_REACTORS
330
19F2
102
}
330
19F2
100
DictionaryVariables
280
     0
  1
STANDARD
  0
DICTIONARYVAR
  5
19F3
102
{ACAD_REACTORS
330
19F2
102
}
330
19F2
100
DictionaryVariables
280
     0
  1
STANDARD
  0
DICTIONARY
  5
1999
330
1998
100
AcDbDictionary
280
     1
281
     1
  3
ACAD_XREC_ROUNDTRIP
360
19FB
  3
BUMPTILE
360
199B
  3
DIFFUSETILE
360
199A
  3
OPACITYTILE
360
199E
  3
REFLECTIONTILE
360
199D
  3
REFRACTIONTILE
360
199F
  3
SPECULARTILE
360
199C
  0
DICTIONARY
  5
1991
330
1990
100
AcDbDictionary
280
     1
281
     1
  3
ACAD_XREC_ROUNDTRIP
360
19FA
  3
BUMPTILE
360
1993
  3
DIFFUSETILE
360
1992
  3
OPACITYTILE
360
1996
  3
REFLECTIONTILE
360
1995
  3
REFRACTIONTILE
360
1997
  3
SPECULARTILE
360
1994
  0
DICTIONARY
  5
56
330
55
100
AcDbDictionary
280
     1
281
     1
  3
ACAD_XREC_ROUNDTRIP
360
19F9
  3
BUMPTILE
360
58
  3
DIFFUSETILE
360
59
  3
OPACITYTILE
360
5A
  3
REFLECTIONTILE
360
5B
  0
DICTIONARY
  5
19F6
330
19B2
100
AcDbDictionary
280
     1
281
     1
  3
ACAD_ROUNDTRIP_2008_TABLESTYLE_CELLSTYLEMAP
360
19F7
  3
ACAD_XREC_ROUNDTRIP
360
19FC
  0
XRECORD
  5
19FB
102
{ACAD_REACTORS
330
1999
102
}
330
1999
100
AcDbXrecord
280
     1
102
MATERIAL
148
0.0
149
0.0
149
0.0
 93
        0
 94
      127
282
     0
 72
     0
 77
     0
171
     0
175
     0
179
     0
273
     0
  0
XRECORD
  5
199B
102
{ACAD_REACTORS
330
1999
102
}
330
1999
100
AcDbXrecord
280
     1
270
     1
271
     1
  0
XRECORD
  5
199A
102
{ACAD_REACTORS
330
1999
102
}
330
1999
100
AcDbXrecord
280
     1
270
     1
271
     1
  0
XRECORD
  5
199E
102
{ACAD_REACTORS
330
1999
102
}
330
1999
100
AcDbXrecord
280
     1
270
     1
271
     1
  0
XRECORD
  5
199D
102
{ACAD_REACTORS
330
1999
102
}
330
1999
100
AcDbXrecord
280
     1
270
     1
271
     1
  0
XRECORD
  5
199F
102
{ACAD_REACTORS
330
1999
102
}
330
1999
100
AcDbXrecord
280
     1
270
     1
271
     1
  0
XRECORD
  5
199C
102
{ACAD_REACTORS
330
1999
102
}
330
1999
100
AcDbXrecord
280
     1
270
     1
271
     1
  0
XRECORD
  5
19FA
102
{ACAD_REACTORS
330
1991
102
}
330
1991
100
AcDbXrecord
280
     1
102
MATERIAL
148
0.0
149
0.0
149
0.0
 93
        0
 94
      127
282
     0
 72
     0
 77
     0
171
     0
175
     0
179
     0
273
     0
  0
XRECORD
  5
1993
102
{ACAD_REACTORS
330
1991
102
}
330
1991
100
AcDbXrecord
280
     1
270
     1
271
     1
  0
XRECORD
  5
1992
102
{ACAD_REACTORS
330
1991
102
}
330
1991
100
AcDbXrecord
280
     1
270
     1
271
     1
  0
XRECORD
  5
1996
102
{ACAD_REACTORS
330
1991
102
}
330
1991
100
AcDbXrecord
280
     1
270
     1
271
     1
  0
XRECORD
  5
1995
102
{ACAD_REACTORS
330
1991
102
}
330
1991
100
AcDbXrecord
280
     1
270
     1
271
     1
  0
XRECORD
  5
1997
102
{ACAD_REACTORS
330
1991
102
}
330
1991
100
AcDbXrecord
280
     1
270
     1
271
     1
  0
XRECORD
  5
1994
102
{ACAD_REACTORS
330
1991
102
}
330
1991
100
AcDbXrecord
280
     1
270
     1
271
     1
  0
XRECORD
  5
19F9
102
{ACAD_REACTORS
330
56
102
}
330
56
100
AcDbXrecord
280
     1
102
MATERIAL
148
0.0
149
0.0
149
0.0
 93
        0
 94
       63
282
     0
 72
     1
 77
     1
171
     1
175
     1
179
     1
273
     0
  0
XRECORD
  5
58
102
{ACAD_REACTORS
330
56
102
}
330
56
100
AcDbXrecord
280
     1
270
     1
271
     1
  0
XRECORD
  5
59
102
{ACAD_REACTORS
330
56
102
}
330
56
100
AcDbXrecord
280
     1
270
     1
271
     1
  0
XRECORD
  5
5A
102
{ACAD_REACTORS
330
56
102
}
330
56
100
AcDbXrecord
280
     1
270
     1
271
     1
  0
XRECORD
  5
5B
102
{ACAD_REACTORS
330
56
102
}
330
56
100
AcDbXrecord
280
     1
270
     1
271
     1
  0
CELLSTYLEMAP
  5
19F7
102
{ACAD_REACTORS
330
19F6
102
}
330
19F6
100
AcDbCellStyleMap
 90
        3
300
CELLSTYLE
  1
TABLEFORMAT_BEGIN
 90
        5
170
     1
 91
        0
 92
    32768
 62
   257
 93
        1
300
CONTENTFORMAT
  1
CONTENTFORMAT_BEGIN
 90
        0
 91
        0
 92
      512
 93
        0
300

 40
0.0
140
1.0
 94
        5
 62
     0
340
11
144
6.0
309
CONTENTFORMAT_END
171
     1
301
MARGIN
  1
CELLMARGIN_BEGIN
 40
1.5
 40
1.5
 40
1.5
 40
1.5
 40
4.5
 40
4.5
309
CELLMARGIN_END
 94
        6
 95
        1
302
GRIDFORMAT
  1
GRIDFORMAT_BEGIN
 90
        0
 91
        1
 62
     0
 92
       -2
340
0
 93
        0
 40
1.125
309
GRIDFORMAT_END
 95
        2
302
GRIDFORMAT
  1
GRIDFORMAT_BEGIN
 90
        0
 91
        1
 62
     0
 92
       -2
340
0
 93
        0
 40
1.125
309
GRIDFORMAT_END
 95
        4
302
GRIDFORMAT
  1
GRIDFORMAT_BEGIN
 90
        0
 91
        1
 62
     0
 92
       -2
340
0
 93
        0
 40
1.125
309
GRIDFORMAT_END
 95
        8
302
GRIDFORMAT
  1
GRIDFORMAT_BEGIN
 90
        0
 91
        1
 62
     0
 92
       -2
340
0
 93
        0
 40
1.125
309
GRIDFORMAT_END
 95
       16
302
GRIDFORMAT
  1
GRIDFORMAT_BEGIN
 90
        0
 91
        1
 62
     0
 92
       -2
340
0
 93
        0
 40
1.125
309
GRIDFORMAT_END
 95
       32
302
GRIDFORMAT
  1
GRIDFORMAT_BEGIN
 90
        0
 91
        1
 62
     0
 92
       -2
340
0
 93
        0
 40
1.125
309
GRIDFORMAT_END
309
TABLEFORMAT_END
  1
CELLSTYLE_BEGIN
 90
        1
 91
        1
300
_TITLE
309
CELLSTYLE_END
300
CELLSTYLE
  1
TABLEFORMAT_BEGIN
 90
        5
170
     1
 91
        0
 92
        0
 62
   257
 93
        1
300
CONTENTFORMAT
  1
CONTENTFORMAT_BEGIN
 90
        0
 91
        0
 92
      512
 93
        0
300

 40
0.0
140
1.0
 94
        5
 62
     0
340
11
144
4.5
309
CONTENTFORMAT_END
171
     1
301
MARGIN
  1
CELLMARGIN_BEGIN
 40
1.5
 40
1.5
 40
1.5
 40
1.5
 40
4.5
 40
4.5
309
CELLMARGIN_END
 94
        6
 95
        1
302
GRIDFORMAT
  1
GRIDFORMAT_BEGIN
 90
        0
 91
        1
 62
     0
 92
       -2
340
0
 93
        0
 40
1.125
309
GRIDFORMAT_END
 95
        2
302
GRIDFORMAT
  1
GRIDFORMAT_BEGIN
 90
        0
 91
        1
 62
     0
 92
       -2
340
0
 93
        0
 40
1.125
309
GRIDFORMAT_END
 95
        4
302
GRIDFORMAT
  1
GRIDFORMAT_BEGIN
 90
        0
 91
        1
 62
     0
 92
       -2
340
0
 93
        0
 40
1.125
309
GRIDFORMAT_END
 95
        8
302
GRIDFORMAT
  1
GRIDFORMAT_BEGIN
 90
        0
 91
        1
 62
     0
 92
       -2
340
0
 93
        0
 40
1.125
309
GRIDFORMAT_END
 95
       16
302
GRIDFORMAT
  1
GRIDFORMAT_BEGIN
 90
        0
 91
        1
 62
     0
 92
       -2
340
0
 93
        0
 40
1.125
309
GRIDFORMAT_END
 95
       32
302
GRIDFORMAT
  1
GRIDFORMAT_BEGIN
 90
        0
 91
        1
 62
     0
 92
       -2
340
0
 93
        0
 40
1.125
309
GRIDFORMAT_END
309
TABLEFORMAT_END
  1
CELLSTYLE_BEGIN
 90
        2
 91
        1
300
_HEADER
309
CELLSTYLE_END
300
CELLSTYLE
  1
TABLEFORMAT_BEGIN
 90
        5
170
     1
 91
        0
 92
        0
 62
   257
 93
        1
300
CONTENTFORMAT
  1
CONTENTFORMAT_BEGIN
 90
        0
 91
        0
 92
      512
 93
        0
300

 40
0.0
140
1.0
 94
        2
 62
     0
340
11
144
4.5
309
CONTENTFORMAT_END
171
     1
301
MARGIN
  1
CELLMARGIN_BEGIN
 40
1.5
 40
1.5
 40
1.5
 40
1.5
 40
4.5
 40
4.5
309
CELLMARGIN_END
 94
        6
 95
        1
302
GRIDFORMAT
  1
GRIDFORMAT_BEGIN
 90
        0
 91
        1
 62
     0
 92
       -2
340
0
 93
        0
 40
1.125
309
GRIDFORMAT_END
 95
        2
302
GRIDFORMAT
  1
GRIDFORMAT_BEGIN
 90
        0
 91
        1
 62
     0
 92
       -2
340
0
 93
        0
 40
1.125
309
GRIDFORMAT_END
 95
        4
302
GRIDFORMAT
  1
GRIDFORMAT_BEGIN
 90
        0
 91
        1
 62
     0
 92
       -2
340
0
 93
        0
 40
1.125
309
GRIDFORMAT_END
 95
        8
302
GRIDFORMAT
  1
GRIDFORMAT_BEGIN
 90
        0
 91
        1
 62
     0
 92
       -2
340
0
 93
        0
 40
1.125
309
GRIDFORMAT_END
 95
       16
302
GRIDFORMAT
  1
GRIDFORMAT_BEGIN
 90
        0
 91
        1
 62
     0
 92
       -2
340
0
 93
        0
 40
1.125
309
GRIDFORMAT_END
 95
       32
302
GRIDFORMAT
  1
GRIDFORMAT_BEGIN
 90
        0
 91
        1
 62
     0
 92
       -2
340
0
 93
        0
 40
1.125
309
GRIDFORMAT_END
309
TABLEFORMAT_END
  1
CELLSTYLE_BEGIN
 90
        3
 91
        2
300
_DATA
309
CELLSTYLE_END
  0
XRECORD
  5
19FC
102
{ACAD_REACTORS
330
19F6
102
}
330
19F6
100
AcDbXrecord
280
     1
102
ACAD_ROUNDTRIP_PRE2007_TABLESTYLE
 90
      512
 91
        0
  1

 92
      512
 93
        0
  2

 94
      512
 95
        0
  3

  0
ENDSEC
  0
EOF
