  0
SECTION
  2
HEADER
  9
$ACADVER
  1
AC1018
  9
$ACADMAINTVER
 70
   104
  9
$DWGCODEPAGE
  3
ANSI_932
  9
$LASTSAVEDBY
  1
t-hayashi
  9
$INSBASE
 10
0.0
 20
0.0
 30
0.0
  9
$EXTMIN
 10
18.86920042624118
 20
-2.817490366776844
 30
0.0
  9
$EXTMAX
 10
198.8692004262413
 20
255.562629362881
 30
0.0
  9
$LIMMIN
 10
0.0
 20
0.0
  9
$LIMMAX
 10
210.0
 20
297.0
  9
$ORTHOMODE
 70
     0
  9
$REGENMODE
 70
     1
  9
$FILLMODE
 70
     1
  9
$QTEXTMODE
 70
     0
  9
$MIRRTEXT
 70
     0
  9
$LTSCALE
 40
1.0
  9
$ATTMODE
 70
     1
  9
$TEXTSIZE
 40
3.0
  9
$TRACEWID
 40
1.0
  9
$TEXTSTYLE
  7
Standard
  9
$CLAYER
  8
shiyouwaku
  9
$CELTYPE
  6
ByLayer
  9
$CECOLOR
 62
   256
  9
$CELTSCALE
 40
1.0
  9
$DISPSILH
 70
     0
  9
$DIMSCALE
 40
1.0
  9
$DIMASZ
 40
3.0
  9
$DIMEXO
 40
4.0
  9
$DIMDLI
 40
3.75
  9
$DIMRND
 40
0.0
  9
$DIMDLE
 40
0.0
  9
$DIMEXE
 40
2.0
  9
$DIMTP
 40
0.0
  9
$DIMTM
 40
0.0
  9
$DIMTXT
 40
3.0
  9
$DIMCEN
 40
2.5
  9
$DIMTSZ
 40
0.0
  9
$DIMTOL
 70
     0
  9
$DIMLIM
 70
     0
  9
$DIMTIH
 70
     0
  9
$DIMTOH
 70
     0
  9
$DIMSE1
 70
     0
  9
$DIMSE2
 70
     0
  9
$DIMTAD
 70
     1
  9
$DIMZIN
 70
     8
  9
$DIMBLK
  1
Open30
  9
$DIMASO
 70
     1
  9
$DIMSHO
 70
     1
  9
$DIMPOST
  1

  9
$DIMAPOST
  1

  9
$DIMALT
 70
     0
  9
$DIMALTD
 70
     3
  9
$DIMALTF
 40
0.03937007874016
  9
$DIMLFAC
 40
1.0
  9
$DIMTOFL
 70
     1
  9
$DIMTVP
 40
0.0
  9
$DIMTIX
 70
     0
  9
$DIMSOXD
 70
     0
  9
$DIMSAH
 70
     0
  9
$DIMBLK1
  1

  9
$DIMBLK2
  1

  9
$DIMSTYLE
  2
ISO-25-4mm
  9
$DIMCLRD
 70
   256
  9
$DIMCLRE
 70
   256
  9
$DIMCLRT
 70
     4
  9
$DIMTFAC
 40
1.0
  9
$DIMGAP
 40
1.0
  9
$DIMJUST
 70
     0
  9
$DIMSD1
 70
     0
  9
$DIMSD2
 70
     0
  9
$DIMTOLJ
 70
     0
  9
$DIMTZIN
 70
     8
  9
$DIMALTZ
 70
     0
  9
$DIMALTTZ
 70
     0
  9
$DIMUPT
 70
     0
  9
$DIMDEC
 70
     2
  9
$DIMTDEC
 70
     2
  9
$DIMALTU
 70
     2
  9
$DIMALTTD
 70
     3
  9
$DIMTXSTY
  7
Standard
  9
$DIMAUNIT
 70
     0
  9
$DIMADEC
 70
     0
  9
$DIMALTRND
 40
0.0
  9
$DIMAZIN
 70
     0
  9
$DIMDSEP
 70
    46
  9
$DIMATFIT
 70
     3
  9
$DIMFRAC
 70
     0
  9
$DIMLDRBLK
  1

  9
$DIMLUNIT
 70
     2
  9
$DIMLWD
 70
    -2
  9
$DIMLWE
 70
    -2
  9
$DIMTMOVE
 70
     0
  9
$LUNITS
 70
     2
  9
$LUPREC
 70
     4
  9
$SKETCHINC
 40
1.0
  9
$FILLETRAD
 40
2.0
  9
$AUNITS
 70
     0
  9
$AUPREC
 70
     0
  9
$MENU
  1
.
  9
$ELEVATION
 40
0.0
  9
$PELEVATION
 40
0.0
  9
$THICKNESS
 40
0.0
  9
$LIMCHECK
 70
     0
  9
$CHAMFERA
 40
0.0
  9
$CHAMFERB
 40
0.0
  9
$CHAMFERC
 40
0.0
  9
$CHAMFERD
 40
0.0
  9
$SKPOLY
 70
     0
  9
$TDCREATE
 40
2455497.994904688
  9
$TDUCREATE
 40
2455497.619904688
  9
$TDUPDATE
 40
2455618.805403102
  9
$TDUUPDATE
 40
2455618.430403102
  9
$TDINDWG
 40
1.0475540046
  9
$TDUSRTIMER
 40
1.0475540046
  9
$USRTIMER
 70
     1
  9
$ANGBASE
 50
0.0
  9
$ANGDIR
 70
     0
  9
$PDMODE
 70
     0
  9
$PDSIZE
 40
0.0
  9
$PLINEWID
 40
0.0
  9
$SPLFRAME
 70
     0
  9
$SPLINETYPE
 70
     6
  9
$SPLINESEGS
 70
     8
  9
$HANDSEED
  5
1D4E
  9
$SURFTAB1
 70
     6
  9
$SURFTAB2
 70
     6
  9
$SURFTYPE
 70
     6
  9
$SURFU
 70
     6
  9
$SURFV
 70
     6
  9
$UCSBASE
  2

  9
$UCSNAME
  2

  9
$UCSORG
 10
0.0
 20
0.0
 30
0.0
  9
$UCSXDIR
 10
1.0
 20
0.0
 30
0.0
  9
$UCSYDIR
 10
0.0
 20
1.0
 30
0.0
  9
$UCSORTHOREF
  2

  9
$UCSORTHOVIEW
 70
     0
  9
$UCSORGTOP
 10
0.0
 20
0.0
 30
0.0
  9
$UCSORGBOTTOM
 10
0.0
 20
0.0
 30
0.0
  9
$UCSORGLEFT
 10
0.0
 20
0.0
 30
0.0
  9
$UCSORGRIGHT
 10
0.0
 20
0.0
 30
0.0
  9
$UCSORGFRONT
 10
0.0
 20
0.0
 30
0.0
  9
$UCSORGBACK
 10
0.0
 20
0.0
 30
0.0
  9
$PUCSBASE
  2

  9
$PUCSNAME
  2

  9
$PUCSORG
 10
0.0
 20
0.0
 30
0.0
  9
$PUCSXDIR
 10
1.0
 20
0.0
 30
0.0
  9
$PUCSYDIR
 10
0.0
 20
1.0
 30
0.0
  9
$PUCSORTHOREF
  2

  9
$PUCSORTHOVIEW
 70
     0
  9
$PUCSORGTOP
 10
0.0
 20
0.0
 30
0.0
  9
$PUCSORGBOTTOM
 10
0.0
 20
0.0
 30
0.0
  9
$PUCSORGLEFT
 10
0.0
 20
0.0
 30
0.0
  9
$PUCSORGRIGHT
 10
0.0
 20
0.0
 30
0.0
  9
$PUCSORGFRONT
 10
0.0
 20
0.0
 30
0.0
  9
$PUCSORGBACK
 10
0.0
 20
0.0
 30
0.0
  9
$USERI1
 70
     0
  9
$USERI2
 70
     0
  9
$USERI3
 70
     0
  9
$USERI4
 70
     0
  9
$USERI5
 70
     0
  9
$USERR1
 40
0.0
  9
$USERR2
 40
0.0
  9
$USERR3
 40
0.0
  9
$USERR4
 40
0.0
  9
$USERR5
 40
0.0
  9
$WORLDVIEW
 70
     1
  9
$SHADEDGE
 70
     3
  9
$SHADEDIF
 70
    70
  9
$TILEMODE
 70
     1
  9
$MAXACTVP
 70
    64
  9
$PINSBASE
 10
0.0
 20
0.0
 30
0.0
  9
$PLIMCHECK
 70
     0
  9
$PEXTMIN
 10
9.015664445261563
 20
12.15813129276887
 30
0.0
  9
$PEXTMAX
 10
193.4351008528131
 20
280.2690525345891
 30
0.0
  9
$PLIMMIN
 10
-4.180416584014892
 20
-5.831417560577392
  9
$PLIMMAX
 10
205.7929110527039
 20
291.1369051933288
  9
$UNITMODE
 70
     0
  9
$VISRETAIN
 70
     1
  9
$PLINEGEN
 70
     0
  9
$PSLTSCALE
 70
     1
  9
$TREEDEPTH
 70
  3020
  9
$CMLSTYLE
  2
Standard
  9
$CMLJUST
 70
     0
  9
$CMLSCALE
 40
20.0
  9
$PROXYGRAPHICS
 70
     1
  9
$MEASUREMENT
 70
     1
  9
$CELWEIGHT
370
    -1
  9
$ENDCAPS
280
     0
  9
$JOINSTYLE
280
     0
  9
$LWDISPLAY
290
     0
  9
$INSUNITS
 70
     4
  9
$HYPERLINKBASE
  1

  9
$STYLESHEET
  1

  9
$XEDIT
290
     1
  9
$CEPSNTYPE
380
     0
  9
$PSTYLEMODE
290
     1
  9
$FINGERPRINTGUID
  2
{03A8F9F0-C856-470B-BDF9-D9C40928B69F}
  9
$VERSIONGUID
  2
{C0432C46-0EA3-4BF8-BCD7-7700694F1927}
  9
$EXTNAMES
290
     1
  9
$PSVPSCALE
 40
0.0
  9
$OLESTARTUP
290
     0
  9
$SORTENTS
280
   127
  9
$INDEXCTL
280
     0
  9
$HIDETEXT
280
     1
  9
$XCLIPFRAME
290
     0
  9
$HALOGAP
280
     0
  9
$OBSCOLOR
 70
   257
  9
$OBSLTYPE
280
     0
  9
$INTERSECTIONDISPLAY
280
     0
  9
$INTERSECTIONCOLOR
 70
   257
  9
$DIMASSOC
280
     2
  9
$PROJECTNAME
  1

  0
ENDSEC
  0
SECTION
  2
CLASSES
  0
CLASS
  1
ACDBDICTIONARYWDFLT
  2
AcDbDictionaryWithDefault
  3
ObjectDBX Classes
 90
        0
 91
        1
280
     0
281
     0
  0
CLASS
  1
MATERIAL
  2
AcDbMaterial
  3
ObjectDBX Classes
 90
     1153
 91
        3
280
     0
281
     0
  0
CLASS
  1
DIMASSOC
  2
AcDbDimAssoc
  3
"AcDbDimAssoc|Product Desc:     AcDim ARX App For Dimension|Company:          Autodesk, Inc.|WEB Address:      www.autodesk.com"
 90
        0
 91
        5
280
     0
281
     0
  0
CLASS
  1
VISUALSTYLE
  2
AcDbVisualStyle
  3
ObjectDBX Classes
 90
     4095
 91
       16
280
     0
281
     0
  0
CLASS
  1
TABLESTYLE
  2
AcDbTableStyle
  3
ObjectDBX Classes
 90
     4095
 91
        1
280
     0
281
     0
  0
CLASS
  1
SCALE
  2
AcDbScale
  3
ObjectDBX Classes
 90
     1153
 91
       33
280
     0
281
     0
  0
CLASS
  1
MLEADERSTYLE
  2
AcDbMLeaderStyle
  3
ACDB_MLEADERSTYLE_CLASS
 90
     4095
 91
        1
280
     0
281
     0
  0
CLASS
  1
DICTIONARYVAR
  2
AcDbDictionaryVar
  3
ObjectDBX Classes
 90
        0
 91
        3
280
     0
281
     0
  0
CLASS
  1
CELLSTYLEMAP
  2
AcDbCellStyleMap
  3
ObjectDBX Classes
 90
     1152
 91
        1
280
     0
281
     0
  0
ENDSEC
  0
SECTION
  2
TABLES
  0
TABLE
  2
VPORT
  5
8
330
0
100
AcDbSymbolTable
 70
     1
  0
VPORT
  5
1CDD
330
8
100
AcDbSymbolTableRecord
100
AcDbViewportTableRecord
  2
*Active
 70
     0
 10
0.0
 20
0.0
 11
1.0
 21
1.0
 12
209.9911839474341
 22
147.0821056713903
 13
0.0
 23
0.0
 14
10.0
 24
10.0
 15
10.0
 25
10.0
 16
0.0
 26
0.0
 36
1.0
 17
0.0
 27
0.0
 37
0.0
 40
302.2344749664771
 41
2.304913294797688
 42
50.0
 43
0.0
 44
0.0
 50
0.0
 51
0.0
 71
     0
 72
  1000
 73
     1
 74
     3
 75
     0
 76
     0
 77
     0
 78
     0
281
     0
 65
     1
110
0.0
120
0.0
130
0.0
111
1.0
121
0.0
131
0.0
112
0.0
122
1.0
132
0.0
 79
     0
146
0.0
  0
ENDTAB
  0
TABLE
  2
LTYPE
  5
5
330
0
100
AcDbSymbolTable
 70
     1
  0
LTYPE
  5
14
330
5
100
AcDbSymbolTableRecord
100
AcDbLinetypeTableRecord
  2
ByBlock
 70
     0
  3

 72
    65
 73
     0
 40
0.0
  0
LTYPE
  5
15
330
5
100
AcDbSymbolTableRecord
100
AcDbLinetypeTableRecord
  2
ByLayer
 70
     0
  3

 72
    65
 73
     0
 40
0.0
  0
LTYPE
  5
16
330
5
100
AcDbSymbolTableRecord
100
AcDbLinetypeTableRecord
  2
Continuous
 70
     0
  3
Solid line
 72
    65
 73
     0
 40
0.0
  0
ENDTAB
  0
TABLE
  2
LAYER
  5
2
102
{ACAD_XDICTIONARY
360
5C
102
}
330
0
100
AcDbSymbolTable
 70
    11
  0
LAYER
  5
10
102
{ACAD_XDICTIONARY
360
1D2F
102
}
330
2
100
AcDbSymbolTableRecord
100
AcDbLayerTableRecord
  2
0
 70
     0
 62
     7
  6
Continuous
370
    -3
390
F
  0
LAYER
  5
2D
102
{ACAD_XDICTIONARY
360
1D31
102
}
330
2
100
AcDbSymbolTableRecord
100
AcDbLayerTableRecord
  2
gaikei
 70
     0
 62
     7
  6
Continuous
370
    -3
390
F
  0
LAYER
  5
2E
102
{ACAD_XDICTIONARY
360
1D33
102
}
330
2
100
AcDbSymbolTableRecord
100
AcDbLayerTableRecord
  2
sumpo
 70
     0
 62
     4
  6
Continuous
370
    -3
390
F
  0
LAYER
  5
2F
102
{ACAD_XDICTIONARY
360
1D35
102
}
330
2
100
AcDbSymbolTableRecord
100
AcDbLayerTableRecord
  2
fuzoku
 70
     0
 62
     3
  6
Continuous
370
    -3
390
F
  0
LAYER
  5
30
102
{ACAD_XDICTIONARY
360
1D37
102
}
330
2
100
AcDbSymbolTableRecord
100
AcDbLayerTableRecord
  2
moji
 70
     0
 62
     2
  6
Continuous
370
    -3
390
F
  0
LAYER
  5
48
102
{ACAD_XDICTIONARY
360
1D39
102
}
330
2
100
AcDbSymbolTableRecord
100
AcDbLayerTableRecord
  2
hojo
 70
     0
 62
     6
  6
Continuous
370
    -3
390
F
  0
LAYER
  5
8F4
330
2
100
AcDbSymbolTableRecord
100
AcDbLayerTableRecord
  2
Defpoints
 70
     0
 62
     7
  6
Continuous
290
     0
370
    -3
390
F
  0
LAYER
  5
B26
102
{ACAD_XDICTIONARY
360
1D3B
102
}
330
2
100
AcDbSymbolTableRecord
100
AcDbLayerTableRecord
  2
shiyouwaku
 70
     0
 62
     7
  6
Continuous
370
    -3
390
F
  0
LAYER
  5
B29
102
{ACAD_XDICTIONARY
360
1D3D
102
}
330
2
100
AcDbSymbolTableRecord
100
AcDbLayerTableRecord
  2
zubanwaku
 70
     0
 62
     7
  6
Continuous
370
    -3
390
F
  0
LAYER
  5
B2A
102
{ACAD_XDICTIONARY
360
1D3F
102
}
330
2
100
AcDbSymbolTableRecord
100
AcDbLayerTableRecord
  2
zubanmoji
 70
     0
 62
     3
  6
Continuous
370
    -3
390
F
  0
LAYER
  5
1832
102
{ACAD_XDICTIONARY
360
1D41
102
}
330
2
100
AcDbSymbolTableRecord
100
AcDbLayerTableRecord
  2
hacchi
 70
     0
 62
     6
  6
Continuous
370
    -3
390
F
  0
ENDTAB
  0
TABLE
  2
STYLE
  5
3
330
0
100
AcDbSymbolTable
 70
     2
  0
STYLE
  5
11
330
3
100
AcDbSymbolTableRecord
100
AcDbTextStyleTableRecord
  2
Standard
 70
     0
 40
0.0
 41
1.0
 50
0.0
 71
     0
 42
3.0
  3
romans.shx
  4
extfont.shx
  0
STYLE
  5
425
330
3
100
AcDbSymbolTableRecord
100
AcDbTextStyleTableRecord
  2
KKZ-Y
 70
     0
 40
0.0
 41
1.0
 50
0.0
 71
     0
 42
10.0
  3
TXT
  4
EXTFONT
  0
ENDTAB
  0
TABLE
  2
VIEW
  5
6
330
0
100
AcDbSymbolTable
 70
     0
  0
ENDTAB
  0
TABLE
  2
UCS
  5
7
330
0
100
AcDbSymbolTable
 70
     0
  0
ENDTAB
  0
TABLE
  2
APPID
  5
9
330
0
100
AcDbSymbolTable
 70
     6
  0
APPID
  5
12
330
9
100
AcDbSymbolTableRecord
100
AcDbRegAppTableRecord
  2
ACAD
 70
     0
  0
APPID
  5
51
330
9
100
AcDbSymbolTableRecord
100
AcDbRegAppTableRecord
  2
AcadAnnotative
 70
     0
  0
APPID
  5
52
330
9
100
AcDbSymbolTableRecord
100
AcDbRegAppTableRecord
  2
ACAD_DSTYLE_DIMJAG
 70
     0
  0
APPID
  5
53
330
9
100
AcDbSymbolTableRecord
100
AcDbRegAppTableRecord
  2
ACAD_DSTYLE_DIMTALN
 70
     0
  0
APPID
  5
54
330
9
100
AcDbSymbolTableRecord
100
AcDbRegAppTableRecord
  2
ACAD_PSEXT
 70
     0
  0
APPID
  5
1D26
330
9
100
AcDbSymbolTableRecord
100
AcDbRegAppTableRecord
  2
ACAD_MLEADERVER
 70
     0
  0
ENDTAB
  0
TABLE
  2
DIMSTYLE
  5
A
330
0
100
AcDbSymbolTable
 70
     4
100
AcDbDimStyleTable
 71
     4
340
1439
340
29
340
4F
340
50
  0
DIMSTYLE
105
29
330
A
100
AcDbSymbolTableRecord
100
AcDbDimStyleTableRecord
  2
ISO-25
 70
     0
 41
8.0
 42
10.0
 43
3.75
 44
10.0
 73
     0
 74
     0
 77
     1
 78
     8
140
8.0
141
2.5
143
0.03937007874016
147
4.0
171
     3
172
     1
176
   256
177
   256
178
     4
271
     2
272
     2
274
     3
283
     0
284
     8
340
11
341
8EC
342
8EC
  0
DIMSTYLE
105
4F
330
A
100
AcDbSymbolTableRecord
100
AcDbDimStyleTableRecord
  2
Standard
 70
     0
340
11
  0
DIMSTYLE
105
50
330
A
100
AcDbSymbolTableRecord
100
AcDbDimStyleTableRecord
  2
Annotative
 70
     0
 40
0.0
340
11
1001
AcadAnnotative
1000
AnnotativeData
1002
{
1070
     1
1070
     1
1002
}
1001
ACAD_DSTYLE_DIMJAG
1070
   388
1040
1.5
1001
ACAD_DSTYLE_DIMTALN
1070
   392
1070
     0
  0
DIMSTYLE
105
1439
102
{ACAD_REACTORS
330
1BA5
330
1BBE
330
1BD6
330
1C37
330
1C4F
102
}
330
A
100
AcDbSymbolTableRecord
100
AcDbDimStyleTableRecord
  2
ISO-25-4mm
 70
     0
 41
3.0
 42
4.0
 43
3.75
 44
2.0
 73
     0
 74
     0
 77
     1
 78
     8
140
3.0
141
2.5
143
0.03937007874016
147
1.0
171
     3
172
     1
176
   256
177
   256
178
     4
271
     2
272
     2
274
     3
283
     0
284
     8
340
11
342
8EC
  0
ENDTAB
  0
TABLE
  2
BLOCK_RECORD
  5
1
330
0
100
AcDbSymbolTable
 70
     6
  0
BLOCK_RECORD
  5
21
330
1
100
AcDbSymbolTableRecord
100
AcDbBlockTableRecord
  2
*Model_Space
340
24
  0
BLOCK_RECORD
  5
17A6
330
1
100
AcDbSymbolTableRecord
100
AcDbBlockTableRecord
  2
*Paper_Space
340
17A7
  0
BLOCK_RECORD
  5
8EC
330
1
100
AcDbSymbolTableRecord
100
AcDbBlockTableRecord
  2
_Open30
340
0
102
{BLKREFS
331
1BFA
331
1BFB
331
1C03
331
1C04
331
1C0C
331
1C0D
331
1C48
331
1C49
331
1C60
331
1C61
102
}
  0
BLOCK_RECORD
  5
1BA6
330
1
100
AcDbSymbolTableRecord
100
AcDbBlockTableRecord
  2
*D1
340
0
  0
BLOCK_RECORD
  5
1BBF
330
1
100
AcDbSymbolTableRecord
100
AcDbBlockTableRecord
  2
*D2
340
0
  0
BLOCK_RECORD
  5
1BD7
330
1
100
AcDbSymbolTableRecord
100
AcDbBlockTableRecord
  2
*D3
340
0
  0
BLOCK_RECORD
  5
1C38
330
1
100
AcDbSymbolTableRecord
100
AcDbBlockTableRecord
  2
*D4
340
0
  0
BLOCK_RECORD
  5
1C50
330
1
100
AcDbSymbolTableRecord
100
AcDbBlockTableRecord
  2
*D5
340
0
  0
ENDTAB
  0
ENDSEC
  0
SECTION
  2
BLOCKS
  0
BLOCK
  5
22
330
21
100
AcDbEntity
  8
0
100
AcDbBlockBegin
  2
*Model_Space
 70
     0
 10
0.0
 20
0.0
 30
0.0
  3
*Model_Space
  1

  0
ENDBLK
  5
23
330
21
100
AcDbEntity
  8
0
100
AcDbBlockEnd
  0
BLOCK
  5
17A8
330
17A6
100
AcDbEntity
 67
     1
  8
0
100
AcDbBlockBegin
  2
*Paper_Space
 70
     0
 10
0.0
 20
0.0
 30
0.0
  3
*Paper_Space
  1

  0
ENDBLK
  5
17A9
330
17A6
100
AcDbEntity
 67
     1
  8
0
100
AcDbBlockEnd
  0
BLOCK
  5
8F0
330
8EC
100
AcDbEntity
  8
0
100
AcDbBlockBegin
  2
_Open30
 70
     0
 10
0.0
 20
0.0
 30
0.0
  3
_Open30
  1

  0
LINE
  5
8ED
330
8EC
100
AcDbEntity
  8
0
  6
ByBlock
 62
     0
370
    -2
100
AcDbLine
 10
-1.0
 20
0.26794919
 30
0.0
 11
0.0
 21
0.0
 31
0.0
  0
LINE
  5
8EE
330
8EC
100
AcDbEntity
  8
0
  6
ByBlock
 62
     0
370
    -2
100
AcDbLine
 10
0.0
 20
0.0
 30
0.0
 11
-1.0
 21
-0.26794919
 31
0.0
  0
LINE
  5
8EF
330
8EC
100
AcDbEntity
  8
0
  6
ByBlock
 62
     0
370
    -2
100
AcDbLine
 10
0.0
 20
0.0
 30
0.0
 11
-1.0
 21
0.0
 31
0.0
  0
ENDBLK
  5
8F1
330
8EC
100
AcDbEntity
  8
0
100
AcDbBlockEnd
  0
BLOCK
  5
1BB0
330
1BA6
100
AcDbEntity
  8
0
100
AcDbBlockBegin
  2
*D1
 70
     1
 10
0.0
 20
0.0
 30
0.0
  3
*D1
  1

  0
LINE
  5
1BF7
330
1BA6
100
AcDbEntity
  8
sumpo
370
    -2
100
AcDbLine
 10
48.62080267859482
 20
230.8645880055081
 30
0.0
 11
48.62080267859482
 21
244.6140540494114
 31
0.0
  0
LINE
  5
1BF8
330
1BA6
100
AcDbEntity
  8
sumpo
370
    -2
100
AcDbLine
 10
93.18446776970402
 20
236.6145880055081
 30
0.0
 11
93.18446776970402
 21
244.6140540494114
 31
0.0
  0
LINE
  5
1BF9
330
1BA6
100
AcDbEntity
  8
sumpo
370
    -2
100
AcDbLine
 10
51.62080267859483
 20
242.6140540494114
 30
0.0
 11
90.18446776970401
 21
242.6140540494114
 31
0.0
  0
INSERT
  5
1BFA
330
1BA6
100
AcDbEntity
  8
sumpo
370
    -2
100
AcDbBlockReference
  2
_Open30
 10
48.62080267859482
 20
242.6140540494114
 30
0.0
 41
3.0
 42
3.0
 43
3.0
 50
180.0
  0
INSERT
  5
1BFB
330
1BA6
100
AcDbEntity
  8
sumpo
370
    -2
100
AcDbBlockReference
  2
_Open30
 10
93.18446776970402
 20
242.6140540494114
 30
0.0
 41
3.0
 42
3.0
 43
3.0
  0
MTEXT
  5
1BFC
330
1BA6
100
AcDbEntity
  8
sumpo
 62
     4
100
AcDbMText
 10
70.90263522414942
 20
245.1140540494114
 30
0.0
 40
3.0
 41
0.0
 71
     5
 72
     1
  1
33±2
 73
     1
 44
1.0
  0
POINT
  5
1BFD
330
1BA6
100
AcDbEntity
  8
Defpoints
 62
     0
100
AcDbPoint
 10
48.62080267859482
 20
226.8645880055081
 30
0.0
  0
POINT
  5
1BFE
330
1BA6
100
AcDbEntity
  8
Defpoints
 62
     0
100
AcDbPoint
 10
93.18446776970402
 20
232.6145880055081
 30
0.0
  0
POINT
  5
1BFF
330
1BA6
100
AcDbEntity
  8
Defpoints
 62
     0
100
AcDbPoint
 10
93.18446776970402
 20
242.6140540494114
 30
0.0
  0
ENDBLK
  5
1BB1
330
1BA6
100
AcDbEntity
  8
0
100
AcDbBlockEnd
  0
BLOCK
  5
1BC9
330
1BBF
100
AcDbEntity
  8
0
100
AcDbBlockBegin
  2
*D2
 70
     1
 10
0.0
 20
0.0
 30
0.0
  3
*D2
  1

  0
LINE
  5
1C00
330
1BBF
100
AcDbEntity
  8
sumpo
370
    -2
100
AcDbLine
 10
93.18446776970402
 20
236.6145880055081
 30
0.0
 11
93.18446776970402
 21
244.6140540494114
 31
0.0
  0
LINE
  5
1C01
330
1BBF
100
AcDbEntity
  8
sumpo
370
    -2
100
AcDbLine
 10
144.184467769704
 20
234.6145880055081
 30
0.0
 11
144.184467769704
 21
244.6140540494114
 31
0.0
  0
LINE
  5
1C02
330
1BBF
100
AcDbEntity
  8
sumpo
370
    -2
100
AcDbLine
 10
96.18446776970401
 20
242.6140540494114
 30
0.0
 11
141.184467769704
 21
242.6140540494114
 31
0.0
  0
INSERT
  5
1C03
330
1BBF
100
AcDbEntity
  8
sumpo
370
    -2
100
AcDbBlockReference
  2
_Open30
 10
93.18446776970402
 20
242.6140540494114
 30
0.0
 41
3.0
 42
3.0
 43
3.0
 50
180.0
  0
INSERT
  5
1C04
330
1BBF
100
AcDbEntity
  8
sumpo
370
    -2
100
AcDbBlockReference
  2
_Open30
 10
144.184467769704
 20
242.6140540494114
 30
0.0
 41
3.0
 42
3.0
 43
3.0
  0
MTEXT
  5
1C05
330
1BBF
100
AcDbEntity
  8
sumpo
 62
     4
100
AcDbMText
 10
118.684467769704
 20
245.1140540494114
 30
0.0
 40
3.0
 41
0.0
 71
     5
 72
     1
  1
40±5
 73
     1
 44
1.0
  0
POINT
  5
1C06
330
1BBF
100
AcDbEntity
  8
Defpoints
 62
     0
100
AcDbPoint
 10
93.18446776970402
 20
232.6145880055081
 30
0.0
  0
POINT
  5
1C07
330
1BBF
100
AcDbEntity
  8
Defpoints
 62
     0
100
AcDbPoint
 10
144.184467769704
 20
230.6145880055081
 30
0.0
  0
POINT
  5
1C08
330
1BBF
100
AcDbEntity
  8
Defpoints
 62
     0
100
AcDbPoint
 10
144.184467769704
 20
242.6140540494114
 30
0.0
  0
ENDBLK
  5
1BCA
330
1BBF
100
AcDbEntity
  8
0
100
AcDbBlockEnd
  0
BLOCK
  5
1BE1
330
1BD7
100
AcDbEntity
  8
0
100
AcDbBlockBegin
  2
*D3
 70
     1
 10
0.0
 20
0.0
 30
0.0
  3
*D3
  1

  0
LINE
  5
1C09
330
1BD7
100
AcDbEntity
  8
sumpo
370
    -2
100
AcDbLine
 10
144.184467769704
 20
234.6145880055081
 30
0.0
 11
144.184467769704
 21
244.6140540494114
 31
0.0
  0
LINE
  5
1C0A
330
1BD7
100
AcDbEntity
  8
sumpo
370
    -2
100
AcDbLine
 10
158.184467769704
 20
234.6145880055081
 30
0.0
 11
158.184467769704
 21
244.6140540494114
 31
0.0
  0
LINE
  5
1C0B
330
1BD7
100
AcDbEntity
  8
sumpo
370
    -2
100
AcDbLine
 10
147.184467769704
 20
242.6140540494114
 30
0.0
 11
155.184467769704
 21
242.6140540494114
 31
0.0
  0
INSERT
  5
1C0C
330
1BD7
100
AcDbEntity
  8
sumpo
370
    -2
100
AcDbBlockReference
  2
_Open30
 10
144.184467769704
 20
242.6140540494114
 30
0.0
 41
3.0
 42
3.0
 43
3.0
 50
180.0
  0
INSERT
  5
1C0D
330
1BD7
100
AcDbEntity
  8
sumpo
370
    -2
100
AcDbBlockReference
  2
_Open30
 10
158.184467769704
 20
242.6140540494114
 30
0.0
 41
3.0
 42
3.0
 43
3.0
  0
MTEXT
  5
1C0E
330
1BD7
100
AcDbEntity
  8
sumpo
 62
     4
100
AcDbMText
 10
151.184467769704
 20
245.1140540494114
 30
0.0
 40
3.0
 41
0.0
 71
     5
 72
     1
  1
10±2
 73
     1
 44
1.0
  0
POINT
  5
1C0F
330
1BD7
100
AcDbEntity
  8
Defpoints
 62
     0
100
AcDbPoint
 10
144.184467769704
 20
230.6145880055081
 30
0.0
  0
POINT
  5
1C10
330
1BD7
100
AcDbEntity
  8
Defpoints
 62
     0
100
AcDbPoint
 10
158.184467769704
 20
230.6145880055081
 30
0.0
  0
POINT
  5
1C11
330
1BD7
100
AcDbEntity
  8
Defpoints
 62
     0
100
AcDbPoint
 10
158.184467769704
 20
242.6140540494114
 30
0.0
  0
ENDBLK
  5
1BE2
330
1BD7
100
AcDbEntity
  8
0
100
AcDbBlockEnd
  0
BLOCK
  5
1C42
330
1C38
100
AcDbEntity
  8
0
100
AcDbBlockBegin
  2
*D4
 70
     1
 10
0.0
 20
0.0
 30
0.0
  3
*D4
  1

  0
LINE
  5
1C45
330
1C38
100
AcDbEntity
  8
sumpo
370
    -2
100
AcDbLine
 10
48.62080267859482
 20
230.8645880055081
 30
0.0
 11
48.62080267859482
 21
253.562629362881
 31
0.0
  0
LINE
  5
1C46
330
1C38
100
AcDbEntity
  8
sumpo
370
    -2
100
AcDbLine
 10
158.184467769704
 20
234.6145880055081
 30
0.0
 11
158.184467769704
 21
253.562629362881
 31
0.0
  0
LINE
  5
1C47
330
1C38
100
AcDbEntity
  8
sumpo
370
    -2
100
AcDbLine
 10
51.62080267859483
 20
251.562629362881
 30
0.0
 11
155.184467769704
 21
251.562629362881
 31
0.0
  0
INSERT
  5
1C48
330
1C38
100
AcDbEntity
  8
sumpo
370
    -2
100
AcDbBlockReference
  2
_Open30
 10
48.62080267859482
 20
251.562629362881
 30
0.0
 41
3.0
 42
3.0
 43
3.0
 50
180.0
  0
INSERT
  5
1C49
330
1C38
100
AcDbEntity
  8
sumpo
370
    -2
100
AcDbBlockReference
  2
_Open30
 10
158.184467769704
 20
251.562629362881
 30
0.0
 41
3.0
 42
3.0
 43
3.0
  0
MTEXT
  5
1C4A
330
1C38
100
AcDbEntity
  8
sumpo
 62
     4
100
AcDbMText
 10
103.4026352241494
 20
254.062629362881
 30
0.0
 40
3.0
 41
0.0
 71
     5
 72
     1
  1
83±5
 73
     1
 44
1.0
  0
POINT
  5
1C4B
330
1C38
100
AcDbEntity
  8
Defpoints
 62
     0
100
AcDbPoint
 10
48.62080267859482
 20
226.8645880055081
 30
0.0
  0
POINT
  5
1C4C
330
1C38
100
AcDbEntity
  8
Defpoints
 62
     0
100
AcDbPoint
 10
158.184467769704
 20
230.6145880055081
 30
0.0
  0
POINT
  5
1C4D
330
1C38
100
AcDbEntity
  8
Defpoints
 62
     0
100
AcDbPoint
 10
158.184467769704
 20
251.562629362881
 30
0.0
  0
ENDBLK
  5
1C43
330
1C38
100
AcDbEntity
  8
0
100
AcDbBlockEnd
  0
BLOCK
  5
1C5A
330
1C50
100
AcDbEntity
  8
0
100
AcDbBlockBegin
  2
*D5
 70
     1
 10
0.0
 20
0.0
 30
0.0
  3
*D5
  1

  0
LINE
  5
1C5D
330
1C50
100
AcDbEntity
  8
sumpo
370
    -2
100
AcDbLine
 10
49.22949833076872
 20
232.6145880055081
 30
0.0
 11
36.2336748110248
 21
232.6145880055081
 31
0.0
  0
LINE
  5
1C5E
330
1C50
100
AcDbEntity
  8
sumpo
370
    -2
100
AcDbLine
 10
49.22949833076885
 20
221.114588005508
 30
0.0
 11
36.2336748110248
 21
221.114588005508
 31
0.0
  0
LINE
  5
1C5F
330
1C50
100
AcDbEntity
  8
sumpo
370
    -2
100
AcDbLine
 10
38.23367481102481
 20
229.6145880055081
 30
0.0
 11
38.23367481102481
 21
224.114588005508
 31
0.0
  0
INSERT
  5
1C60
330
1C50
100
AcDbEntity
  8
sumpo
370
    -2
100
AcDbBlockReference
  2
_Open30
 10
38.23367481102481
 20
232.6145880055081
 30
0.0
 41
3.0
 42
3.0
 43
3.0
 50
90.0
  0
INSERT
  5
1C61
330
1C50
100
AcDbEntity
  8
sumpo
370
    -2
100
AcDbBlockReference
  2
_Open30
 10
38.23367481102481
 20
221.114588005508
 30
0.0
 41
3.0
 42
3.0
 43
3.0
 50
270.0
  0
MTEXT
  5
1C62
330
1C50
100
AcDbEntity
  8
sumpo
 62
     4
100
AcDbMText
 10
35.73367481102477
 20
226.8645880055081
 30
0.0
 40
3.0
 41
0.0
 71
     5
 72
     1
  1
8±1
 11
0.0000000000000001
 21
1.0
 31
0.0
 73
     1
 44
1.0
  0
POINT
  5
1C63
330
1C50
100
AcDbEntity
  8
Defpoints
 62
     0
100
AcDbPoint
 10
53.22949833076872
 20
232.6145880055081
 30
0.0
  0
POINT
  5
1C64
330
1C50
100
AcDbEntity
  8
Defpoints
 62
     0
100
AcDbPoint
 10
53.22949833076886
 20
221.114588005508
 30
0.0
  0
POINT
  5
1C65
330
1C50
100
AcDbEntity
  8
Defpoints
 62
     0
100
AcDbPoint
 10
38.23367481102481
 20
221.114588005508
 30
0.0
  0
ENDBLK
  5
1C5B
330
1C50
100
AcDbEntity
  8
0
100
AcDbBlockEnd
  0
ENDSEC
  0
SECTION
  2
ENTITIES
  0
TEXT
  5
12A3
330
21
100
AcDbEntity
  8
zubanmoji
100
AcDbText
 10
387.5794558289331
 20
727.3666329742143
 30
0.0
 40
8.0
  1
 
100
AcDbText
  0
TEXT
  5
12A5
330
21
100
AcDbEntity
  8
zubanmoji
100
AcDbText
 10
396.3118100227534
 20
658.3374339419963
 30
0.0
 40
5.0
  1

100
AcDbText
  0
LINE
  5
168E
330
21
100
AcDbEntity
  8
shiyouwaku
100
AcDbLine
 10
18.86920042624118
 20
130.3590639986822
 30
0.0
 11
18.86920042624122
 21
90.35906399868226
 31
0.0
  0
LINE
  5
1692
330
21
100
AcDbEntity
  8
shiyouwaku
100
AcDbLine
 10
18.86920042624118
 20
130.3590639986822
 30
0.0
 11
198.8692004262413
 21
130.3590639986822
 31
0.0
  0
LINE
  5
1694
330
21
100
AcDbEntity
  8
shiyouwaku
100
AcDbLine
 10
18.86920042624118
 20
125.3590639986823
 30
0.0
 11
198.8692004262413
 21
125.3590639986823
 31
0.0
  0
LINE
  5
1695
330
21
100
AcDbEntity
  8
shiyouwaku
100
AcDbLine
 10
23.86920042624117
 20
120.3590639986822
 30
0.0
 11
198.8692004262412
 21
120.3590639986823
 31
0.0
  0
LINE
  5
1696
330
21
100
AcDbEntity
  8
shiyouwaku
100
AcDbLine
 10
23.86920042624118
 20
110.3590639986822
 30
0.0
 11
198.8692004262412
 21
110.3590639986822
 31
0.0
  0
TEXT
  5
169B
330
21
100
AcDbEntity
  8
moji
100
AcDbText
 10
32.96920042624118
 20
126.4590639986822
 30
0.0
 40
3.0
  1
項　　　目
 72
     4
 11
41.36920042624118
 21
127.8590639986822
 31
0.0
100
AcDbText
  0
TEXT
  5
169C
330
21
100
AcDbEntity
  8
moji
100
AcDbText
 10
100.9692004262412
 20
126.3590639986822
 30
0.0
 40
3.0
  1
仕　　　　様
 72
     4
 11
111.3692004262412
 21
127.8590639986822
 31
0.0
100
AcDbText
  0
TEXT
  5
169E
330
21
100
AcDbEntity
  8
moji
100
AcDbText
 10
34.16920042624118
 20
121.3590639986823
 30
0.0
 40
3.0
  1
リード線
 72
     4
 11
41.36920042624118
 21
122.8590639986822
 31
0.0
100
AcDbText
  0
LINE
  5
16A9
330
21
100
AcDbEntity
  8
shiyouwaku
100
AcDbLine
 10
18.86920042624118
 20
100.3590639986822
 30
0.0
 11
198.8692004262412
 21
100.3590639986822
 31
0.0
  0
TEXT
  5
16B5
330
21
100
AcDbEntity
  8
moji
100
AcDbText
 10
36.36920042624122
 20
96.25906399868227
 30
0.0
 40
3.0
  1
耐熱性
 72
     4
 11
41.36920042624121
 21
97.85906399868226
 31
0.0
100
AcDbText
  0
TEXT
  5
16B6
330
21
100
AcDbEntity
  8
moji
100
AcDbText
 10
38.16920042624122
 20
91.35906399868225
 30
0.0
 40
3.0
  1
重量
 72
     4
 11
41.36920042624121
 21
92.85906399868226
 31
0.0
100
AcDbText
  0
TEXT
  5
175C
330
21
100
AcDbEntity
  8
zubanmoji
100
AcDbText
 10
125.9658668796702
 20
-0.8297189947439704
 30
0.0
 40
2.0
  1
TATSUTA ELECTRIC WIRE & CABLE CO., LTD. 
 72
     1
 11
158.2134859272892
 21
0.1702810052560295
 31
0.0
100
AcDbText
 73
     2
  0
TEXT
  5
175F
330
21
100
AcDbEntity
  8
zubanmoji
100
AcDbText
 10
187.0629369420027
 20
10.68250963322315
 30
0.0
 40
3.0
  1
mm
 72
     1
 11
191.348651227717
 21
12.18250963322315
 31
0.0
100
AcDbText
 73
     2
  0
TEXT
  5
1760
330
21
100
AcDbEntity
  8
zubanmoji
100
AcDbText
 10
176.148651227717
 20
10.68250963322315
 30
0.0
 40
3.0
  1
単位
 72
     1
 11
179.348651227717
 21
12.18250963322315
 31
0.0
100
AcDbText
 73
     2
  0
TEXT
  5
1761
330
21
100
AcDbEntity
  8
zubanmoji
100
AcDbText
 10
141.9915083705741
 20
10.68250963322315
 30
0.0
 40
3.0
  1
ZT-SR
 72
     1
 11
149.348651227717
 21
12.18250963322315
 31
0.0
100
AcDbText
 73
     2
  0
TEXT
  5
1762
330
21
100
AcDbEntity
  8
zubanmoji
100
AcDbText
 10
118.148651227717
 20
10.68250963322315
 30
0.0
 40
3.0
  1
型式
 72
     1
 11
121.348651227717
 21
12.18250963322315
 31
0.0
100
AcDbText
 73
     2
  0
TEXT
  5
1765
330
21
100
AcDbEntity
  8
zubanmoji
100
AcDbText
 10
138.048651227717
 20
16.68250963322316
 30
0.0
 40
3.0
  1
高感度検知器専用断線検知端末
 72
     1
 11
162.848651227717
 21
18.18250963322316
 31
0.0
100
AcDbText
 73
     2
  0
TEXT
  5
1766
330
21
100
AcDbEntity
  8
zubanmoji
100
AcDbText
 10
118.148651227717
 20
16.68250963322315
 30
0.0
 40
3.0
  1
名称
 72
     1
 11
121.348651227717
 21
18.18250963322315
 31
0.0
100
AcDbText
 73
     2
  0
LINE
  5
1767
330
21
100
AcDbEntity
  8
zubanwaku
100
AcDbLine
 10
198.348651227717
 20
21.18250963322315
 30
0.0
 11
198.348651227717
 21
-2.817490366776844
 31
0.0
  0
LINE
  5
1768
330
21
100
AcDbEntity
  8
zubanwaku
100
AcDbLine
 10
185.348651227717
 20
15.18250963322316
 30
0.0
 11
185.348651227717
 21
9.182509633223162
 31
0.0
  0
LINE
  5
1769
330
21
100
AcDbEntity
  8
zubanwaku
100
AcDbLine
 10
173.3486512277169
 20
15.18250963322316
 30
0.0
 11
173.348651227717
 21
9.182509633223162
 31
0.0
  0
LINE
  5
176A
330
21
100
AcDbEntity
  8
zubanwaku
100
AcDbLine
 10
127.348651227717
 20
21.18250963322315
 30
0.0
 11
127.348651227717
 21
3.182509633223157
 31
0.0
  0
LINE
  5
176C
330
21
100
AcDbEntity
  8
zubanwaku
100
AcDbLine
 10
115.348651227717
 20
-2.817490366776844
 30
0.0
 11
198.348651227717
 21
-2.817490366776844
 31
0.0
  0
LINE
  5
176D
330
21
100
AcDbEntity
  8
zubanwaku
100
AcDbLine
 10
115.348651227717
 20
9.182509633223155
 30
0.0
 11
198.348651227717
 21
9.182509633223162
 31
0.0
  0
LINE
  5
176E
330
21
100
AcDbEntity
  8
zubanwaku
100
AcDbLine
 10
115.348651227717
 20
15.18250963322315
 30
0.0
 11
198.348651227717
 21
15.18250963322316
 31
0.0
  0
LINE
  5
176F
330
21
100
AcDbEntity
  8
zubanwaku
100
AcDbLine
 10
115.348651227717
 20
21.18250963322315
 30
0.0
 11
198.348651227717
 21
21.18250963322316
 31
0.0
  0
LINE
  5
1770
330
21
100
AcDbEntity
  8
zubanwaku
100
AcDbLine
 10
115.348651227717
 20
21.18250963322315
 30
0.0
 11
115.348651227717
 21
-2.817490366776844
 31
0.0
  0
LINE
  5
195E
330
21
100
AcDbEntity
  8
shiyouwaku
100
AcDbLine
 10
23.86920042624118
 20
105.3590639986822
 30
0.0
 11
198.8692004262412
 21
105.3590639986822
 31
0.0
  0
LINE
  5
1963
330
21
100
AcDbEntity
  8
shiyouwaku
100
AcDbLine
 10
23.86920042624117
 20
115.3590639986823
 30
0.0
 11
198.8692004262412
 21
115.3590639986822
 31
0.0
  0
TEXT
  5
1964
330
21
100
AcDbEntity
  8
moji
100
AcDbText
 10
65.70792146355237
 20
121.3590639986823
 30
0.0
 40
3.0
  1
PVC耐熱電線　UL1015LF  22AWG  WHITE
 11
65.70792146355237
 21
122.8590639986822
 31
0.0
100
AcDbText
 73
     2
  0
TEXT
  5
1965
330
21
100
AcDbEntity
  8
moji
100
AcDbText
 10
65.70792146355237
 20
116.3590639986823
 30
0.0
 40
3.0
  1
2MΩ±１％　1/4W金属皮膜抵抗器
 11
65.70792146355237
 21
117.8590639986823
 31
0.0
100
AcDbText
 73
     2
  0
TEXT
  5
1966
330
21
100
AcDbEntity
  8
moji
100
AcDbText
 10
65.70792146355237
 20
111.3590639986823
 30
0.0
 40
3.0
  1
鉛フリーはんだ
 11
65.70792146355237
 21
112.8590639986823
 31
0.0
100
AcDbText
 73
     2
  0
TEXT
  5
1967
330
21
100
AcDbEntity
  8
moji
100
AcDbText
 10
65.70792146355237
 20
106.3590639986822
 30
0.0
 40
3.0
  1
PVCキャップ成形品
 11
65.70792146355237
 21
107.8590639986823
 31
0.0
100
AcDbText
 73
     2
  0
TEXT
  5
1968
330
21
100
AcDbEntity
  8
moji
100
AcDbText
 10
65.70792146355238
 20
101.3590639986823
 30
0.0
 40
3.0
  1
脱アセトンタイプのＲＴＶゴム　信越　KE347T
 11
65.70792146355238
 21
102.8590639986823
 31
0.0
100
AcDbText
 73
     2
  0
LINE
  5
198D
330
21
100
AcDbEntity
  8
shiyouwaku
100
AcDbLine
 10
198.8692004262413
 20
130.3590639986822
 30
0.0
 11
198.8692004262412
 21
90.35906399868222
 31
0.0
  0
LINE
  5
1992
330
21
100
AcDbEntity
  8
shiyouwaku
100
AcDbLine
 10
18.86920042624122
 20
95.35906399868226
 30
0.0
 11
198.8692004262413
 21
95.35906399868222
 31
0.0
  0
LINE
  5
1993
330
21
100
AcDbEntity
  8
shiyouwaku
100
AcDbLine
 10
18.86920042624122
 20
90.35906399868226
 30
0.0
 11
198.8692004262412
 21
90.35906399868222
 31
0.0
  0
TEXT
  5
1999
330
21
100
AcDbEntity
  8
moji
100
AcDbText
 10
65.70792146355241
 20
96.35906399868225
 30
0.0
 40
3.0
  1
連続使用温度　60℃以下
 11
65.70792146355241
 21
97.85906399868226
 31
0.0
100
AcDbText
 73
     2
  0
TEXT
  5
199A
330
21
100
AcDbEntity
  8
moji
100
AcDbText
 10
65.70792146355241
 20
91.35906399868225
 30
0.0
 40
3.0
  1
3.2g±0.8g/本
 11
65.70792146355241
 21
92.85906399868226
 31
0.0
100
AcDbText
 73
     2
  0
TEXT
  5
199B
330
21
100
AcDbEntity
  8
moji
100
AcDbText
 10
30.01920042624118
 20
106.3590639986822
 30
0.0
 40
3.0
  1
PVCキャップ
 72
     4
 11
41.36920042624118
 21
107.8590639986823
 31
0.0
100
AcDbText
  0
LINE
  5
199D
330
21
100
AcDbEntity
  8
zubanwaku
100
AcDbLine
 10
115.348651227717
 20
3.182509633223155
 30
0.0
 11
198.348651227717
 21
3.182509633223162
 31
0.0
  0
TEXT
  5
199E
330
21
100
AcDbEntity
  8
zubanmoji
100
AcDbText
 10
118.048651227717
 20
4.682509633223155
 30
0.0
 40
3.0
  1
図番
 72
     1
 11
121.348651227717
 21
6.182509633223155
 31
0.0
100
AcDbText
 73
     2
  0
TEXT
  5
199F
330
21
100
AcDbEntity
  8
zubanmoji
100
AcDbText
 10
143.4915083705741
 20
4.68250963322316
 30
0.0
 40
3.0
  1
TS-KS-W1508-1
 72
     1
 11
162.848651227717
 21
6.18250963322316
 31
0.0
100
AcDbText
 73
     2
  0
TEXT
  5
19D2
330
21
100
AcDbEntity
  8
moji
100
AcDbText
 10
76.80955855029745
 20
198.7963221490654
 30
0.0
 40
3.0
  1
ZT-SR姿図(キャップ部断面）
 11
76.80955855029745
 21
200.2963221490654
 31
0.0
100
AcDbText
 73
     2
  0
LINE
  5
19D4
330
21
100
AcDbEntity
  8
shiyouwaku
100
AcDbLine
 10
75.51325794759262
 20
197.6519925425245
 30
0.0
 11
129.6485455127485
 21
197.6519925425245
 31
0.0
  0
MTEXT
  5
1A70
330
21
100
AcDbEntity
  8
sumpo
 62
     4
100
AcDbMText
 10
179.553258056136
 20
198.8578175964623
 30
0.0
 40
3.0
 41
0.0
 71
     1
 72
     1
  1

 73
     1
 44
1.0
  0
MTEXT
  5
1A75
330
21
100
AcDbEntity
  8
sumpo
 62
     4
100
AcDbMText
 10
158.9223307802281
 20
187.981255187511
 30
0.0
 40
3.0
 41
0.0
 71
     9
 72
     1
  1

 73
     1
 44
1.0
  0
MTEXT
  5
1AB4
330
21
100
AcDbEntity
  8
sumpo
 62
     4
100
AcDbMText
 10
175.1761079524212
 20
223.7046589285288
 30
0.0
 40
3.0
 41
0.0
 71
     1
 72
     1
  1

 73
     1
 44
1.0
  0
LINE
  5
1AEE
330
21
100
AcDbEntity
  8
shiyouwaku
100
AcDbLine
 10
23.86920042624118
 20
125.3590639986823
 30
0.0
 11
23.86920042624118
 21
100.3590639986822
 31
0.0
  0
MTEXT
  5
1AEF
330
21
100
AcDbEntity
  8
moji
100
AcDbMText
 10
19.85130809458212
 20
121.5758913126336
 30
0.0
 40
3.0
 41
4.017892331659055
 71
     1
 72
     5
  1
使用部品
 73
     1
 44
1.0
  0
TEXT
  5
1AF0
330
21
100
AcDbEntity
  8
moji
100
AcDbText
 10
36.34062899766976
 20
116.3590639986822
 30
0.0
 40
3.0
  1
抵抗器
 72
     4
 11
41.36920042624118
 21
117.8590639986822
 31
0.0
100
AcDbText
  0
TEXT
  5
1AF3
330
21
100
AcDbEntity
  8
moji
100
AcDbText
 10
36.36920042624118
 20
101.3590639986823
 30
0.0
 40
3.0
  1
充填材
 72
     4
 11
41.36920042624118
 21
102.8590639986823
 31
0.0
100
AcDbText
  0
LINE
  5
1B19
330
21
100
AcDbEntity
  8
gaikei
100
AcDbLine
 10
77.18446776970402
 20
227.614588005508
 30
0.0
 11
144.1844677697041
 21
227.614588005508
 31
0.0
  0
LINE
  5
1B1A
330
21
100
AcDbEntity
  8
gaikei
100
AcDbLine
 10
63.08451718435581
 20
226.1145880055079
 30
0.0
 11
144.184467769704
 21
226.114588005508
 31
0.0
  0
LINE
  5
1B1B
330
21
100
AcDbEntity
  8
gaikei
100
AcDbLine
 10
77.18446776970406
 20
230.6145880055081
 30
0.0
 11
144.184467769704
 21
230.6145880055081
 31
0.0
  0
LINE
  5
1B1C
330
21
100
AcDbEntity
  8
gaikei
100
AcDbLine
 10
61.84187649723646
 20
223.114588005508
 30
0.0
 11
144.184467769704
 21
223.114588005508
 31
0.0
  0
LINE
  5
1B1D
330
21
100
AcDbEntity
  8
gaikei
100
AcDbLine
 10
165.1844677697041
 20
230.6145880055081
 30
0.0
 11
165.184467769704
 21
227.614588005508
 31
0.0
  0
LINE
  5
1B1E
330
21
100
AcDbEntity
  8
gaikei
100
AcDbLine
 10
151.184467769704
 20
230.6145880055081
 30
0.0
 11
151.184467769704
 21
227.614588005508
 31
0.0
  0
LINE
  5
1B1F
102
{ACAD_REACTORS
330
1BD5
330
1BED
102
}
330
21
100
AcDbEntity
  8
gaikei
100
AcDbLine
 10
144.184467769704
 20
230.6145880055081
 30
0.0
 11
144.1844677697041
 21
227.614588005508
 31
0.0
  0
LINE
  5
1B20
330
21
100
AcDbEntity
  8
gaikei
100
AcDbLine
 10
77.18446776970406
 20
230.6145880055081
 30
0.0
 11
77.18446776970402
 21
227.614588005508
 31
0.0
  0
LINE
  5
1B21
330
21
100
AcDbEntity
  8
gaikei
100
AcDbLine
 10
165.184467769704
 20
226.114588005508
 30
0.0
 11
165.184467769704
 21
223.114588005508
 31
0.0
  0
LINE
  5
1B22
330
21
100
AcDbEntity
  8
gaikei
100
AcDbLine
 10
151.1844677697041
 20
226.114588005508
 30
0.0
 11
151.184467769704
 21
223.114588005508
 31
0.0
  0
LINE
  5
1B23
330
21
100
AcDbEntity
  8
gaikei
100
AcDbLine
 10
144.184467769704
 20
226.114588005508
 30
0.0
 11
144.184467769704
 21
223.114588005508
 31
0.0
  0
LINE
  5
1B24
102
{ACAD_REACTORS
330
1BED
330
1C4E
102
}
330
21
100
AcDbEntity
  8
gaikei
100
AcDbLine
 10
151.184467769704
 20
230.6145880055081
 30
0.0
 11
165.1844677697041
 21
230.6145880055081
 31
0.0
  0
LINE
  5
1B25
330
21
100
AcDbEntity
  8
gaikei
100
AcDbLine
 10
151.184467769704
 20
227.614588005508
 30
0.0
 11
165.184467769704
 21
227.614588005508
 31
0.0
  0
LINE
  5
1B26
330
21
100
AcDbEntity
  8
gaikei
100
AcDbLine
 10
151.1844677697041
 20
226.114588005508
 30
0.0
 11
165.184467769704
 21
226.114588005508
 31
0.0
  0
LINE
  5
1B27
330
21
100
AcDbEntity
  8
gaikei
100
AcDbLine
 10
151.184467769704
 20
223.114588005508
 30
0.0
 11
165.184467769704
 21
223.114588005508
 31
0.0
  0
LINE
  5
1B2A
330
21
100
AcDbEntity
  8
gaikei
100
AcDbLine
 10
144.184467769704
 20
229.4145880055081
 30
0.0
 11
151.184467769704
 21
229.4145880055081
 31
0.0
  0
LINE
  5
1B2B
330
21
100
AcDbEntity
  8
gaikei
100
AcDbLine
 10
144.184467769704
 20
228.814588005508
 30
0.0
 11
151.184467769704
 21
228.814588005508
 31
0.0
  0
LINE
  5
1B2C
330
21
100
AcDbEntity
  8
gaikei
100
AcDbLine
 10
144.184467769704
 20
228.214588005508
 30
0.0
 11
151.184467769704
 21
228.2145880055081
 31
0.0
  0
LINE
  5
1B2D
330
21
100
AcDbEntity
  8
gaikei
100
AcDbLine
 10
144.184467769704
 20
230.014588005508
 30
0.0
 11
151.184467769704
 21
230.0145880055081
 31
0.0
  0
LINE
  5
1B2E
330
21
100
AcDbEntity
  8
gaikei
100
AcDbLine
 10
144.184467769704
 20
223.7145880055081
 30
0.0
 11
151.1844677697039
 21
223.714588005508
 31
0.0
  0
LINE
  5
1B2F
330
21
100
AcDbEntity
  8
gaikei
100
AcDbLine
 10
144.184467769704
 20
225.5145880055081
 30
0.0
 11
151.184467769704
 21
225.514588005508
 31
0.0
  0
LINE
  5
1B30
330
21
100
AcDbEntity
  8
gaikei
100
AcDbLine
 10
144.184467769704
 20
224.9145880055081
 30
0.0
 11
151.184467769704
 21
224.9145880055081
 31
0.0
  0
LINE
  5
1B31
330
21
100
AcDbEntity
  8
gaikei
100
AcDbLine
 10
144.184467769704
 20
224.3145880055081
 30
0.0
 11
151.1844677697039
 21
224.314588005508
 31
0.0
  0
LINE
  5
1B33
330
21
100
AcDbEntity
  8
gaikei
100
AcDbLine
 10
72.31717916285127
 20
227.3004114637595
 30
0.0
 11
75.8171791628513
 21
227.3004114637595
 31
0.0
  0
LINE
  5
1B35
330
21
100
AcDbEntity
  8
gaikei
100
AcDbLine
 10
75.8171791628513
 20
229.8004114637596
 30
0.0
 11
72.31717916285127
 21
229.8004114637596
 31
0.0
  0
ARC
  5
1B38
330
21
100
AcDbEntity
  8
gaikei
100
AcDbCircle
 10
75.8171791628513
 20
228.5504114637595
 30
0.0
 40
1.249999999999971
100
AcDbArc
 50
270.0
 51
90.0
  0
LINE
  5
1B3C
330
21
100
AcDbEntity
  8
gaikei
100
AcDbLine
 10
71.17153523911231
 20
229.0504114637595
 30
0.0
 11
67.48139272522436
 21
229.0504114637595
 31
0.0
  0
LINE
  5
1B3D
330
21
100
AcDbEntity
  8
gaikei
100
AcDbLine
 10
71.17153523911231
 20
228.0504114637595
 30
0.0
 11
67.48139272522438
 21
228.0504114637595
 31
0.0
  0
ARC
  5
1B47
330
21
100
AcDbEntity
  8
gaikei
100
AcDbCircle
 10
72.31717916285127
 20
228.5504114637595
 30
0.0
 40
1.25
100
AcDbArc
 50
90.0
 51
270.0
  0
LINE
  5
1B48
330
21
100
AcDbEntity
  8
gaikei
100
AcDbLine
 10
71.06717916285127
 20
228.5504114637595
 30
0.0
 11
67.56717916285127
 21
228.5504114637595
 31
0.0
  0
LINE
  5
1B4B
330
21
100
AcDbEntity
  8
gaikei
100
AcDbLine
 10
66.06717916285126
 20
227.0504114637596
 30
0.0
 11
62.06717916285128
 21
227.0504114637595
 31
0.0
  0
LINE
  5
1B4C
330
21
100
AcDbEntity
  8
gaikei
100
AcDbLine
 10
66.06717916285123
 20
230.0504114637595
 30
0.0
 11
62.06717916285121
 21
230.0504114637595
 31
0.0
  0
ARC
  5
1B4F
330
21
100
AcDbEntity
  8
gaikei
100
AcDbCircle
 10
66.06717916285124
 20
228.5504114637595
 30
0.0
 40
1.500000000000028
100
AcDbArc
 50
270.0000000000005
 51
90.00000000000055
  0
ARC
  5
1B51
330
21
100
AcDbEntity
  8
gaikei
100
AcDbCircle
 10
62.06717916285125
 20
228.5504114637595
 30
0.0
 40
1.499999999999971
100
AcDbArc
 50
90.00000000000108
 51
270.0000000000011
  0
LINE
  5
1B53
330
21
100
AcDbEntity
  8
gaikei
100
AcDbLine
 10
57.06717916285121
 20
228.5504114637593
 30
0.0
 11
60.56717916285122
 21
228.5504114637594
 31
0.0
  0
ARC
  5
1B54
330
21
100
AcDbEntity
  8
gaikei
100
AcDbCircle
 10
55.81717916285121
 20
228.5504114637592
 30
0.0
 40
1.25
100
AcDbArc
 50
270.0000000000021
 51
90.00000000000218
  0
LINE
  5
1B55
330
21
100
AcDbEntity
  8
gaikei
100
AcDbLine
 10
56.96282308659021
 20
228.0504114637592
 30
0.0
 11
60.65296560047814
 21
228.0504114637594
 31
0.0
  0
LINE
  5
1B56
330
21
100
AcDbEntity
  8
gaikei
100
AcDbLine
 10
56.96282308659016
 20
229.0504114637593
 30
0.0
 11
60.65296560047811
 21
229.0504114637593
 31
0.0
  0
ARC
  5
1B57
330
21
100
AcDbEntity
  8
gaikei
100
AcDbCircle
 10
52.31717916285119
 20
228.5504114637591
 30
0.0
 40
1.249999999999971
100
AcDbArc
 50
90.00000000000218
 51
270.0000000000021
  0
LINE
  5
1B58
330
21
100
AcDbEntity
  8
gaikei
100
AcDbLine
 10
52.31717916285115
 20
229.8004114637591
 30
0.0
 11
55.81717916285118
 21
229.8004114637592
 31
0.0
  0
LINE
  5
1B59
330
21
100
AcDbEntity
  8
gaikei
100
AcDbLine
 10
55.81717916285128
 20
227.3004114637592
 30
0.0
 11
52.31717916285124
 21
227.3004114637591
 31
0.0
  0
LINE
  5
1B60
330
21
100
AcDbEntity
  8
gaikei
100
AcDbLine
 10
64.31717916285122
 20
230.0504114637595
 30
0.0
 11
64.31717916285127
 21
227.0504114637595
 31
0.0
  0
LINE
  5
1B61
330
21
100
AcDbEntity
  8
gaikei
100
AcDbLine
 10
63.81717916285122
 20
230.0504114637595
 30
0.0
 11
63.81717916285127
 21
227.0504114637595
 31
0.0
  0
LINE
  5
1B62
330
21
100
AcDbEntity
  8
gaikei
100
AcDbLine
 10
64.81717916285122
 20
230.0504114637595
 30
0.0
 11
64.81717916285127
 21
227.0504114637595
 31
0.0
  0
LINE
  5
1B63
330
21
100
AcDbEntity
  8
gaikei
100
AcDbLine
 10
65.31717916285121
 20
230.0504114637595
 30
0.0
 11
65.31717916285128
 21
227.0504114637595
 31
0.0
  0
LINE
  5
1B64
330
21
100
AcDbEntity
  8
gaikei
100
AcDbLine
 10
63.31717916285121
 20
230.0504114637595
 30
0.0
 11
63.31717916285128
 21
227.0504114637595
 31
0.0
  0
LINE
  5
1B65
330
21
100
AcDbEntity
  8
gaikei
100
AcDbLine
 10
62.81717916285121
 20
230.0504114637595
 30
0.0
 11
62.81717916285128
 21
227.0504114637595
 31
0.0
  0
LINE
  5
1B66
330
21
100
AcDbEntity
  8
gaikei
100
AcDbLine
 10
62.31717916285122
 20
230.0504114637595
 30
0.0
 11
62.31717916285127
 21
227.0504114637595
 31
0.0
  0
LINE
  5
1B67
330
21
100
AcDbEntity
  8
gaikei
100
AcDbLine
 10
65.81717916285121
 20
230.0504114637595
 30
0.0
 11
65.81717916285128
 21
227.0504114637595
 31
0.0
  0
HATCH
  5
1B79
330
21
100
AcDbEntity
  8
hacchi
100
AcDbHatch
 10
0.0
 20
0.0
 30
0.0
210
0.0
220
0.0
230
1.0
  2
SOLID
 70
     1
 71
     0
 91
        4
 92
        7
 72
     0
 73
     1
 93
        4
 10
64.31717916285126
 20
227.0504114637595
 10
64.81717916285127
 20
227.0504114637596
 10
64.81717916285122
 20
230.0504114637595
 10
64.31717916285122
 20
230.0504114637595
 97
        0
 92
        7
 72
     0
 73
     1
 93
        4
 10
65.81717916285121
 20
230.0504114637595
 10
65.31717916285119
 20
230.0504114637595
 10
65.31717916285126
 20
227.0504114637596
 10
65.81717916285128
 20
227.0504114637596
 97
        0
 92
        7
 72
     0
 73
     1
 93
        4
 10
63.31717916285126
 20
227.0504114637595
 10
63.81717916285127
 20
227.0504114637595
 10
63.81717916285122
 20
230.0504114637595
 10
63.3171791628512
 20
230.0504114637595
 97
        0
 92
        7
 72
     0
 73
     1
 93
        4
 10
62.81717916285123
 20
230.0504114637595
 10
62.3171791628512
 20
230.0504114637595
 10
62.31717916285127
 20
227.0504114637595
 10
62.81717916285126
 20
227.0504114637594
 97
        0
 75
     0
 76
     1
 47
0.0256655689512546
 98
        4
 10
64.44668589472506
 20
228.6614966117991
 10
65.75629168725889
 20
228.3791750924992
 10
63.52225867636615
 20
228.3791750924992
 10
62.62350980300879
 20
228.3535099476412
450
        0
451
        0
460
0.0
461
0.0
452
        1
462
1.0
453
        2
463
0.0
 63
     5
421
      255
463
1.0
 63
    51
421
 16777113
470
LINEAR
  0
LINE
  5
1B85
330
21
100
AcDbEntity
  8
gaikei
100
AcDbLine
 10
56.18502224774402
 20
225.4577337560157
 30
0.0
 11
55.83882817003157
 21
225.8039278337282
 31
0.0
  0
ARC
  5
1B8A
330
21
100
AcDbEntity
  8
gaikei
100
AcDbCircle
 10
63.08451718435581
 20
234.1145880055079
 30
0.0
 40
8.0
100
AcDbArc
 50
230.4013080008918
 51
270.0
  0
ARC
  5
1B8B
330
21
100
AcDbEntity
  8
gaikei
100
AcDbCircle
 10
61.84187649723646
 20
231.1145880055081
 30
0.0
 40
8.0
100
AcDbArc
 50
224.9999999999995
 51
270.0
  0
LINE
  5
1B8C
330
21
100
AcDbEntity
  8
gaikei
100
AcDbLine
 10
55.83882817003157
 20
225.8039278337282
 30
0.0
 11
57.98526598758994
 21
227.9503656512866
 31
0.0
  0
LINE
  5
1B8E
330
21
100
AcDbEntity
  8
gaikei
100
AcDbLine
 10
93.18446776970402
 20
232.6145880055081
 30
0.0
 11
93.18446776970402
 21
231.6145880055081
 31
0.0
  0
LINE
  5
1B8F
330
21
100
AcDbEntity
  8
gaikei
100
AcDbLine
 10
53.75201361130111
 20
231.6145880055081
 30
0.0
 11
93.18446776970402
 21
231.6145880055081
 31
0.0
  0
LINE
  5
1B90
330
21
100
AcDbEntity
  8
gaikei
100
AcDbLine
 10
53.75201361454391
 20
222.1145880055081
 30
0.0
 11
93.18446776970407
 21
222.1145880055081
 31
0.0
  0
LINE
  5
1B91
102
{ACAD_REACTORS
330
1BBC
330
1BD5
330
1C66
102
}
330
21
100
AcDbEntity
  8
gaikei
100
AcDbLine
 10
53.22949833076872
 20
232.614588005508
 30
0.0
 11
93.18446776970402
 21
232.6145880055081
 31
0.0
  0
LINE
  5
1B92
330
21
100
AcDbEntity
  8
gaikei
100
AcDbLine
 10
53.22949833076883
 20
221.114588005508
 30
0.0
 11
93.18446776970409
 21
221.1145880055081
 31
0.0
  0
LINE
  5
1B94
330
21
100
AcDbEntity
  8
gaikei
100
AcDbLine
 10
93.18446776970407
 20
222.1145880055081
 30
0.0
 11
93.18446776970409
 21
221.1145880055081
 31
0.0
  0
LINE
  5
1B9A
330
21
100
AcDbEntity
  8
gaikei
100
AcDbLine
 10
48.97899227502384
 20
228.0067169819052
 30
0.0
 11
51.58768792719773
 21
231.7567169819052
 31
0.0
  0
LINE
  5
1B9B
330
21
100
AcDbEntity
  8
gaikei
100
AcDbLine
 10
48.97899227502387
 20
225.7224590291108
 30
0.0
 11
51.58768792719787
 21
221.9724590291108
 31
0.0
  0
LINE
  5
1B9C
330
21
100
AcDbEntity
  8
gaikei
100
AcDbLine
 10
50.19715972946925
 20
228.0067170015097
 30
0.0
 11
52.11020320773013
 21
230.7567169819053
 31
0.0
  0
LINE
  5
1B9D
330
21
100
AcDbEntity
  8
gaikei
100
AcDbLine
 10
50.19715972946926
 20
225.7224590487153
 30
0.0
 11
52.11020320806359
 21
222.9724590332931
 31
0.0
  0
ARC
  5
1B9F
330
21
100
AcDbEntity
  8
gaikei
100
AcDbCircle
 10
53.75201361130111
 20
229.6145880055081
 30
0.0
 40
2.0
100
AcDbArc
 50
90.00000000000012
 51
145.1755108430431
  0
ARC
  5
1BA0
102
{ACAD_REACTORS
330
1C66
102
}
330
21
100
AcDbEntity
  8
gaikei
100
AcDbCircle
 10
53.22949833076872
 20
230.614588005508
 30
0.0
 40
2.0
100
AcDbArc
 50
90.00000000000007
 51
145.1755108430435
  0
ARC
  5
1BA1
330
21
100
AcDbEntity
  8
gaikei
100
AcDbCircle
 10
51.83897013304022
 20
226.8645880251125
 30
0.0
 40
2.0
100
AcDbArc
 50
145.1755108430431
 51
214.8244891569574
  0
ARC
  5
1BA2
102
{ACAD_REACTORS
330
1BBC
330
1C4E
102
}
330
21
100
AcDbEntity
  8
gaikei
100
AcDbCircle
 10
50.62080267859482
 20
226.8645880055081
 30
0.0
 40
2.0
100
AcDbArc
 50
145.1755108430435
 51
214.8244891569575
  0
ARC
  5
1BA3
330
21
100
AcDbEntity
  8
gaikei
100
AcDbCircle
 10
53.75201361454391
 20
224.1145880055081
 30
0.0
 40
2.0
100
AcDbArc
 50
214.8244890110073
 51
270.0
  0
ARC
  5
1BA4
102
{ACAD_REACTORS
330
1C66
102
}
330
21
100
AcDbEntity
  8
gaikei
100
AcDbCircle
 10
53.22949833076883
 20
223.114588005508
 30
0.0
 40
2.0
100
AcDbArc
 50
214.8244891569576
 51
270.0000000000001
  0
DIMENSION
  5
1BA5
102
{ACAD_XDICTIONARY
360
1BB2
102
}
102
{ACAD_REACTORS
330
1BBC
102
}
330
21
100
AcDbEntity
  8
sumpo
100
AcDbDimension
  2
*D1
 10
93.18446776970402
 20
242.6140540494114
 30
0.0
 11
70.90263522414942
 21
245.1140540494114
 31
0.0
 70
    32
  1
33±2
 71
     5
 42
44.56366509110918
  3
ISO-25-4mm
100
AcDbAlignedDimension
 13
48.62080267859482
 23
226.8645880055081
 33
0.0
 14
93.18446776970402
 24
232.6145880055081
 34
0.0
100
AcDbRotatedDimension
  0
DIMENSION
  5
1BBE
102
{ACAD_XDICTIONARY
360
1BCB
102
}
102
{ACAD_REACTORS
330
1BD5
102
}
330
21
100
AcDbEntity
  8
sumpo
100
AcDbDimension
  2
*D2
 10
144.184467769704
 20
242.6140540494114
 30
0.0
 11
118.684467769704
 21
245.1140540494114
 31
0.0
 70
    32
  1
40±5
 71
     5
 42
51.00000000000003
  3
ISO-25-4mm
100
AcDbAlignedDimension
 13
93.18446776970402
 23
232.6145880055081
 33
0.0
 14
144.184467769704
 24
230.6145880055081
 34
0.0
100
AcDbRotatedDimension
1001
ACAD
1000
DSTYLE
1002
{
1070
   279
1070
     1
1002
}
  0
DIMENSION
  5
1BD6
102
{ACAD_XDICTIONARY
360
1BE3
102
}
102
{ACAD_REACTORS
330
1BED
102
}
330
21
100
AcDbEntity
  8
sumpo
100
AcDbDimension
  2
*D3
 10
158.184467769704
 20
242.6140540494114
 30
0.0
 11
151.184467769704
 21
245.1140540494114
 31
0.0
 70
    32
  1
10±2
 71
     5
 42
14.0
  3
ISO-25-4mm
100
AcDbAlignedDimension
 13
144.184467769704
 23
230.6145880055081
 33
0.0
 14
158.184467769704
 24
230.6145880055081
 34
0.0
100
AcDbRotatedDimension
1001
ACAD
1000
DSTYLE
1002
{
1070
   279
1070
     1
1002
}
  0
DIMENSION
  5
1C37
102
{ACAD_XDICTIONARY
360
1C44
102
}
102
{ACAD_REACTORS
330
1C4E
102
}
330
21
100
AcDbEntity
  8
sumpo
100
AcDbDimension
  2
*D4
 10
158.184467769704
 20
251.562629362881
 30
0.0
 11
103.4026352241494
 21
254.062629362881
 31
0.0
 70
    32
  1
83±5
 71
     5
 42
109.5636650911092
  3
ISO-25-4mm
100
AcDbAlignedDimension
 13
48.62080267859482
 23
226.8645880055081
 33
0.0
 14
158.184467769704
 24
230.6145880055081
 34
0.0
100
AcDbRotatedDimension
  0
DIMENSION
  5
1C4F
102
{ACAD_XDICTIONARY
360
1C5C
102
}
102
{ACAD_REACTORS
330
1C66
102
}
330
21
100
AcDbEntity
  8
sumpo
100
AcDbDimension
  2
*D5
 10
38.23367481102481
 20
221.114588005508
 30
0.0
 11
35.73367481102477
 21
226.8645880055081
 31
0.0
 70
    32
  1
8±1
 71
     5
 42
11.50000000000003
  3
ISO-25-4mm
100
AcDbAlignedDimension
 13
53.22949833076872
 23
232.6145880055081
 33
0.0
 14
53.22949833076886
 24
221.114588005508
 34
0.0
 50
90.0
100
AcDbRotatedDimension
  0
LINE
  5
1C74
330
21
100
AcDbEntity
  8
shiyouwaku
100
AcDbLine
 10
63.86920042624117
 20
90.35906399868224
 30
0.0
 11
63.86920042624119
 21
130.3590639986822
 31
0.0
  0
TEXT
  5
1C78
330
21
100
AcDbEntity
  8
moji
100
AcDbText
 10
36.26920042624118
 20
111.2590639986823
 30
0.0
 40
3.0
  1
はんだ
 72
     4
 11
41.36920042624118
 21
112.8590639986823
 31
0.0
100
AcDbText
  0
TEXT
  5
1C79
330
21
100
AcDbEntity
  8
moji
100
AcDbText
 10
25.44729628551562
 20
121.5691895580272
 30
0.0
 40
2.5
  1
1
 72
     4
 11
26.45920104742038
 21
122.8191895580272
 31
0.0
100
AcDbText
  0
CIRCLE
  5
1C7C
330
21
100
AcDbEntity
  8
moji
100
AcDbCircle
 10
26.72911008643917
 20
122.9221489711033
 30
0.0
 40
2.0
  0
CIRCLE
  5
1C7D
330
21
100
AcDbEntity
  8
moji
100
AcDbCircle
 10
26.72911008643917
 20
117.9221489711033
 30
0.0
 40
2.0
  0
TEXT
  5
1C7E
330
21
100
AcDbEntity
  8
moji
100
AcDbText
 10
25.53863389596298
 20
116.6721489711033
 30
0.0
 40
2.5
  1
2
 72
     4
 11
26.72911008643917
 21
117.9221489711033
 31
0.0
100
AcDbText
  0
TEXT
  5
1C7F
330
21
100
AcDbEntity
  8
moji
100
AcDbText
 10
25.47911008643917
 20
106.6721489711033
 30
0.0
 40
2.5
  1
4
 72
     4
 11
26.72911008643917
 21
107.9221489711033
 31
0.0
100
AcDbText
  0
CIRCLE
  5
1C80
330
21
100
AcDbEntity
  8
moji
100
AcDbCircle
 10
26.72911008643917
 20
107.9221489711033
 30
0.0
 40
2.0
  0
CIRCLE
  5
1C81
330
21
100
AcDbEntity
  8
moji
100
AcDbCircle
 10
26.72911008643917
 20
112.9221489711033
 30
0.0
 40
2.0
  0
TEXT
  5
1C82
330
21
100
AcDbEntity
  8
moji
100
AcDbText
 10
25.53863389596298
 20
111.6721489711034
 30
0.0
 40
2.5
  1
3
 72
     4
 11
26.72911008643917
 21
112.9221489711033
 31
0.0
100
AcDbText
  0
TEXT
  5
1C83
330
21
100
AcDbEntity
  8
moji
100
AcDbText
 10
25.53863389596298
 20
101.6721489711033
 30
0.0
 40
2.5
  1
5
 72
     4
 11
26.72911008643917
 21
102.9221489711033
 31
0.0
100
AcDbText
  0
CIRCLE
  5
1C84
330
21
100
AcDbEntity
  8
moji
100
AcDbCircle
 10
26.72911008643917
 20
102.9221489711033
 30
0.0
 40
2.0
  0
LINE
  5
1C87
330
21
100
AcDbEntity
  8
shiyouwaku
100
AcDbLine
 10
158.8692004262413
 20
130.3590639986823
 30
0.0
 11
158.8692004262412
 21
100.3590639986822
 31
0.0
  0
TEXT
  5
1C89
330
21
100
AcDbEntity
  8
moji
100
AcDbText
 10
165.9263432833841
 20
126.3590639986822
 30
0.0
 40
3.0
  1
RoHS指令対応
 72
     4
 11
178.8692004262413
 21
127.8590639986822
 31
0.0
100
AcDbText
  0
TEXT
  5
1C8B
330
21
100
AcDbEntity
  8
moji
100
AcDbText
 10
177.4692004262412
 20
121.4590639986822
 30
0.0
 40
3.0
  1
○
 72
     4
 11
178.8692004262412
 21
122.8590639986822
 31
0.0
100
AcDbText
  0
TEXT
  5
1C8E
330
21
100
AcDbEntity
  8
moji
100
AcDbText
 10
177.4692004262413
 20
116.4590639986823
 30
0.0
 40
3.0
  1
○
 72
     4
 11
178.8692004262413
 21
117.8590639986823
 31
0.0
100
AcDbText
  0
TEXT
  5
1C8F
330
21
100
AcDbEntity
  8
moji
100
AcDbText
 10
177.4692004262412
 20
111.4590639986823
 30
0.0
 40
3.0
  1
○
 72
     4
 11
178.8692004262412
 21
112.8590639986823
 31
0.0
100
AcDbText
  0
TEXT
  5
1C90
330
21
100
AcDbEntity
  8
moji
100
AcDbText
 10
177.4692004262412
 20
106.4590639986823
 30
0.0
 40
3.0
  1
○
 72
     4
 11
178.8692004262412
 21
107.8590639986823
 31
0.0
100
AcDbText
  0
TEXT
  5
1C91
330
21
100
AcDbEntity
  8
moji
100
AcDbText
 10
177.4692004262413
 20
101.4590639986822
 30
0.0
 40
3.0
  1
○
 72
     4
 11
178.8692004262413
 21
102.8590639986822
 31
0.0
100
AcDbText
  0
LEADER
  5
1CC0
330
21
100
AcDbEntity
  8
sumpo
100
AcDbLeader
  3
ISO-25-4mm
 76
     2
 10
64.06717916285123
 20
230.0504114637595
 30
0.0
 10
64.06717916285123
 20
236.2820635972331
 30
0.0
1001
ACAD
1000
DSTYLE
1002
{
1070
   147
1040
1.0
1070
    77
1070
     0
1002
}
  0
TEXT
  5
1CC1
330
21
100
AcDbEntity
  8
sumpo
100
AcDbText
 10
62.87670297237504
 20
237.0320635972331
 30
0.0
 40
2.5
  1
2
 72
     4
 11
64.06717916285123
 21
238.2820635972331
 31
0.0
100
AcDbText
  0
CIRCLE
  5
1CC2
330
21
100
AcDbEntity
  8
sumpo
100
AcDbCircle
 10
64.06717916285123
 20
238.2820635972331
 30
0.0
 40
2.0
  0
TEXT
  5
1CC3
330
21
100
AcDbEntity
  8
sumpo
100
AcDbText
 10
48.59370985727828
 20
213.6495965949873
 30
0.0
 40
2.5
  1
5
 72
     4
 11
49.78418604775447
 21
214.8995965949873
 31
0.0
100
AcDbText
  0
CIRCLE
  5
1CC4
330
21
100
AcDbEntity
  8
sumpo
100
AcDbCircle
 10
49.78418604775447
 20
214.8995965949873
 30
0.0
 40
2.0
  0
CIRCLE
  5
1CC5
330
21
100
AcDbEntity
  8
sumpo
100
AcDbCircle
 10
62.07634736878503
 20
213.2118747681437
 30
0.0
 40
2.0
  0
TEXT
  5
1CC6
330
21
100
AcDbEntity
  8
sumpo
100
AcDbText
 10
60.88587117830885
 20
211.9618747681437
 30
0.0
 40
2.5
  1
3
 72
     4
 11
62.07634736878503
 21
213.2118747681437
 31
0.0
100
AcDbText
  0
LEADER
  5
1CC7
330
21
100
AcDbEntity
  8
sumpo
100
AcDbLeader
  3
ISO-25-4mm
 76
     2
 10
53.75201361454391
 20
224.1145880055081
 30
0.0
 10
49.78418604775447
 20
216.8995965949873
 30
0.0
1001
ACAD
1000
DSTYLE
1002
{
1070
   147
1040
1.0
1070
    77
1070
     0
1002
}
  0
LEADER
  5
1CC8
330
21
100
AcDbEntity
  8
sumpo
100
AcDbLeader
  3
ISO-25-4mm
 76
     2
 10
73.82860400884283
 20
228.3401135784755
 30
0.0
 10
62.07634736878503
 20
215.2118747681437
 30
0.0
1001
ACAD
1000
DSTYLE
1002
{
1070
   147
1040
1.0
1070
    77
1070
     0
1002
}
  0
LEADER
  5
1CC9
330
21
100
AcDbEntity
  8
sumpo
100
AcDbLeader
  3
ISO-25-4mm
 76
     2
 10
53.85744822330048
 20
228.4168866455959
 30
0.0
 10
62.07634736878503
 20
215.2118747681437
 30
0.0
1001
ACAD
1000
DSTYLE
1002
{
1070
   147
1040
1.0
1070
    77
1070
     0
1002
}
  0
LEADER
  5
1CCA
330
21
100
AcDbEntity
  8
sumpo
100
AcDbLeader
  3
ISO-25-4mm
 76
     2
 10
85.96630322406349
 20
221.5948797525058
 30
0.0
 10
85.96630322406349
 20
215.1081178327209
 30
0.0
1001
ACAD
1000
DSTYLE
1002
{
1070
   147
1040
1.0
1070
    77
1070
     0
1002
}
  0
TEXT
  5
1CCB
330
21
100
AcDbEntity
  8
sumpo
100
AcDbText
 10
84.71630322406349
 20
211.858117832721
 30
0.0
 40
2.5
  1
4
 72
     4
 11
85.96630322406349
 21
213.1081178327209
 31
0.0
100
AcDbText
  0
CIRCLE
  5
1CCC
330
21
100
AcDbEntity
  8
sumpo
100
AcDbCircle
 10
85.96630322406349
 20
213.1081178327209
 30
0.0
 40
2.0
  0
TEXT
  5
1CCD
330
21
100
AcDbEntity
  8
sumpo
100
AcDbText
 10
130.5283341787315
 20
213.1114725191502
 30
0.0
 40
2.5
  1
1
 72
     4
 11
131.5402389406363
 21
214.3614725191502
 31
0.0
100
AcDbText
  0
CIRCLE
  5
1CCE
330
21
100
AcDbEntity
  8
sumpo
100
AcDbCircle
 10
131.8101479796551
 20
214.4644319322263
 30
0.0
 40
2.0
  0
LEADER
  5
1CCF
330
21
100
AcDbEntity
  8
sumpo
100
AcDbLeader
  3
ISO-25-4mm
 76
     2
 10
130.2112247129084
 20
229.1598001237826
 30
0.0
 10
131.8101479796551
 20
216.4644319322263
 30
0.0
1001
ACAD
1000
DSTYLE
1002
{
1070
   147
1040
1.0
1070
    77
1070
     0
1002
}
  0
LEADER
  5
1CD0
330
21
100
AcDbEntity
  8
sumpo
100
AcDbLeader
  3
ISO-25-4mm
 76
     2
 10
124.4078235662725
 20
224.5632016719179
 30
0.0
 10
131.8101479796551
 20
216.4644319322263
 30
0.0
1001
ACAD
1000
DSTYLE
1002
{
1070
   147
1040
1.0
1070
    77
1070
     0
1002
}
  0
VIEWPORT
  5
17AD
330
17A6
100
AcDbEntity
 67
     1
  8
0
100
AcDbViewport
 10
100.8062472343445
 20
142.6527438163757
 30
0.0
 40
505.8960447012031
 41
314.1924854736328
 68
     1
 69
     1
 12
100.8062472343445
 22
142.6527438163757
 13
0.0
 23
0.0
 14
10.0
 24
10.0
 15
10.0
 25
10.0
 16
0.0
 26
0.0
 36
1.0
 17
0.0
 27
0.0
 37
0.0
 42
50.0
 43
0.0
 44
0.0
 45
314.1924854736328
 50
0.0
 51
0.0
 72
  1000
 90
    32800
  1

281
     0
 71
     1
 74
     0
110
0.0
120
0.0
130
0.0
111
1.0
121
0.0
131
0.0
112
0.0
122
1.0
132
0.0
 79
     0
146
0.0
170
     0
  0
VIEWPORT
  5
17AF
330
17A6
100
AcDbEntity
 67
     1
  8
moji
100
AcDbViewport
 10
101.2253826490373
 20
146.2135919136789
 30
0.0
 40
184.4194364075515
 41
268.1109212418202
 68
     2
 69
     2
 12
107.6172238237136
 22
147.1243299939954
 13
0.0
 23
0.0
 14
10.0
 24
10.0
 15
10.0
 25
10.0
 16
0.0
 26
0.0
 36
1.0
 17
0.0
 27
0.0
 37
0.0
 42
50.0
 43
0.0
 44
0.0
 45
317.2777898680465
 50
0.0
 51
0.0
 72
  1000
 90
    32864
  1

281
     0
 71
     1
 74
     0
110
0.0
120
0.0
130
0.0
111
1.0
121
0.0
131
0.0
112
0.0
122
1.0
132
0.0
 79
     0
146
0.0
170
     0
  0
ENDSEC
  0
SECTION
  2
OBJECTS
  0
DICTIONARY
  5
C
330
0
100
AcDbDictionary
281
     1
  3
ACAD_COLOR
350
1C
  3
ACAD_GROUP
350
D
  3
ACAD_LAYOUT
350
1A
  3
ACAD_MATERIAL
350
1B
  3
ACAD_MLEADERSTYLE
350
1D24
  3
ACAD_MLINESTYLE
350
17
  3
ACAD_PLOTSETTINGS
350
19
  3
ACAD_PLOTSTYLENAME
350
E
  3
ACAD_SCALELIST
350
1D02
  3
ACAD_TABLESTYLE
350
1D00
  3
ACAD_VISUALSTYLE
350
1CEF
  3
AcadDim
350
1AE9
  3
ACDB_RECOMPOSE_DATA
350
1D49
  3
AcDbVariableDictionary
350
1D43
  0
DICTIONARY
  5
5C
330
2
100
AcDbDictionary
280
     1
281
     1
  3
ACAD_LAYERFILTERS
360
89B
  3
ACAD_LAYERSTATES
360
5D
  0
DICTIONARY
  5
1D2F
330
10
100
AcDbDictionary
280
     1
281
     1
  3
ADSK_XREC_LAYER_RECONCILED
360
1D30
  0
DICTIONARY
  5
1D31
330
2D
100
AcDbDictionary
280
     1
281
     1
  3
ADSK_XREC_LAYER_RECONCILED
360
1D32
  0
DICTIONARY
  5
1D33
330
2E
100
AcDbDictionary
280
     1
281
     1
  3
ADSK_XREC_LAYER_RECONCILED
360
1D34
  0
DICTIONARY
  5
1D35
330
2F
100
AcDbDictionary
280
     1
281
     1
  3
ADSK_XREC_LAYER_RECONCILED
360
1D36
  0
DICTIONARY
  5
1D37
330
30
100
AcDbDictionary
280
     1
281
     1
  3
ADSK_XREC_LAYER_RECONCILED
360
1D38
  0
DICTIONARY
  5
1D39
330
48
100
AcDbDictionary
280
     1
281
     1
  3
ADSK_XREC_LAYER_RECONCILED
360
1D3A
  0
DICTIONARY
  5
1D3B
330
B26
100
AcDbDictionary
280
     1
281
     1
  3
ADSK_XREC_LAYER_RECONCILED
360
1D3C
  0
DICTIONARY
  5
1D3D
330
B29
100
AcDbDictionary
280
     1
281
     1
  3
ADSK_XREC_LAYER_RECONCILED
360
1D3E
  0
DICTIONARY
  5
1D3F
330
B2A
100
AcDbDictionary
280
     1
281
     1
  3
ADSK_XREC_LAYER_RECONCILED
360
1D40
  0
DICTIONARY
  5
1D41
330
1832
100
AcDbDictionary
280
     1
281
     1
  3
ADSK_XREC_LAYER_RECONCILED
360
1D42
  0
DICTIONARY
  5
1BB2
330
1BA5
100
AcDbDictionary
280
     1
281
     1
  3
ACAD_DIMASSOC
360
1BBC
  0
DICTIONARY
  5
1BCB
330
1BBE
100
AcDbDictionary
280
     1
281
     1
  3
ACAD_DIMASSOC
360
1BD5
  0
DICTIONARY
  5
1BE3
330
1BD6
100
AcDbDictionary
280
     1
281
     1
  3
ACAD_DIMASSOC
360
1BED
  0
DICTIONARY
  5
1C44
330
1C37
100
AcDbDictionary
280
     1
281
     1
  3
ACAD_DIMASSOC
360
1C4E
  0
DICTIONARY
  5
1C5C
330
1C4F
100
AcDbDictionary
280
     1
281
     1
  3
ACAD_DIMASSOC
360
1C66
  0
DICTIONARY
  5
1C
102
{ACAD_REACTORS
330
C
102
}
330
C
100
AcDbDictionary
281
     1
  0
DICTIONARY
  5
D
102
{ACAD_REACTORS
330
C
102
}
330
C
100
AcDbDictionary
281
     1
  3
*A1
350
AE8
  0
DICTIONARY
  5
1A
102
{ACAD_REACTORS
330
C
102
}
330
C
100
AcDbDictionary
281
     1
  3
Model
350
24
  3
レイアウト1
350
17A7
  0
DICTIONARY
  5
1B
102
{ACAD_REACTORS
330
C
102
}
330
C
100
AcDbDictionary
281
     1
  3
ByBlock
350
1CE7
  3
ByLayer
350
1CDF
  3
Global
350
55
  0
DICTIONARY
  5
1D24
102
{ACAD_REACTORS
330
C
102
}
330
C
100
AcDbDictionary
281
     1
  3
Standard
350
1D25
  0
DICTIONARY
  5
17
102
{ACAD_REACTORS
330
C
102
}
330
C
100
AcDbDictionary
281
     1
  3
Standard
350
18
  0
DICTIONARY
  5
19
102
{ACAD_REACTORS
330
C
102
}
330
C
100
AcDbDictionary
281
     1
  0
ACDBDICTIONARYWDFLT
  5
E
102
{ACAD_REACTORS
330
C
102
}
330
C
100
AcDbDictionary
281
     1
  3
Normal
350
F
100
AcDbDictionaryWithDefault
340
F
  0
DICTIONARY
  5
1D02
102
{ACAD_REACTORS
330
C
102
}
330
C
100
AcDbDictionary
281
     1
  3
A0
350
1D03
  3
A1
350
1D04
  3
A2
350
1D05
  3
A3
350
1D06
  3
A4
350
1D07
  3
A5
350
1D08
  3
A6
350
1D09
  3
A7
350
1D0A
  3
A8
350
1D0B
  3
A9
350
1D0C
  3
B0
350
1D0D
  3
B1
350
1D0E
  3
B2
350
1D0F
  3
B3
350
1D10
  3
B4
350
1D11
  3
B5
350
1D12
  3
B6
350
1D13
  3
B7
350
1D14
  3
B8
350
1D15
  3
B9
350
1D16
  3
C0
350
1D17
  3
C1
350
1D18
  3
C2
350
1D19
  3
C3
350
1D1A
  3
C4
350
1D1B
  3
C5
350
1D1C
  3
C6
350
1D1D
  3
C7
350
1D1E
  3
C8
350
1D1F
  3
C9
350
1D20
  3
D0
350
1D21
  3
D1
350
1D22
  3
D2
350
1D23
  0
DICTIONARY
  5
1D00
102
{ACAD_REACTORS
330
C
102
}
330
C
100
AcDbDictionary
281
     1
  3
Standard
350
1D01
  0
DICTIONARY
  5
1CEF
102
{ACAD_REACTORS
330
C
102
}
330
C
100
AcDbDictionary
281
     1
  3
2dWireframe
350
1CF5
  3
3D Hidden
350
1CF7
  3
3dWireframe
350
1CF6
  3
Basic
350
1CF4
  3
Brighten
350
1CFB
  3
ColorChange
350
1CFF
  3
Conceptual
350
1CF8
  3
Dim
350
1CFA
  3
Facepattern
350
1CFE
  3
Flat
350
1CF0
  3
FlatWithEdges
350
1CF1
  3
Gouraud
350
1CF2
  3
GouraudWithEdges
350
1CF3
  3
Linepattern
350
1CFD
  3
Realistic
350
1CF9
  3
Thicken
350
1CFC
  0
XRECORD
  5
1AE9
102
{ACAD_REACTORS
330
C
102
}
330
C
100
AcDbXrecord
280
     1
 90
   990106
  3

 60
     0
 61
     0
 62
     1
 63
     3
 64
     0
 65
     0
 66
     0
 67
     3
 68
     1
 69
     0
 70
     0
 71
     0
 72
     0
 40
0.0
170
     0
340
0
  0
XRECORD
  5
1D49
102
{ACAD_REACTORS
330
C
102
}
330
C
100
AcDbXrecord
280
     1
 90
        1
330
1D01
  0
DICTIONARY
  5
1D43
102
{ACAD_REACTORS
330
C
102
}
330
C
100
AcDbDictionary
281
     1
  3
CANNOSCALE
350
1D46
  3
CMLEADERSTYLE
350
1D45
  3
CTABLESTYLE
350
1D44
  0
DICTIONARY
  5
89B
102
{ACAD_REACTORS
330
5C
102
}
330
5C
100
AcDbDictionary
281
     1
  0
DICTIONARY
  5
5D
102
{ACAD_REACTORS
330
5C
102
}
330
5C
100
AcDbDictionary
281
     1
  0
XRECORD
  5
1D30
102
{ACAD_REACTORS
330
1D2F
102
}
330
1D2F
100
AcDbXrecord
280
     1
290
     1
  0
XRECORD
  5
1D32
102
{ACAD_REACTORS
330
1D31
102
}
330
1D31
100
AcDbXrecord
280
     1
290
     1
  0
XRECORD
  5
1D34
102
{ACAD_REACTORS
330
1D33
102
}
330
1D33
100
AcDbXrecord
280
     1
290
     1
  0
XRECORD
  5
1D36
102
{ACAD_REACTORS
330
1D35
102
}
330
1D35
100
AcDbXrecord
280
     1
290
     1
  0
XRECORD
  5
1D38
102
{ACAD_REACTORS
330
1D37
102
}
330
1D37
100
AcDbXrecord
280
     1
290
     1
  0
XRECORD
  5
1D3A
102
{ACAD_REACTORS
330
1D39
102
}
330
1D39
100
AcDbXrecord
280
     1
290
     1
  0
XRECORD
  5
1D3C
102
{ACAD_REACTORS
330
1D3B
102
}
330
1D3B
100
AcDbXrecord
280
     1
290
     1
  0
XRECORD
  5
1D3E
102
{ACAD_REACTORS
330
1D3D
102
}
330
1D3D
100
AcDbXrecord
280
     1
290
     1
  0
XRECORD
  5
1D40
102
{ACAD_REACTORS
330
1D3F
102
}
330
1D3F
100
AcDbXrecord
280
     1
290
     1
  0
XRECORD
  5
1D42
102
{ACAD_REACTORS
330
1D41
102
}
330
1D41
100
AcDbXrecord
280
     1
290
     1
  0
DIMASSOC
  5
1BBC
102
{ACAD_REACTORS
330
1BB2
102
}
330
1BB2
100
AcDbDimAssoc
330
1BA5
 90
        3
 70
     0
 71
     0
  1
AcDbOsnapPointRef
 72
     5
331
1BA2
 73
     2
 91
        0
 40
3.141592653589793
 10
0.0
 20
0.0
 30
0.0
 75
     0
  1
AcDbOsnapPointRef
 72
     1
331
1B91
 73
     2
 91
        0
 40
1.0
 10
0.0
 20
0.0
 30
2.000000000000000E+50
 75
     0
  0
DIMASSOC
  5
1BD5
102
{ACAD_REACTORS
330
1BCB
102
}
330
1BCB
100
AcDbDimAssoc
330
1BBE
 90
        3
 70
     0
 71
     0
  1
AcDbOsnapPointRef
 72
     1
331
1B91
 73
     2
 91
        0
 40
1.0
 10
0.0
 20
0.0
 30
2.000000000000000E+50
 75
     0
  1
AcDbOsnapPointRef
 72
    13
331
1B1F
 73
     2
 91
        0
 40
0.0
 10
0.0
 20
0.0
 30
2.000000000000000E+50
 75
     0
  0
DIMASSOC
  5
1BED
102
{ACAD_REACTORS
330
1BE3
102
}
330
1BE3
100
AcDbDimAssoc
330
1BD6
 90
        3
 70
     0
 71
     0
  1
AcDbOsnapPointRef
 72
    13
331
1B1F
 73
     2
 91
        0
 40
0.0
 10
0.0
 20
0.0
 30
2.000000000000000E+50
 75
     0
  1
AcDbOsnapPointRef
 72
     2
331
1B24
 73
     2
 91
        0
 40
0.5
 10
0.0
 20
0.0
 30
0.0
 75
     0
  0
DIMASSOC
  5
1C4E
102
{ACAD_REACTORS
330
1C44
102
}
330
1C44
100
AcDbDimAssoc
330
1C37
 90
        3
 70
     0
 71
     0
  1
AcDbOsnapPointRef
 72
     5
331
1BA2
 73
     2
 91
        0
 40
3.141592653589793
 10
0.0
 20
0.0
 30
0.0
 75
     0
  1
AcDbOsnapPointRef
 72
     2
331
1B24
 73
     2
 91
        0
 40
0.5
 10
0.0
 20
0.0
 30
0.0
 75
     0
  0
DIMASSOC
  5
1C66
102
{ACAD_REACTORS
330
1C5C
102
}
330
1C5C
100
AcDbDimAssoc
330
1C4F
 90
        3
 70
     0
 71
     0
  1
AcDbOsnapPointRef
 72
     6
331
1B91
 73
     2
 91
        0
 40
0.0
 10
0.0
 20
0.0
 30
0.0
332
1BA0
 74
     2
 92
        0
 75
     0
  1
AcDbOsnapPointRef
 72
     8
331
1BA4
 73
     2
 91
        0
 40
4.7123889803847
 10
0.0
 20
0.0
 30
0.0
 75
     1
  1
AcDbOsnapPointRef
 72
     6
331
1B91
 73
     2
 91
        0
 40
0.0
 10
0.0
 20
0.0
 30
0.0
332
1BA0
 74
     2
 92
        0
 75
     0
  0
GROUP
  5
AE8
102
{ACAD_REACTORS
330
D
102
}
330
D
100
AcDbGroup
300

 70
     1
 71
     1
  0
LAYOUT
  5
24
102
{ACAD_REACTORS
330
1A
102
}
330
1A
100
AcDbPlotSettings
  1

  2
none_device
  4
Letter_(8.50_x_11.00_Inches)
  6

 40
6.349999904632568
 41
6.349999904632568
 42
6.350006103515625
 43
6.350006103515625
 44
215.8999938964844
 45
279.3999938964844
 46
0.0
 47
0.0
 48
0.0
 49
0.0
140
0.0
141
0.0
142
1.0
143
1.0
 70
 11952
 72
     1
 73
     1
 74
     0
  7

 75
     0
147
1.0
 76
     0
 77
     2
 78
   300
148
-83.36161879895561
149
0.0
100
AcDbLayout
  1
Model
 70
     1
 71
     0
 10
0.0
 20
0.0
 11
12.0
 21
9.0
 12
0.0
 22
0.0
 32
0.0
 14
0.0
 24
0.0
 34
0.0
 15
0.0
 25
0.0
 35
0.0
146
0.0
 13
0.0
 23
0.0
 33
0.0
 16
1.0
 26
0.0
 36
0.0
 17
0.0
 27
1.0
 37
0.0
 76
     0
330
21
331
1CDD
  0
LAYOUT
  5
17A7
102
{ACAD_REACTORS
330
1A
102
}
330
1A
100
AcDbPlotSettings
  1

  2
Canon MP990 series Printer
  4
A4
  6

 40
4.180416584014892
 41
5.831417560577392
 42
4.180404663085937
 43
3.757080078125
 44
209.9733276367187
 45
296.9683227539062
 46
0.0
 47
0.0
 48
0.0
 49
0.0
140
0.0
141
0.0
142
1.0
143
1.0
 70
   688
 72
     1
 73
     0
 74
     5
  7

 75
    16
147
1.0
 76
     1
 77
     2
 78
   300
148
0.0
149
0.0
100
AcDbLayout
  1
レイアウト1
 70
     1
 71
     1
 10
-4.180416584014892
 20
-5.831417560577392
 11
205.7929110527039
 21
291.1369051933288
 12
0.0
 22
0.0
 32
0.0
 14
9.015664445261563
 24
12.15813129276887
 34
0.0
 15
193.4351008528131
 25
280.2690525345891
 35
0.0
146
0.0
 13
0.0
 23
0.0
 33
0.0
 16
1.0
 26
0.0
 36
0.0
 17
0.0
 27
1.0
 37
0.0
 76
     0
330
17A6
331
17AD
  0
MATERIAL
  5
1CE7
102
{ACAD_XDICTIONARY
360
1CE8
102
}
102
{ACAD_REACTORS
330
1B
102
}
330
1B
100
AcDbMaterial
  1
ByBlock
 72
     0
 43
0.0008202099737533
 43
0.0
 43
0.0
 43
0.0
 43
0.0
 43
0.0008202099737533
 43
0.0
 43
0.0
 43
0.0
 43
0.0
 43
1.0
 43
0.0
 43
0.0
 43
0.0
 43
0.0
 43
1.0
 77
     0
 47
0.0008202099737533
 47
0.0
 47
0.0
 47
0.0
 47
0.0
 47
0.0008202099737533
 47
0.0
 47
0.0
 47
0.0
 47
0.0
 47
1.0
 47
0.0
 47
0.0
 47
0.0
 47
0.0
 47
1.0
171
     0
 49
0.0008202099737533
 49
0.0
 49
0.0
 49
0.0
 49
0.0
 49
0.0008202099737533
 49
0.0
 49
0.0
 49
0.0
 49
0.0
 49
1.0
 49
0.0
 49
0.0
 49
0.0
 49
0.0
 49
1.0
175
     0
142
0.0008202099737533
142
0.0
142
0.0
142
0.0
142
0.0
142
0.0008202099737533
142
0.0
142
0.0
142
0.0
142
0.0
142
1.0
142
0.0
142
0.0
142
0.0
142
0.0
142
1.0
179
     0
144
0.0008202099737533
144
0.0
144
0.0
144
0.0
144
0.0
144
0.0008202099737533
144
0.0
144
0.0
144
0.0
144
0.0
144
1.0
144
0.0
144
0.0
144
0.0
144
0.0
144
1.0
147
0.0008202099737533
147
0.0
147
0.0
147
0.0
147
0.0
147
0.0008202099737533
147
0.0
147
0.0
147
0.0
147
0.0
147
1.0
147
0.0
147
0.0
147
0.0
147
0.0
147
1.0
  0
MATERIAL
  5
1CDF
102
{ACAD_XDICTIONARY
360
1CE0
102
}
102
{ACAD_REACTORS
330
1B
102
}
330
1B
100
AcDbMaterial
  1
ByLayer
 72
     0
 43
0.0008202099737533
 43
0.0
 43
0.0
 43
0.0
 43
0.0
 43
0.0008202099737533
 43
0.0
 43
0.0
 43
0.0
 43
0.0
 43
1.0
 43
0.0
 43
0.0
 43
0.0
 43
0.0
 43
1.0
 77
     0
 47
0.0008202099737533
 47
0.0
 47
0.0
 47
0.0
 47
0.0
 47
0.0008202099737533
 47
0.0
 47
0.0
 47
0.0
 47
0.0
 47
1.0
 47
0.0
 47
0.0
 47
0.0
 47
0.0
 47
1.0
171
     0
 49
0.0008202099737533
 49
0.0
 49
0.0
 49
0.0
 49
0.0
 49
0.0008202099737533
 49
0.0
 49
0.0
 49
0.0
 49
0.0
 49
1.0
 49
0.0
 49
0.0
 49
0.0
 49
0.0
 49
1.0
175
     0
142
0.0008202099737533
142
0.0
142
0.0
142
0.0
142
0.0
142
0.0008202099737533
142
0.0
142
0.0
142
0.0
142
0.0
142
1.0
142
0.0
142
0.0
142
0.0
142
0.0
142
1.0
179
     0
144
0.0008202099737533
144
0.0
144
0.0
144
0.0
144
0.0
144
0.0008202099737533
144
0.0
144
0.0
144
0.0
144
0.0
144
1.0
144
0.0
144
0.0
144
0.0
144
0.0
144
1.0
147
0.0008202099737533
147
0.0
147
0.0
147
0.0
147
0.0
147
0.0008202099737533
147
0.0
147
0.0
147
0.0
147
0.0
147
1.0
147
0.0
147
0.0
147
0.0
147
0.0
147
1.0
  0
MATERIAL
  5
55
102
{ACAD_XDICTIONARY
360
56
102
}
102
{ACAD_REACTORS
330
1B
102
}
330
1B
100
AcDbMaterial
  1
Global
 43
0.0208000000566244
 43
0.0
 43
0.0
 43
0.0
 43
0.0
 43
0.0208000000566244
 43
0.0
 43
0.0
 43
0.0
 43
0.0
 43
1.0
 43
0.0
 43
0.0
 43
0.0
 43
0.0
 43
1.0
 49
0.0208000000566244
 49
0.0
 49
0.0
 49
0.0
 49
0.0
 49
0.0208000000566244
 49
0.0
 49
0.0
 49
0.0
 49
0.0
 49
1.0
 49
0.0
 49
0.0
 49
0.0
 49
0.0
 49
1.0
142
0.0208000000566244
142
0.0
142
0.0
142
0.0
142
0.0
142
0.0208000000566244
142
0.0
142
0.0
142
0.0
142
0.0
142
1.0
142
0.0
142
0.0
142
0.0
142
0.0
142
1.0
144
0.0208000000566244
144
0.0
144
0.0
144
0.0
144
0.0
144
0.0208000000566244
144
0.0
144
0.0
144
0.0
144
0.0
144
1.0
144
0.0
144
0.0
144
0.0
144
0.0
144
1.0
1001
ACAD
1070
    -1
1070
     3
1070
     0
1000

1071
        0
1070
     0
  0
MLEADERSTYLE
  5
1D25
102
{ACAD_REACTORS
330
1D24
102
}
330
1D24
100
AcDbMLeaderStyle
170
     2
171
     1
172
     0
 90
        2
 40
0.0
 41
0.0
173
     1
 91
-1056964608
340
14
 92
       -2
290
     1
 42
2.0
291
     1
 43
0.36
  3
Standard
 44
4.0
300

342
11
174
     1
178
     6
175
     1
176
     0
 93
-1056964608
 45
4.0
292
     0
297
     0
 46
4.0
 94
-1056964608
 47
1.0
 49
1.0
140
1.0
293
     1
141
0.0
294
     1
177
     0
142
1.0
295
     0
296
     0
143
0.125
1001
ACAD_MLEADERVER
1070
     2
  0
MLINESTYLE
  5
18
102
{ACAD_REACTORS
330
17
102
}
330
17
100
AcDbMlineStyle
  2
STANDARD
 70
     0
  3

 62
   256
 51
90.0
 52
90.0
 71
     2
 49
0.5
 62
   256
  6
BYLAYER
 49
-0.5
 62
   256
  6
BYLAYER
  0
ACDBPLACEHOLDER
  5
F
102
{ACAD_REACTORS
330
E
102
}
330
E
  0
SCALE
  5
1D03
102
{ACAD_REACTORS
330
1D02
102
}
330
1D02
100
AcDbScale
 70
     0
300
1:1
140
1.0
141
1.0
290
     1
  0
SCALE
  5
1D04
102
{ACAD_REACTORS
330
1D02
102
}
330
1D02
100
AcDbScale
 70
     0
300
1:2
140
1.0
141
2.0
290
     0
  0
SCALE
  5
1D05
102
{ACAD_REACTORS
330
1D02
102
}
330
1D02
100
AcDbScale
 70
     0
300
1:4
140
1.0
141
4.0
290
     0
  0
SCALE
  5
1D06
102
{ACAD_REACTORS
330
1D02
102
}
330
1D02
100
AcDbScale
 70
     0
300
1:5
140
1.0
141
5.0
290
     0
  0
SCALE
  5
1D07
102
{ACAD_REACTORS
330
1D02
102
}
330
1D02
100
AcDbScale
 70
     0
300
1:8
140
1.0
141
8.0
290
     0
  0
SCALE
  5
1D08
102
{ACAD_REACTORS
330
1D02
102
}
330
1D02
100
AcDbScale
 70
     0
300
1:10
140
1.0
141
10.0
290
     0
  0
SCALE
  5
1D09
102
{ACAD_REACTORS
330
1D02
102
}
330
1D02
100
AcDbScale
 70
     0
300
1:16
140
1.0
141
16.0
290
     0
  0
SCALE
  5
1D0A
102
{ACAD_REACTORS
330
1D02
102
}
330
1D02
100
AcDbScale
 70
     0
300
1:20
140
1.0
141
20.0
290
     0
  0
SCALE
  5
1D0B
102
{ACAD_REACTORS
330
1D02
102
}
330
1D02
100
AcDbScale
 70
     0
300
1:30
140
1.0
141
30.0
290
     0
  0
SCALE
  5
1D0C
102
{ACAD_REACTORS
330
1D02
102
}
330
1D02
100
AcDbScale
 70
     0
300
1:40
140
1.0
141
40.0
290
     0
  0
SCALE
  5
1D0D
102
{ACAD_REACTORS
330
1D02
102
}
330
1D02
100
AcDbScale
 70
     0
300
1:50
140
1.0
141
50.0
290
     0
  0
SCALE
  5
1D0E
102
{ACAD_REACTORS
330
1D02
102
}
330
1D02
100
AcDbScale
 70
     0
300
1:100
140
1.0
141
100.0
290
     0
  0
SCALE
  5
1D0F
102
{ACAD_REACTORS
330
1D02
102
}
330
1D02
100
AcDbScale
 70
     0
300
2:1
140
2.0
141
1.0
290
     0
  0
SCALE
  5
1D10
102
{ACAD_REACTORS
330
1D02
102
}
330
1D02
100
AcDbScale
 70
     0
300
4:1
140
4.0
141
1.0
290
     0
  0
SCALE
  5
1D11
102
{ACAD_REACTORS
330
1D02
102
}
330
1D02
100
AcDbScale
 70
     0
300
8:1
140
8.0
141
1.0
290
     0
  0
SCALE
  5
1D12
102
{ACAD_REACTORS
330
1D02
102
}
330
1D02
100
AcDbScale
 70
     0
300
10:1
140
10.0
141
1.0
290
     0
  0
SCALE
  5
1D13
102
{ACAD_REACTORS
330
1D02
102
}
330
1D02
100
AcDbScale
 70
     0
300
100:1
140
100.0
141
1.0
290
     0
  0
SCALE
  5
1D14
102
{ACAD_REACTORS
330
1D02
102
}
330
1D02
100
AcDbScale
 70
     0
300
1/128" = 1'-0"
140
0.0078125
141
12.0
290
     0
  0
SCALE
  5
1D15
102
{ACAD_REACTORS
330
1D02
102
}
330
1D02
100
AcDbScale
 70
     0
300
1/64" = 1'-0"
140
0.015625
141
12.0
290
     0
  0
SCALE
  5
1D16
102
{ACAD_REACTORS
330
1D02
102
}
330
1D02
100
AcDbScale
 70
     0
300
1/32" = 1'-0"
140
0.03125
141
12.0
290
     0
  0
SCALE
  5
1D17
102
{ACAD_REACTORS
330
1D02
102
}
330
1D02
100
AcDbScale
 70
     0
300
1/16" = 1'-0"
140
0.0625
141
12.0
290
     0
  0
SCALE
  5
1D18
102
{ACAD_REACTORS
330
1D02
102
}
330
1D02
100
AcDbScale
 70
     0
300
3/32" = 1'-0"
140
0.09375
141
12.0
290
     0
  0
SCALE
  5
1D19
102
{ACAD_REACTORS
330
1D02
102
}
330
1D02
100
AcDbScale
 70
     0
300
1/8" = 1'-0"
140
0.125
141
12.0
290
     0
  0
SCALE
  5
1D1A
102
{ACAD_REACTORS
330
1D02
102
}
330
1D02
100
AcDbScale
 70
     0
300
3/16" = 1'-0"
140
0.1875
141
12.0
290
     0
  0
SCALE
  5
1D1B
102
{ACAD_REACTORS
330
1D02
102
}
330
1D02
100
AcDbScale
 70
     0
300
1/4" = 1'-0"
140
0.25
141
12.0
290
     0
  0
SCALE
  5
1D1C
102
{ACAD_REACTORS
330
1D02
102
}
330
1D02
100
AcDbScale
 70
     0
300
3/8" = 1'-0"
140
0.375
141
12.0
290
     0
  0
SCALE
  5
1D1D
102
{ACAD_REACTORS
330
1D02
102
}
330
1D02
100
AcDbScale
 70
     0
300
1/2" = 1'-0"
140
0.5
141
12.0
290
     0
  0
SCALE
  5
1D1E
102
{ACAD_REACTORS
330
1D02
102
}
330
1D02
100
AcDbScale
 70
     0
300
3/4" = 1'-0"
140
0.75
141
12.0
290
     0
  0
SCALE
  5
1D1F
102
{ACAD_REACTORS
330
1D02
102
}
330
1D02
100
AcDbScale
 70
     0
300
1" = 1'-0"
140
1.0
141
12.0
290
     0
  0
SCALE
  5
1D20
102
{ACAD_REACTORS
330
1D02
102
}
330
1D02
100
AcDbScale
 70
     0
300
1-1/2" = 1'-0"
140
1.5
141
12.0
290
     0
  0
SCALE
  5
1D21
102
{ACAD_REACTORS
330
1D02
102
}
330
1D02
100
AcDbScale
 70
     0
300
3" = 1'-0"
140
3.0
141
12.0
290
     0
  0
SCALE
  5
1D22
102
{ACAD_REACTORS
330
1D02
102
}
330
1D02
100
AcDbScale
 70
     0
300
6" = 1'-0"
140
6.0
141
12.0
290
     0
  0
SCALE
  5
1D23
102
{ACAD_REACTORS
330
1D02
102
}
330
1D02
100
AcDbScale
 70
     0
300
1'-0" = 1'-0"
140
12.0
141
12.0
290
     0
  0
TABLESTYLE
  5
1D01
102
{ACAD_XDICTIONARY
360
1D47
102
}
102
{ACAD_REACTORS
330
1D00
102
}
330
1D00
100
AcDbTableStyle
  3
Standard
 70
     0
 71
     0
 40
1.5
 41
1.5
280
     0
281
     0
  7
Standard
140
4.5
170
     2
 62
     0
 63
     7
283
     0
274
    -2
284
     1
 64
     0
275
    -2
285
     1
 65
     0
276
    -2
286
     1
 66
     0
277
    -2
287
     1
 67
     0
278
    -2
288
     1
 68
     0
279
    -2
289
     1
 69
     0
  7
Standard
140
6.0
170
     5
 62
     0
 63
     7
283
     0
274
    -2
284
     1
 64
     0
275
    -2
285
     1
 65
     0
276
    -2
286
     1
 66
     0
277
    -2
287
     1
 67
     0
278
    -2
288
     1
 68
     0
279
    -2
289
     1
 69
     0
  7
Standard
140
4.5
170
     5
 62
     0
 63
     7
283
     0
274
    -2
284
     1
 64
     0
275
    -2
285
     1
 65
     0
276
    -2
286
     1
 66
     0
277
    -2
287
     1
 67
     0
278
    -2
288
     1
 68
     0
279
    -2
289
     1
 69
     0
  0
VISUALSTYLE
  5
1CF5
102
{ACAD_REACTORS
330
1CEF
102
}
330
1CEF
100
AcDbVisualStyle
  2
2dWireframe
 70
     4
 71
     0
 72
     2
 73
     0
 90
        0
 40
-0.6
 41
-30.0
 62
     5
 63
     7
421
 16777215
 74
     1
 91
        4
 64
     7
 65
   257
 75
     1
175
     1
 42
1.0
 92
        0
 66
   257
 43
1.0
 76
     1
 77
     6
 78
     2
 67
     7
 79
     5
170
     0
171
     0
290
     0
174
     0
 93
        1
 44
0.0
173
     0
291
     0
 45
0.0
1001
ACAD
1000
AcDbSavedByObjectVersion
1070
     0
  0
VISUALSTYLE
  5
1CF7
102
{ACAD_REACTORS
330
1CEF
102
}
330
1CEF
100
AcDbVisualStyle
  2
3D Hidden
 70
     6
 71
     1
 72
     2
 73
     2
 90
        0
 40
-0.6
 41
-30.0
 62
     5
 63
     7
421
 16777215
 74
     2
 91
        2
 64
     7
 65
   257
 75
     2
175
     1
 42
40.0
 92
        0
 66
   257
 43
1.0
 76
     1
 77
     6
 78
     2
 67
     7
 79
     3
170
     0
171
     0
290
     0
174
     0
 93
        1
 44
0.0
173
     0
291
     0
 45
0.0
1001
ACAD
1000
AcDbSavedByObjectVersion
1070
     0
  0
VISUALSTYLE
  5
1CF6
102
{ACAD_REACTORS
330
1CEF
102
}
330
1CEF
100
AcDbVisualStyle
  2
3dWireframe
 70
     5
 71
     0
 72
     2
 73
     0
 90
        0
 40
-0.6
 41
-30.0
 62
     5
 63
     7
421
 16777215
 74
     1
 91
        4
 64
     7
 65
   257
 75
     1
175
     1
 42
1.0
 92
        0
 66
   257
 43
1.0
 76
     1
 77
     6
 78
     2
 67
     7
 79
     5
170
     0
171
     0
290
     0
174
     0
 93
        1
 44
0.0
173
     0
291
     0
 45
0.0
1001
ACAD
1000
AcDbSavedByObjectVersion
1070
     0
  0
VISUALSTYLE
  5
1CF4
102
{ACAD_REACTORS
330
1CEF
102
}
330
1CEF
100
AcDbVisualStyle
  2
Basic
 70
     7
 71
     1
 72
     0
 73
     1
 90
        0
 40
-0.6
 41
-30.0
 62
     5
 63
     7
421
 16777215
 74
     0
 91
        4
 64
     7
 65
   257
 75
     1
175
     1
 42
1.0
 92
        8
 66
     7
 43
1.0
 76
     1
 77
     6
 78
     2
 67
     7
 79
     5
170
     0
171
     0
290
     0
174
     0
 93
        1
 44
0.0
173
     0
291
     1
 45
0.0
1001
ACAD
1000
AcDbSavedByObjectVersion
1070
     0
  0
VISUALSTYLE
  5
1CFB
102
{ACAD_REACTORS
330
1CEF
102
}
330
1CEF
100
AcDbVisualStyle
  2
Brighten
 70
    12
 71
     2
 72
     2
 73
     0
 90
        0
 40
-0.6
 41
-30.0
 62
     5
 63
     7
421
 16777215
 74
     1
 91
        4
 64
     7
 65
   257
 75
     1
175
     1
 42
1.0
 92
        8
 66
     7
 43
1.0
 76
     1
 77
     6
 78
     2
 67
     7
 79
     5
170
     0
171
     0
290
     0
174
     0
 93
        1
 44
50.0
173
     0
291
     1
 45
0.0
1001
ACAD
1000
AcDbSavedByObjectVersion
1070
     0
  0
VISUALSTYLE
  5
1CFF
102
{ACAD_REACTORS
330
1CEF
102
}
330
1CEF
100
AcDbVisualStyle
  2
ColorChange
 70
    16
 71
     2
 72
     2
 73
     3
 90
        0
 40
-0.6
 41
-30.0
 62
     5
 63
     8
421
  8421504
 74
     1
 91
        4
 64
     7
 65
   257
 75
     1
175
     1
 42
1.0
 92
        8
 66
     8
424
  8421504
 43
1.0
 76
     1
 77
     6
 78
     2
 67
     7
 79
     5
170
     0
171
     0
290
     0
174
     0
 93
        1
 44
0.0
173
     0
291
     1
 45
0.0
1001
ACAD
1000
AcDbSavedByObjectVersion
1070
     0
  0
VISUALSTYLE
  5
1CF8
102
{ACAD_REACTORS
330
1CEF
102
}
330
1CEF
100
AcDbVisualStyle
  2
Conceptual
 70
     9
 71
     3
 72
     2
 73
     0
 90
        0
 40
-0.6
 41
-30.0
 62
     5
 63
     7
421
 16777215
 74
     2
 91
        2
 64
     7
 65
   257
 75
     1
175
     1
 42
40.0
 92
        8
 66
     7
 43
1.0
 76
     1
 77
     6
 78
     2
 67
     7
 79
     3
170
     0
171
     0
290
     0
174
     0
 93
        1
 44
0.0
173
     0
291
     0
 45
0.0
1001
ACAD
1000
AcDbSavedByObjectVersion
1070
     0
  0
VISUALSTYLE
  5
1CFA
102
{ACAD_REACTORS
330
1CEF
102
}
330
1CEF
100
AcDbVisualStyle
  2
Dim
 70
    11
 71
     2
 72
     2
 73
     0
 90
        0
 40
-0.6
 41
-30.0
 62
     5
 63
     7
421
 16777215
 74
     1
 91
        4
 64
     7
 65
   257
 75
     1
175
     1
 42
1.0
 92
        8
 66
     7
 43
1.0
 76
     1
 77
     6
 78
     2
 67
     7
 79
     5
170
     0
171
     0
290
     0
174
     0
 93
        1
 44
-50.0
173
     0
291
     1
 45
0.0
1001
ACAD
1000
AcDbSavedByObjectVersion
1070
     0
  0
VISUALSTYLE
  5
1CFE
102
{ACAD_REACTORS
330
1CEF
102
}
330
1CEF
100
AcDbVisualStyle
  2
Facepattern
 70
    15
 71
     2
 72
     2
 73
     0
 90
        0
 40
-0.6
 41
-30.0
 62
     5
 63
     7
421
 16777215
 74
     1
 91
        4
 64
     7
 65
   257
 75
     1
175
     1
 42
1.0
 92
        8
 66
     7
 43
1.0
 76
     1
 77
     6
 78
     2
 67
     7
 79
     5
170
     0
171
     0
290
     0
174
     0
 93
        1
 44
0.0
173
     0
291
     1
 45
0.0
1001
ACAD
1000
AcDbSavedByObjectVersion
1070
     0
  0
VISUALSTYLE
  5
1CF0
102
{ACAD_REACTORS
330
1CEF
102
}
330
1CEF
100
AcDbVisualStyle
  2
Flat
 70
     0
 71
     2
 72
     1
 73
     1
 90
        2
 40
-0.6
 41
30.0
 62
     5
 63
     7
421
 16777215
 74
     0
 91
        4
 64
     7
 65
   257
 75
     1
175
     1
 42
1.0
 92
        8
 66
     7
 43
1.0
 76
     1
 77
     6
 78
     2
 67
     7
 79
     5
170
     0
171
     0
290
     0
174
     0
 93
       13
 44
0.0
173
     0
291
     1
 45
0.0
1001
ACAD
1000
AcDbSavedByObjectVersion
1070
     0
  0
VISUALSTYLE
  5
1CF1
102
{ACAD_REACTORS
330
1CEF
102
}
330
1CEF
100
AcDbVisualStyle
  2
FlatWithEdges
 70
     1
 71
     2
 72
     1
 73
     1
 90
        2
 40
-0.6
 41
30.0
 62
     5
 63
     7
421
 16777215
 74
     1
 91
        4
 64
     7
 65
   257
 75
     1
175
     1
 42
1.0
 92
        0
 66
   257
 43
1.0
 76
     1
 77
     6
 78
     2
 67
     7
 79
     5
170
     0
171
     0
290
     0
174
     0
 93
       13
 44
0.0
173
     0
291
     1
 45
0.0
1001
ACAD
1000
AcDbSavedByObjectVersion
1070
     0
  0
VISUALSTYLE
  5
1CF2
102
{ACAD_REACTORS
330
1CEF
102
}
330
1CEF
100
AcDbVisualStyle
  2
Gouraud
 70
     2
 71
     2
 72
     2
 73
     1
 90
        2
 40
-0.6
 41
30.0
 62
     5
 63
     7
421
 16777215
 74
     0
 91
        4
 64
     7
 65
   257
 75
     1
175
     1
 42
1.0
 92
        0
 66
     7
 43
1.0
 76
     1
 77
     6
 78
     2
 67
     7
 79
     5
170
     0
171
     0
290
     0
174
     0
 93
       13
 44
0.0
173
     0
291
     1
 45
0.0
1001
ACAD
1000
AcDbSavedByObjectVersion
1070
     0
  0
VISUALSTYLE
  5
1CF3
102
{ACAD_REACTORS
330
1CEF
102
}
330
1CEF
100
AcDbVisualStyle
  2
GouraudWithEdges
 70
     3
 71
     2
 72
     2
 73
     1
 90
        2
 40
-0.6
 41
30.0
 62
     5
 63
     7
421
 16777215
 74
     1
 91
        4
 64
     7
 65
   257
 75
     1
175
     1
 42
1.0
 92
        0
 66
   257
 43
1.0
 76
     1
 77
     6
 78
     2
 67
     7
 79
     5
170
     0
171
     0
290
     0
174
     0
 93
       13
 44
0.0
173
     0
291
     1
 45
0.0
1001
ACAD
1000
AcDbSavedByObjectVersion
1070
     0
  0
VISUALSTYLE
  5
1CFD
102
{ACAD_REACTORS
330
1CEF
102
}
330
1CEF
100
AcDbVisualStyle
  2
Linepattern
 70
    14
 71
     2
 72
     2
 73
     0
 90
        0
 40
-0.6
 41
-30.0
 62
     5
 63
     7
421
 16777215
 74
     1
 91
        4
 64
     7
 65
   257
 75
     7
175
     7
 42
1.0
 92
        8
 66
     7
 43
1.0
 76
     1
 77
     6
 78
     2
 67
     7
 79
     5
170
     0
171
     0
290
     0
174
     0
 93
        1
 44
0.0
173
     0
291
     1
 45
0.0
1001
ACAD
1000
AcDbSavedByObjectVersion
1070
     0
  0
VISUALSTYLE
  5
1CF9
102
{ACAD_REACTORS
330
1CEF
102
}
330
1CEF
100
AcDbVisualStyle
  2
Realistic
 70
     8
 71
     2
 72
     2
 73
     0
 90
        0
 40
-0.6
 41
-30.0
 62
     5
 63
     7
421
 16777215
 74
     1
 91
        0
 64
     7
 65
   257
 75
     1
175
     1
 42
1.0
 92
        8
 66
     8
424
  7895160
 43
1.0
 76
     1
 77
     6
 78
     2
 67
     7
 79
     5
170
     0
171
     0
290
     0
174
     0
 93
       13
 44
0.0
173
     0
291
     0
 45
0.0
1001
ACAD
1000
AcDbSavedByObjectVersion
1070
     0
  0
VISUALSTYLE
  5
1CFC
102
{ACAD_REACTORS
330
1CEF
102
}
330
1CEF
100
AcDbVisualStyle
  2
Thicken
 70
    13
 71
     2
 72
     2
 73
     0
 90
        0
 40
-0.6
 41
-30.0
 62
     5
 63
     7
421
 16777215
 74
     1
 91
        4
 64
     7
 65
   257
 75
     1
175
     1
 42
1.0
 92
       12
 66
     7
 43
1.0
 76
     1
 77
     6
 78
     2
 67
     7
 79
     5
170
     0
171
     0
290
     0
174
     0
 93
        1
 44
0.0
173
     0
291
     1
 45
0.0
1001
ACAD
1000
AcDbSavedByObjectVersion
1070
     0
  0
DICTIONARYVAR
  5
1D46
102
{ACAD_REACTORS
330
1D43
102
}
330
1D43
100
DictionaryVariables
280
     0
  1
1:1
  0
DICTIONARYVAR
  5
1D45
102
{ACAD_REACTORS
330
1D43
102
}
330
1D43
100
DictionaryVariables
280
     0
  1
STANDARD
  0
DICTIONARYVAR
  5
1D44
102
{ACAD_REACTORS
330
1D43
102
}
330
1D43
100
DictionaryVariables
280
     0
  1
STANDARD
  0
DICTIONARY
  5
1CE8
330
1CE7
100
AcDbDictionary
280
     1
281
     1
  3
ACAD_XREC_ROUNDTRIP
360
1D4C
  3
BUMPTILE
360
1CEA
  3
DIFFUSETILE
360
1CE9
  3
OPACITYTILE
360
1CED
  3
REFLECTIONTILE
360
1CEC
  3
REFRACTIONTILE
360
1CEE
  3
SPECULARTILE
360
1CEB
  0
DICTIONARY
  5
1CE0
330
1CDF
100
AcDbDictionary
280
     1
281
     1
  3
ACAD_XREC_ROUNDTRIP
360
1D4B
  3
BUMPTILE
360
1CE2
  3
DIFFUSETILE
360
1CE1
  3
OPACITYTILE
360
1CE5
  3
REFLECTIONTILE
360
1CE4
  3
REFRACTIONTILE
360
1CE6
  3
SPECULARTILE
360
1CE3
  0
DICTIONARY
  5
56
330
55
100
AcDbDictionary
280
     1
281
     1
  3
ACAD_XREC_ROUNDTRIP
360
1D4A
  3
BUMPTILE
360
58
  3
DIFFUSETILE
360
59
  3
OPACITYTILE
360
5A
  3
REFLECTIONTILE
360
5B
  0
DICTIONARY
  5
1D47
330
1D01
100
AcDbDictionary
280
     1
281
     1
  3
ACAD_ROUNDTRIP_2008_TABLESTYLE_CELLSTYLEMAP
360
1D48
  3
ACAD_XREC_ROUNDTRIP
360
1D4D
  0
XRECORD
  5
1D4C
102
{ACAD_REACTORS
330
1CE8
102
}
330
1CE8
100
AcDbXrecord
280
     1
102
MATERIAL
148
0.0
149
0.0
149
0.0
 93
        0
 94
      127
282
     0
 72
     0
 77
     0
171
     0
175
     0
179
     0
273
     0
  0
XRECORD
  5
1CEA
102
{ACAD_REACTORS
330
1CE8
102
}
330
1CE8
100
AcDbXrecord
280
     1
270
     1
271
     1
  0
XRECORD
  5
1CE9
102
{ACAD_REACTORS
330
1CE8
102
}
330
1CE8
100
AcDbXrecord
280
     1
270
     1
271
     1
  0
XRECORD
  5
1CED
102
{ACAD_REACTORS
330
1CE8
102
}
330
1CE8
100
AcDbXrecord
280
     1
270
     1
271
     1
  0
XRECORD
  5
1CEC
102
{ACAD_REACTORS
330
1CE8
102
}
330
1CE8
100
AcDbXrecord
280
     1
270
     1
271
     1
  0
XRECORD
  5
1CEE
102
{ACAD_REACTORS
330
1CE8
102
}
330
1CE8
100
AcDbXrecord
280
     1
270
     1
271
     1
  0
XRECORD
  5
1CEB
102
{ACAD_REACTORS
330
1CE8
102
}
330
1CE8
100
AcDbXrecord
280
     1
270
     1
271
     1
  0
XRECORD
  5
1D4B
102
{ACAD_REACTORS
330
1CE0
102
}
330
1CE0
100
AcDbXrecord
280
     1
102
MATERIAL
148
0.0
149
0.0
149
0.0
 93
        0
 94
      127
282
     0
 72
     0
 77
     0
171
     0
175
     0
179
     0
273
     0
  0
XRECORD
  5
1CE2
102
{ACAD_REACTORS
330
1CE0
102
}
330
1CE0
100
AcDbXrecord
280
     1
270
     1
271
     1
  0
XRECORD
  5
1CE1
102
{ACAD_REACTORS
330
1CE0
102
}
330
1CE0
100
AcDbXrecord
280
     1
270
     1
271
     1
  0
XRECORD
  5
1CE5
102
{ACAD_REACTORS
330
1CE0
102
}
330
1CE0
100
AcDbXrecord
280
     1
270
     1
271
     1
  0
XRECORD
  5
1CE4
102
{ACAD_REACTORS
330
1CE0
102
}
330
1CE0
100
AcDbXrecord
280
     1
270
     1
271
     1
  0
XRECORD
  5
1CE6
102
{ACAD_REACTORS
330
1CE0
102
}
330
1CE0
100
AcDbXrecord
280
     1
270
     1
271
     1
  0
XRECORD
  5
1CE3
102
{ACAD_REACTORS
330
1CE0
102
}
330
1CE0
100
AcDbXrecord
280
     1
270
     1
271
     1
  0
XRECORD
  5
1D4A
102
{ACAD_REACTORS
330
56
102
}
330
56
100
AcDbXrecord
280
     1
102
MATERIAL
148
0.0
149
0.0
149
0.0
 93
        0
 94
       63
282
     0
 72
     1
 77
     1
171
     1
175
     1
179
     1
273
     0
  0
XRECORD
  5
58
102
{ACAD_REACTORS
330
56
102
}
330
56
100
AcDbXrecord
280
     1
270
     1
271
     1
  0
XRECORD
  5
59
102
{ACAD_REACTORS
330
56
102
}
330
56
100
AcDbXrecord
280
     1
270
     1
271
     1
  0
XRECORD
  5
5A
102
{ACAD_REACTORS
330
56
102
}
330
56
100
AcDbXrecord
280
     1
270
     1
271
     1
  0
XRECORD
  5
5B
102
{ACAD_REACTORS
330
56
102
}
330
56
100
AcDbXrecord
280
     1
270
     1
271
     1
  0
CELLSTYLEMAP
  5
1D48
102
{ACAD_REACTORS
330
1D47
102
}
330
1D47
100
AcDbCellStyleMap
 90
        3
300
CELLSTYLE
  1
TABLEFORMAT_BEGIN
 90
        5
170
     1
 91
        0
 92
    32768
 62
   257
 93
        1
300
CONTENTFORMAT
  1
CONTENTFORMAT_BEGIN
 90
        0
 91
        0
 92
      512
 93
        0
300

 40
0.0
140
1.0
 94
        5
 62
     0
340
11
144
6.0
309
CONTENTFORMAT_END
171
     1
301
MARGIN
  1
CELLMARGIN_BEGIN
 40
1.5
 40
1.5
 40
1.5
 40
1.5
 40
4.5
 40
4.5
309
CELLMARGIN_END
 94
        6
 95
        1
302
GRIDFORMAT
  1
GRIDFORMAT_BEGIN
 90
        0
 91
        1
 62
     0
 92
       -2
340
0
 93
        0
 40
1.125
309
GRIDFORMAT_END
 95
        2
302
GRIDFORMAT
  1
GRIDFORMAT_BEGIN
 90
        0
 91
        1
 62
     0
 92
       -2
340
0
 93
        0
 40
1.125
309
GRIDFORMAT_END
 95
        4
302
GRIDFORMAT
  1
GRIDFORMAT_BEGIN
 90
        0
 91
        1
 62
     0
 92
       -2
340
0
 93
        0
 40
1.125
309
GRIDFORMAT_END
 95
        8
302
GRIDFORMAT
  1
GRIDFORMAT_BEGIN
 90
        0
 91
        1
 62
     0
 92
       -2
340
0
 93
        0
 40
1.125
309
GRIDFORMAT_END
 95
       16
302
GRIDFORMAT
  1
GRIDFORMAT_BEGIN
 90
        0
 91
        1
 62
     0
 92
       -2
340
0
 93
        0
 40
1.125
309
GRIDFORMAT_END
 95
       32
302
GRIDFORMAT
  1
GRIDFORMAT_BEGIN
 90
        0
 91
        1
 62
     0
 92
       -2
340
0
 93
        0
 40
1.125
309
GRIDFORMAT_END
309
TABLEFORMAT_END
  1
CELLSTYLE_BEGIN
 90
        1
 91
        1
300
_TITLE
309
CELLSTYLE_END
300
CELLSTYLE
  1
TABLEFORMAT_BEGIN
 90
        5
170
     1
 91
        0
 92
        0
 62
   257
 93
        1
300
CONTENTFORMAT
  1
CONTENTFORMAT_BEGIN
 90
        0
 91
        0
 92
      512
 93
        0
300

 40
0.0
140
1.0
 94
        5
 62
     0
340
11
144
4.5
309
CONTENTFORMAT_END
171
     1
301
MARGIN
  1
CELLMARGIN_BEGIN
 40
1.5
 40
1.5
 40
1.5
 40
1.5
 40
4.5
 40
4.5
309
CELLMARGIN_END
 94
        6
 95
        1
302
GRIDFORMAT
  1
GRIDFORMAT_BEGIN
 90
        0
 91
        1
 62
     0
 92
       -2
340
0
 93
        0
 40
1.125
309
GRIDFORMAT_END
 95
        2
302
GRIDFORMAT
  1
GRIDFORMAT_BEGIN
 90
        0
 91
        1
 62
     0
 92
       -2
340
0
 93
        0
 40
1.125
309
GRIDFORMAT_END
 95
        4
302
GRIDFORMAT
  1
GRIDFORMAT_BEGIN
 90
        0
 91
        1
 62
     0
 92
       -2
340
0
 93
        0
 40
1.125
309
GRIDFORMAT_END
 95
        8
302
GRIDFORMAT
  1
GRIDFORMAT_BEGIN
 90
        0
 91
        1
 62
     0
 92
       -2
340
0
 93
        0
 40
1.125
309
GRIDFORMAT_END
 95
       16
302
GRIDFORMAT
  1
GRIDFORMAT_BEGIN
 90
        0
 91
        1
 62
     0
 92
       -2
340
0
 93
        0
 40
1.125
309
GRIDFORMAT_END
 95
       32
302
GRIDFORMAT
  1
GRIDFORMAT_BEGIN
 90
        0
 91
        1
 62
     0
 92
       -2
340
0
 93
        0
 40
1.125
309
GRIDFORMAT_END
309
TABLEFORMAT_END
  1
CELLSTYLE_BEGIN
 90
        2
 91
        1
300
_HEADER
309
CELLSTYLE_END
300
CELLSTYLE
  1
TABLEFORMAT_BEGIN
 90
        5
170
     1
 91
        0
 92
        0
 62
   257
 93
        1
300
CONTENTFORMAT
  1
CONTENTFORMAT_BEGIN
 90
        0
 91
        0
 92
      512
 93
        0
300

 40
0.0
140
1.0
 94
        2
 62
     0
340
11
144
4.5
309
CONTENTFORMAT_END
171
     1
301
MARGIN
  1
CELLMARGIN_BEGIN
 40
1.5
 40
1.5
 40
1.5
 40
1.5
 40
4.5
 40
4.5
309
CELLMARGIN_END
 94
        6
 95
        1
302
GRIDFORMAT
  1
GRIDFORMAT_BEGIN
 90
        0
 91
        1
 62
     0
 92
       -2
340
0
 93
        0
 40
1.125
309
GRIDFORMAT_END
 95
        2
302
GRIDFORMAT
  1
GRIDFORMAT_BEGIN
 90
        0
 91
        1
 62
     0
 92
       -2
340
0
 93
        0
 40
1.125
309
GRIDFORMAT_END
 95
        4
302
GRIDFORMAT
  1
GRIDFORMAT_BEGIN
 90
        0
 91
        1
 62
     0
 92
       -2
340
0
 93
        0
 40
1.125
309
GRIDFORMAT_END
 95
        8
302
GRIDFORMAT
  1
GRIDFORMAT_BEGIN
 90
        0
 91
        1
 62
     0
 92
       -2
340
0
 93
        0
 40
1.125
309
GRIDFORMAT_END
 95
       16
302
GRIDFORMAT
  1
GRIDFORMAT_BEGIN
 90
        0
 91
        1
 62
     0
 92
       -2
340
0
 93
        0
 40
1.125
309
GRIDFORMAT_END
 95
       32
302
GRIDFORMAT
  1
GRIDFORMAT_BEGIN
 90
        0
 91
        1
 62
     0
 92
       -2
340
0
 93
        0
 40
1.125
309
GRIDFORMAT_END
309
TABLEFORMAT_END
  1
CELLSTYLE_BEGIN
 90
        3
 91
        2
300
_DATA
309
CELLSTYLE_END
  0
XRECORD
  5
1D4D
102
{ACAD_REACTORS
330
1D47
102
}
330
1D47
100
AcDbXrecord
280
     1
102
ACAD_ROUNDTRIP_PRE2007_TABLESTYLE
 90
      512
 91
        0
  1

 92
      512
 93
        0
  2

 94
      512
 95
        0
  3

  0
ENDSEC
  0
EOF
