  0
SECTION
  2
HEADER
  9
$ACADVER
  1
AC1018
  9
$ACADMAINTVER
 70
   104
  9
$DWGCODEPAGE
  3
ANSI_932
  9
$LASTSAVEDBY
  1
t-hayashi
  9
$INSBASE
 10
0.0
 20
0.0
 30
0.0
  9
$EXTMIN
 10
25.72207945964868
 20
-18.82736511231155
 30
0.0
  9
$EXTMAX
 10
366.1916771288431
 20
187.4299821351063
 30
0.0
  9
$LIMMIN
 10
0.0
 20
0.0
  9
$LIMMAX
 10
297.0
 20
210.0
  9
$ORTHOMODE
 70
     1
  9
$REGENMODE
 70
     1
  9
$FILLMODE
 70
     1
  9
$QTEXTMODE
 70
     0
  9
$MIRRTEXT
 70
     0
  9
$LTSCALE
 40
1.0
  9
$ATTMODE
 70
     1
  9
$TEXTSIZE
 40
9.0
  9
$TRACEWID
 40
1.0
  9
$TEXTSTYLE
  7
Standard
  9
$CLAYER
  8
hojo
  9
$CELTYPE
  6
ByLayer
  9
$CECOLOR
 62
   256
  9
$CELTSCALE
 40
1.0
  9
$DISPSILH
 70
     0
  9
$DIMSCALE
 40
1.0
  9
$DIMASZ
 40
3.0
  9
$DIMEXO
 40
5.0
  9
$DIMDLI
 40
6.0
  9
$DIMRND
 40
0.0
  9
$DIMDLE
 40
0.0
  9
$DIMEXE
 40
2.0
  9
$DIMTP
 40
0.0
  9
$DIMTM
 40
0.0
  9
$DIMTXT
 40
3.0
  9
$DIMCEN
 40
2.5
  9
$DIMTSZ
 40
0.0
  9
$DIMTOL
 70
     0
  9
$DIMLIM
 70
     0
  9
$DIMTIH
 70
     0
  9
$DIMTOH
 70
     0
  9
$DIMSE1
 70
     0
  9
$DIMSE2
 70
     0
  9
$DIMTAD
 70
     1
  9
$DIMZIN
 70
     8
  9
$DIMBLK
  1
Open30
  9
$DIMASO
 70
     1
  9
$DIMSHO
 70
     1
  9
$DIMPOST
  1

  9
$DIMAPOST
  1

  9
$DIMALT
 70
     0
  9
$DIMALTD
 70
     3
  9
$DIMALTF
 40
0.03937007874016
  9
$DIMLFAC
 40
1.0
  9
$DIMTOFL
 70
     1
  9
$DIMTVP
 40
0.0
  9
$DIMTIX
 70
     0
  9
$DIMSOXD
 70
     0
  9
$DIMSAH
 70
     0
  9
$DIMBLK1
  1

  9
$DIMBLK2
  1

  9
$DIMSTYLE
  2
ISO-25
  9
$DIMCLRD
 70
     4
  9
$DIMCLRE
 70
     4
  9
$DIMCLRT
 70
     4
  9
$DIMTFAC
 40
1.0
  9
$DIMGAP
 40
1.0
  9
$DIMJUST
 70
     0
  9
$DIMSD1
 70
     0
  9
$DIMSD2
 70
     0
  9
$DIMTOLJ
 70
     0
  9
$DIMTZIN
 70
     8
  9
$DIMALTZ
 70
     0
  9
$DIMALTTZ
 70
     0
  9
$DIMUPT
 70
     0
  9
$DIMDEC
 70
     2
  9
$DIMTDEC
 70
     2
  9
$DIMALTU
 70
     2
  9
$DIMALTTD
 70
     3
  9
$DIMTXSTY
  7
Standard
  9
$DIMAUNIT
 70
     0
  9
$DIMADEC
 70
     0
  9
$DIMALTRND
 40
0.0
  9
$DIMAZIN
 70
     0
  9
$DIMDSEP
 70
    46
  9
$DIMATFIT
 70
     3
  9
$DIMFRAC
 70
     0
  9
$DIMLDRBLK
  1
Open30
  9
$DIMLUNIT
 70
     2
  9
$DIMLWD
 70
    -2
  9
$DIMLWE
 70
    -2
  9
$DIMTMOVE
 70
     0
  9
$LUNITS
 70
     2
  9
$LUPREC
 70
     4
  9
$SKETCHINC
 40
1.0
  9
$FILLETRAD
 40
1.0
  9
$AUNITS
 70
     0
  9
$AUPREC
 70
     0
  9
$MENU
  1
.
  9
$ELEVATION
 40
0.0
  9
$PELEVATION
 40
0.0
  9
$THICKNESS
 40
0.0
  9
$LIMCHECK
 70
     0
  9
$CHAMFERA
 40
0.0
  9
$CHAMFERB
 40
0.0
  9
$CHAMFERC
 40
0.0
  9
$CHAMFERD
 40
0.0
  9
$SKPOLY
 70
     0
  9
$TDCREATE
 40
2455497.994904688
  9
$TDUCREATE
 40
2455497.619904688
  9
$TDUPDATE
 40
2455618.787568530
  9
$TDUUPDATE
 40
2455618.412568530
  9
$TDINDWG
 40
0.9204786574
  9
$TDUSRTIMER
 40
0.9204786574
  9
$USRTIMER
 70
     1
  9
$ANGBASE
 50
0.0
  9
$ANGDIR
 70
     0
  9
$PDMODE
 70
     0
  9
$PDSIZE
 40
0.0
  9
$PLINEWID
 40
0.0
  9
$SPLFRAME
 70
     0
  9
$SPLINETYPE
 70
     6
  9
$SPLINESEGS
 70
     8
  9
$HANDSEED
  5
1EDD
  9
$SURFTAB1
 70
     6
  9
$SURFTAB2
 70
     6
  9
$SURFTYPE
 70
     6
  9
$SURFU
 70
     6
  9
$SURFV
 70
     6
  9
$UCSBASE
  2

  9
$UCSNAME
  2

  9
$UCSORG
 10
0.0
 20
0.0
 30
0.0
  9
$UCSXDIR
 10
1.0
 20
0.0
 30
0.0
  9
$UCSYDIR
 10
0.0
 20
1.0
 30
0.0
  9
$UCSORTHOREF
  2

  9
$UCSORTHOVIEW
 70
     0
  9
$UCSORGTOP
 10
0.0
 20
0.0
 30
0.0
  9
$UCSORGBOTTOM
 10
0.0
 20
0.0
 30
0.0
  9
$UCSORGLEFT
 10
0.0
 20
0.0
 30
0.0
  9
$UCSORGRIGHT
 10
0.0
 20
0.0
 30
0.0
  9
$UCSORGFRONT
 10
0.0
 20
0.0
 30
0.0
  9
$UCSORGBACK
 10
0.0
 20
0.0
 30
0.0
  9
$PUCSBASE
  2

  9
$PUCSNAME
  2

  9
$PUCSORG
 10
0.0
 20
0.0
 30
0.0
  9
$PUCSXDIR
 10
1.0
 20
0.0
 30
0.0
  9
$PUCSYDIR
 10
0.0
 20
1.0
 30
0.0
  9
$PUCSORTHOREF
  2

  9
$PUCSORTHOVIEW
 70
     0
  9
$PUCSORGTOP
 10
0.0
 20
0.0
 30
0.0
  9
$PUCSORGBOTTOM
 10
0.0
 20
0.0
 30
0.0
  9
$PUCSORGLEFT
 10
0.0
 20
0.0
 30
0.0
  9
$PUCSORGRIGHT
 10
0.0
 20
0.0
 30
0.0
  9
$PUCSORGFRONT
 10
0.0
 20
0.0
 30
0.0
  9
$PUCSORGBACK
 10
0.0
 20
0.0
 30
0.0
  9
$USERI1
 70
     0
  9
$USERI2
 70
     0
  9
$USERI3
 70
     0
  9
$USERI4
 70
     0
  9
$USERI5
 70
     0
  9
$USERR1
 40
0.0
  9
$USERR2
 40
0.0
  9
$USERR3
 40
0.0
  9
$USERR4
 40
0.0
  9
$USERR5
 40
0.0
  9
$WORLDVIEW
 70
     1
  9
$SHADEDGE
 70
     3
  9
$SHADEDIF
 70
    70
  9
$TILEMODE
 70
     1
  9
$MAXACTVP
 70
    64
  9
$PINSBASE
 10
0.0
 20
0.0
 30
0.0
  9
$PLIMCHECK
 70
     0
  9
$PEXTMIN
 10
3.070773833669022
 20
5.873386204737187
 30
0.0
  9
$PEXTMAX
 10
285.4943319513993
 20
198.4049299931636
 30
0.0
  9
$PLIMMIN
 10
-3.757080078125
 20
-4.180416584014892
  9
$PLIMMAX
 10
293.2112426757813
 20
205.7929110527039
  9
$UNITMODE
 70
     0
  9
$VISRETAIN
 70
     1
  9
$PLINEGEN
 70
     0
  9
$PSLTSCALE
 70
     1
  9
$TREEDEPTH
 70
  3020
  9
$CMLSTYLE
  2
Standard
  9
$CMLJUST
 70
     0
  9
$CMLSCALE
 40
20.0
  9
$PROXYGRAPHICS
 70
     1
  9
$MEASUREMENT
 70
     1
  9
$CELWEIGHT
370
    -1
  9
$ENDCAPS
280
     0
  9
$JOINSTYLE
280
     0
  9
$LWDISPLAY
290
     0
  9
$INSUNITS
 70
     4
  9
$HYPERLINKBASE
  1

  9
$STYLESHEET
  1

  9
$XEDIT
290
     1
  9
$CEPSNTYPE
380
     0
  9
$PSTYLEMODE
290
     1
  9
$FINGERPRINTGUID
  2
{03A8F9F0-C856-470B-BDF9-D9C40928B69F}
  9
$VERSIONGUID
  2
{9294A9B3-64D8-4B7F-A069-C18871F2435A}
  9
$EXTNAMES
290
     1
  9
$PSVPSCALE
 40
0.0
  9
$OLESTARTUP
290
     0
  9
$SORTENTS
280
   127
  9
$INDEXCTL
280
     0
  9
$HIDETEXT
280
     1
  9
$XCLIPFRAME
290
     0
  9
$HALOGAP
280
     0
  9
$OBSCOLOR
 70
   257
  9
$OBSLTYPE
280
     0
  9
$INTERSECTIONDISPLAY
280
     0
  9
$INTERSECTIONCOLOR
 70
   257
  9
$DIMASSOC
280
     2
  9
$PROJECTNAME
  1

  0
ENDSEC
  0
SECTION
  2
CLASSES
  0
CLASS
  1
ACDBDICTIONARYWDFLT
  2
AcDbDictionaryWithDefault
  3
ObjectDBX Classes
 90
        0
 91
        1
280
     0
281
     0
  0
CLASS
  1
MATERIAL
  2
AcDbMaterial
  3
ObjectDBX Classes
 90
     1153
 91
        3
280
     0
281
     0
  0
CLASS
  1
DIMASSOC
  2
AcDbDimAssoc
  3
"AcDbDimAssoc|Product Desc:     AcDim ARX App For Dimension|Company:          Autodesk, Inc.|WEB Address:      www.autodesk.com"
 90
        0
 91
        9
280
     0
281
     0
  0
CLASS
  1
VISUALSTYLE
  2
AcDbVisualStyle
  3
ObjectDBX Classes
 90
     4095
 91
       16
280
     0
281
     0
  0
CLASS
  1
TABLESTYLE
  2
AcDbTableStyle
  3
ObjectDBX Classes
 90
     4095
 91
        1
280
     0
281
     0
  0
CLASS
  1
SCALE
  2
AcDbScale
  3
ObjectDBX Classes
 90
     1153
 91
       33
280
     0
281
     0
  0
CLASS
  1
MLEADERSTYLE
  2
AcDbMLeaderStyle
  3
ACDB_MLEADERSTYLE_CLASS
 90
     4095
 91
        1
280
     0
281
     0
  0
CLASS
  1
CELLSTYLEMAP
  2
AcDbCellStyleMap
  3
ObjectDBX Classes
 90
     1152
 91
        2
280
     0
281
     0
  0
CLASS
  1
DICTIONARYVAR
  2
AcDbDictionaryVar
  3
ObjectDBX Classes
 90
        0
 91
        8
280
     0
281
     0
  0
ENDSEC
  0
SECTION
  2
TABLES
  0
TABLE
  2
VPORT
  5
8
330
0
100
AcDbSymbolTable
 70
     1
  0
VPORT
  5
1E55
330
8
100
AcDbSymbolTableRecord
100
AcDbViewportTableRecord
  2
*Active
 70
     0
 10
0.0
 20
0.0
 11
1.0
 21
1.0
 12
271.066588694589
 22
76.02799193602186
 13
0.0
 23
0.0
 14
10.0
 24
10.0
 15
10.0
 25
10.0
 16
0.0
 26
0.0
 36
1.0
 17
0.0
 27
0.0
 37
0.0
 40
284.3340373617636
 41
2.304913294797688
 42
50.0
 43
0.0
 44
0.0
 50
0.0
 51
0.0
 71
     0
 72
  1000
 73
     1
 74
     3
 75
     0
 76
     0
 77
     0
 78
     0
281
     0
 65
     1
110
0.0
120
0.0
130
0.0
111
1.0
121
0.0
131
0.0
112
0.0
122
1.0
132
0.0
 79
     0
146
0.0
  0
ENDTAB
  0
TABLE
  2
LTYPE
  5
5
330
0
100
AcDbSymbolTable
 70
     2
  0
LTYPE
  5
14
330
5
100
AcDbSymbolTableRecord
100
AcDbLinetypeTableRecord
  2
ByBlock
 70
     0
  3

 72
    65
 73
     0
 40
0.0
  0
LTYPE
  5
15
330
5
100
AcDbSymbolTableRecord
100
AcDbLinetypeTableRecord
  2
ByLayer
 70
     0
  3

 72
    65
 73
     0
 40
0.0
  0
LTYPE
  5
16
330
5
100
AcDbSymbolTableRecord
100
AcDbLinetypeTableRecord
  2
Continuous
 70
     0
  3
Solid line
 72
    65
 73
     0
 40
0.0
  0
ENDTAB
  0
TABLE
  2
LAYER
  5
2
102
{ACAD_XDICTIONARY
360
5C
102
}
330
0
100
AcDbSymbolTable
 70
    10
  0
LAYER
  5
10
102
{ACAD_XDICTIONARY
360
1EB7
102
}
330
2
100
AcDbSymbolTableRecord
100
AcDbLayerTableRecord
  2
0
 70
     0
 62
     7
  6
Continuous
370
    -3
390
F
  0
LAYER
  5
2D
102
{ACAD_XDICTIONARY
360
1EB9
102
}
330
2
100
AcDbSymbolTableRecord
100
AcDbLayerTableRecord
  2
gaikei
 70
     0
 62
     7
  6
Continuous
370
    -3
390
F
  0
LAYER
  5
2E
102
{ACAD_XDICTIONARY
360
1EBB
102
}
330
2
100
AcDbSymbolTableRecord
100
AcDbLayerTableRecord
  2
sumpo
 70
     0
 62
     4
  6
Continuous
370
    -3
390
F
  0
LAYER
  5
2F
102
{ACAD_XDICTIONARY
360
1EBD
102
}
330
2
100
AcDbSymbolTableRecord
100
AcDbLayerTableRecord
  2
fuzoku
 70
     0
 62
     3
  6
Continuous
370
    -3
390
F
  0
LAYER
  5
30
102
{ACAD_XDICTIONARY
360
1EBF
102
}
330
2
100
AcDbSymbolTableRecord
100
AcDbLayerTableRecord
  2
moji
 70
     0
 62
     2
  6
Continuous
370
    -3
390
F
  0
LAYER
  5
48
102
{ACAD_XDICTIONARY
360
1EC1
102
}
330
2
100
AcDbSymbolTableRecord
100
AcDbLayerTableRecord
  2
hojo
 70
     0
 62
     6
  6
Continuous
370
    -3
390
F
  0
LAYER
  5
8F4
330
2
100
AcDbSymbolTableRecord
100
AcDbLayerTableRecord
  2
Defpoints
 70
     0
 62
     7
  6
Continuous
290
     0
370
    -3
390
F
  0
LAYER
  5
B26
102
{ACAD_XDICTIONARY
360
1EC3
102
}
330
2
100
AcDbSymbolTableRecord
100
AcDbLayerTableRecord
  2
shiyouwaku
 70
     0
 62
     7
  6
Continuous
370
    -3
390
F
  0
LAYER
  5
B29
102
{ACAD_XDICTIONARY
360
1EC5
102
}
330
2
100
AcDbSymbolTableRecord
100
AcDbLayerTableRecord
  2
zubanwaku
 70
     0
 62
     7
  6
Continuous
370
    -3
390
F
  0
LAYER
  5
B2A
102
{ACAD_XDICTIONARY
360
1EC7
102
}
330
2
100
AcDbSymbolTableRecord
100
AcDbLayerTableRecord
  2
zubanmoji
 70
     0
 62
     3
  6
Continuous
370
    -3
390
F
  0
ENDTAB
  0
TABLE
  2
STYLE
  5
3
330
0
100
AcDbSymbolTable
 70
     2
  0
STYLE
  5
11
330
3
100
AcDbSymbolTableRecord
100
AcDbTextStyleTableRecord
  2
Standard
 70
     0
 40
0.0
 41
1.0
 50
0.0
 71
     0
 42
9.0
  3
romans.shx
  4
extfont.shx
  0
STYLE
  5
425
330
3
100
AcDbSymbolTableRecord
100
AcDbTextStyleTableRecord
  2
KKZ-Y
 70
     0
 40
0.0
 41
1.0
 50
0.0
 71
     0
 42
300.0
  3
TXT
  4
EXTFONT
  0
ENDTAB
  0
TABLE
  2
VIEW
  5
6
330
0
100
AcDbSymbolTable
 70
     1
  0
ENDTAB
  0
TABLE
  2
UCS
  5
7
330
0
100
AcDbSymbolTable
 70
     0
  0
ENDTAB
  0
TABLE
  2
APPID
  5
9
330
0
100
AcDbSymbolTable
 70
     6
  0
APPID
  5
12
330
9
100
AcDbSymbolTableRecord
100
AcDbRegAppTableRecord
  2
ACAD
 70
     0
  0
APPID
  5
51
330
9
100
AcDbSymbolTableRecord
100
AcDbRegAppTableRecord
  2
AcadAnnotative
 70
     0
  0
APPID
  5
52
330
9
100
AcDbSymbolTableRecord
100
AcDbRegAppTableRecord
  2
ACAD_DSTYLE_DIMJAG
 70
     0
  0
APPID
  5
53
330
9
100
AcDbSymbolTableRecord
100
AcDbRegAppTableRecord
  2
ACAD_DSTYLE_DIMTALN
 70
     0
  0
APPID
  5
54
330
9
100
AcDbSymbolTableRecord
100
AcDbRegAppTableRecord
  2
ACAD_PSEXT
 70
     0
  0
APPID
  5
1E9E
330
9
100
AcDbSymbolTableRecord
100
AcDbRegAppTableRecord
  2
ACAD_MLEADERVER
 70
     0
  0
ENDTAB
  0
TABLE
  2
DIMSTYLE
  5
A
330
0
100
AcDbSymbolTable
 70
     4
100
AcDbDimStyleTable
 71
     3
340
29
340
4F
340
50
  0
DIMSTYLE
105
29
102
{ACAD_REACTORS
330
1D8E
330
1D91
330
1D94
102
}
330
A
100
AcDbSymbolTableRecord
100
AcDbDimStyleTableRecord
  2
ISO-25
 70
     0
 41
3.0
 42
5.0
 43
6.0
 44
2.0
 73
     0
 74
     0
 77
     1
 78
     8
140
3.0
141
2.5
143
0.03937007874016
147
1.0
171
     3
172
     1
176
     4
177
     4
178
     4
271
     2
272
     2
274
     3
283
     0
284
     8
340
11
341
8EC
342
8EC
  0
DIMSTYLE
105
4F
330
A
100
AcDbSymbolTableRecord
100
AcDbDimStyleTableRecord
  2
Standard
 70
     0
340
11
  0
DIMSTYLE
105
50
330
A
100
AcDbSymbolTableRecord
100
AcDbDimStyleTableRecord
  2
Annotative
 70
     0
 40
0.0
340
11
1001
AcadAnnotative
1000
AnnotativeData
1002
{
1070
     1
1070
     1
1002
}
1001
ACAD_DSTYLE_DIMJAG
1070
   388
1040
1.5
1001
ACAD_DSTYLE_DIMTALN
1070
   392
1070
     0
  0
ENDTAB
  0
TABLE
  2
BLOCK_RECORD
  5
1
330
0
100
AcDbSymbolTable
 70
    19
  0
BLOCK_RECORD
  5
21
330
1
100
AcDbSymbolTableRecord
100
AcDbBlockTableRecord
  2
*Model_Space
340
24
  0
BLOCK_RECORD
  5
187F
330
1
100
AcDbSymbolTableRecord
100
AcDbBlockTableRecord
  2
*Paper_Space
340
1880
  0
BLOCK_RECORD
  5
8EC
330
1
100
AcDbSymbolTableRecord
100
AcDbBlockTableRecord
  2
_Open30
340
0
102
{BLKREFS
331
1B4B
331
1B4C
331
1B54
331
1B55
331
1B5D
331
1B5E
331
1B8E
331
1B8F
331
1B82
331
1B83
331
1B76
331
1B77
331
1CEE
331
1CEF
331
1CF7
331
1CF8
331
1D00
331
1D01
331
1D2B
331
1D2C
331
1D1F
331
1D20
331
1D13
331
1D14
331
1E38
331
1E39
331
1E41
331
1E42
331
1E4A
331
1E4B
102
}
  0
BLOCK_RECORD
  5
1B71
330
1
100
AcDbSymbolTableRecord
100
AcDbBlockTableRecord
  2
*D4
340
0
  0
BLOCK_RECORD
  5
1B7D
330
1
100
AcDbSymbolTableRecord
100
AcDbBlockTableRecord
  2
*D5
340
0
  0
BLOCK_RECORD
  5
1B89
330
1
100
AcDbSymbolTableRecord
100
AcDbBlockTableRecord
  2
*D6
340
0
  0
BLOCK_RECORD
  5
1B95
330
1
100
AcDbSymbolTableRecord
100
AcDbBlockTableRecord
  2
A$C21285C17
340
0
  0
BLOCK_RECORD
  5
1D0E
330
1
100
AcDbSymbolTableRecord
100
AcDbBlockTableRecord
  2
*D11
340
0
  0
BLOCK_RECORD
  5
1D1A
330
1
100
AcDbSymbolTableRecord
100
AcDbBlockTableRecord
  2
*D12
340
0
  0
BLOCK_RECORD
  5
1D26
330
1
100
AcDbSymbolTableRecord
100
AcDbBlockTableRecord
  2
*D13
340
0
  0
BLOCK_RECORD
  5
1D32
330
1
100
AcDbSymbolTableRecord
100
AcDbBlockTableRecord
  2
A$C56A732E8
340
0
  0
BLOCK_RECORD
  5
1DBE
330
1
100
AcDbSymbolTableRecord
100
AcDbBlockTableRecord
  2
*D15
340
0
  0
BLOCK_RECORD
  5
1DCA
330
1
100
AcDbSymbolTableRecord
100
AcDbBlockTableRecord
  2
*D16
340
0
  0
BLOCK_RECORD
  5
1DD6
330
1
100
AcDbSymbolTableRecord
100
AcDbBlockTableRecord
  2
*D17
340
0
  0
ENDTAB
  0
ENDSEC
  0
SECTION
  2
BLOCKS
  0
BLOCK
  5
22
330
21
100
AcDbEntity
  8
0
100
AcDbBlockBegin
  2
*Model_Space
 70
     0
 10
0.0
 20
0.0
 30
0.0
  3
*Model_Space
  1

  0
ENDBLK
  5
23
330
21
100
AcDbEntity
  8
0
100
AcDbBlockEnd
  0
BLOCK
  5
1881
330
187F
100
AcDbEntity
 67
     1
  8
0
100
AcDbBlockBegin
  2
*Paper_Space
 70
     0
 10
0.0
 20
0.0
 30
0.0
  3
*Paper_Space
  1

  0
ENDBLK
  5
1882
330
187F
100
AcDbEntity
 67
     1
  8
0
100
AcDbBlockEnd
  0
BLOCK
  5
8F0
330
8EC
100
AcDbEntity
  8
0
100
AcDbBlockBegin
  2
_Open30
 70
     0
 10
0.0
 20
0.0
 30
0.0
  3
_Open30
  1

  0
LINE
  5
8ED
330
8EC
100
AcDbEntity
  8
0
  6
ByBlock
 62
     0
370
    -2
100
AcDbLine
 10
-1.0
 20
0.26794919
 30
0.0
 11
0.0
 21
0.0
 31
0.0
  0
LINE
  5
8EE
330
8EC
100
AcDbEntity
  8
0
  6
ByBlock
 62
     0
370
    -2
100
AcDbLine
 10
0.0
 20
0.0
 30
0.0
 11
-1.0
 21
-0.26794919
 31
0.0
  0
LINE
  5
8EF
330
8EC
100
AcDbEntity
  8
0
  6
ByBlock
 62
     0
370
    -2
100
AcDbLine
 10
0.0
 20
0.0
 30
0.0
 11
-1.0
 21
0.0
 31
0.0
  0
ENDBLK
  5
8F1
330
8EC
100
AcDbEntity
  8
0
100
AcDbBlockEnd
  0
BLOCK
  5
1B72
330
1B71
100
AcDbEntity
  8
0
100
AcDbBlockBegin
  2
*D4
 70
     1
 10
0.0
 20
0.0
 30
0.0
  3
*D4
  1

  0
LINE
  5
1B73
330
1B71
100
AcDbEntity
  8
sumpo
370
    -2
100
AcDbLine
 10
164.1240907677513
 20
613.815151086591
 30
0.0
 11
164.1240907677513
 21
651.1177267056457
 31
0.0
  0
LINE
  5
1B74
330
1B71
100
AcDbEntity
  8
sumpo
370
    -2
100
AcDbLine
 10
270.1240907677513
 20
613.815151086591
 30
0.0
 11
270.1240907677513
 21
651.1177267056457
 31
0.0
  0
LINE
  5
1B75
330
1B71
100
AcDbEntity
  8
sumpo
370
    -2
100
AcDbLine
 10
172.1240907677513
 20
641.1177267056457
 30
0.0
 11
262.1240907677513
 21
641.1177267056457
 31
0.0
  0
INSERT
  5
1B76
330
1B71
100
AcDbEntity
  8
sumpo
370
    -2
100
AcDbBlockReference
  2
_Open30
 10
164.1240907677513
 20
641.1177267056457
 30
0.0
 41
8.0
 42
8.0
 43
8.0
 50
180.0
  0
INSERT
  5
1B77
330
1B71
100
AcDbEntity
  8
sumpo
370
    -2
100
AcDbBlockReference
  2
_Open30
 10
270.1240907677513
 20
641.1177267056457
 30
0.0
 41
8.0
 42
8.0
 43
8.0
  0
MTEXT
  5
1B78
330
1B71
100
AcDbEntity
  8
sumpo
 62
     4
100
AcDbMText
 10
217.1240907677513
 20
649.1177267056457
 30
0.0
 40
8.0
 41
0.0
 71
     5
 72
     1
  1
106
 73
     1
 44
1.0
  0
POINT
  5
1B79
330
1B71
100
AcDbEntity
  8
Defpoints
 62
     0
100
AcDbPoint
 10
164.1240907677513
 20
603.8151510865909
 30
0.0
  0
POINT
  5
1B7A
330
1B71
100
AcDbEntity
  8
Defpoints
 62
     0
100
AcDbPoint
 10
270.1240907677513
 20
603.8151510865909
 30
0.0
  0
POINT
  5
1B7B
330
1B71
100
AcDbEntity
  8
Defpoints
 62
     0
100
AcDbPoint
 10
270.1240907677513
 20
641.1177267056457
 30
0.0
  0
ENDBLK
  5
1B7C
330
1B71
100
AcDbEntity
  8
0
100
AcDbBlockEnd
  0
BLOCK
  5
1B7E
330
1B7D
100
AcDbEntity
  8
0
100
AcDbBlockBegin
  2
*D5
 70
     1
 10
0.0
 20
0.0
 30
0.0
  3
*D5
  1

  0
LINE
  5
1B7F
330
1B7D
100
AcDbEntity
  8
sumpo
370
    -2
100
AcDbLine
 10
154.1240907677513
 20
603.8151510865909
 30
0.0
 11
115.0271829087005
 21
603.8151510865909
 31
0.0
  0
LINE
  5
1B80
330
1B7D
100
AcDbEntity
  8
sumpo
370
    -2
100
AcDbLine
 10
202.1240907677513
 20
508.8151510865909
 30
0.0
 11
115.0271829087005
 21
508.8151510865909
 31
0.0
  0
LINE
  5
1B81
330
1B7D
100
AcDbEntity
  8
sumpo
370
    -2
100
AcDbLine
 10
125.0271829087005
 20
595.8151510865909
 30
0.0
 11
125.0271829087005
 21
516.8151510865909
 31
0.0
  0
INSERT
  5
1B82
330
1B7D
100
AcDbEntity
  8
sumpo
370
    -2
100
AcDbBlockReference
  2
_Open30
 10
125.0271829087005
 20
603.8151510865909
 30
0.0
 41
8.0
 42
8.0
 43
8.0
 50
90.0
  0
INSERT
  5
1B83
330
1B7D
100
AcDbEntity
  8
sumpo
370
    -2
100
AcDbBlockReference
  2
_Open30
 10
125.0271829087005
 20
508.8151510865909
 30
0.0
 41
8.0
 42
8.0
 43
8.0
 50
270.0
  0
MTEXT
  5
1B84
330
1B7D
100
AcDbEntity
  8
sumpo
 62
     4
100
AcDbMText
 10
117.0271829087004
 20
556.3151510865909
 30
0.0
 40
8.0
 41
0.0
 71
     5
 72
     1
  1
95
 11
0.0000000000000001
 21
1.0
 31
0.0
 73
     1
 44
1.0
  0
POINT
  5
1B85
330
1B7D
100
AcDbEntity
  8
Defpoints
 62
     0
100
AcDbPoint
 10
164.1240907677513
 20
603.8151510865909
 30
0.0
  0
POINT
  5
1B86
330
1B7D
100
AcDbEntity
  8
Defpoints
 62
     0
100
AcDbPoint
 10
212.1240907677513
 20
508.8151510865909
 30
0.0
  0
POINT
  5
1B87
330
1B7D
100
AcDbEntity
  8
Defpoints
 62
     0
100
AcDbPoint
 10
125.0271829087005
 20
508.8151510865909
 30
0.0
  0
ENDBLK
  5
1B88
330
1B7D
100
AcDbEntity
  8
0
100
AcDbBlockEnd
  0
BLOCK
  5
1B8A
330
1B89
100
AcDbEntity
  8
0
100
AcDbBlockBegin
  2
*D6
 70
     1
 10
0.0
 20
0.0
 30
0.0
  3
*D6
  1

  0
LINE
  5
1B8B
330
1B89
100
AcDbEntity
  8
sumpo
370
    -2
100
AcDbLine
 10
414.5717239156756
 20
613.815151086591
 30
0.0
 11
414.5717239156756
 21
651.1177267056457
 31
0.0
  0
LINE
  5
1B8C
330
1B89
100
AcDbEntity
  8
sumpo
370
    -2
100
AcDbLine
 10
353.5717239156757
 20
564.315151086591
 30
0.0
 11
353.5717239156757
 21
651.1177267056457
 31
0.0
  0
LINE
  5
1B8D
330
1B89
100
AcDbEntity
  8
sumpo
370
    -2
100
AcDbLine
 10
406.5717239156756
 20
641.1177267056457
 30
0.0
 11
361.5717239156757
 21
641.1177267056457
 31
0.0
  0
INSERT
  5
1B8E
330
1B89
100
AcDbEntity
  8
sumpo
370
    -2
100
AcDbBlockReference
  2
_Open30
 10
414.5717239156756
 20
641.1177267056457
 30
0.0
 41
8.0
 42
8.0
 43
8.0
  0
INSERT
  5
1B8F
330
1B89
100
AcDbEntity
  8
sumpo
370
    -2
100
AcDbBlockReference
  2
_Open30
 10
353.5717239156757
 20
641.1177267056457
 30
0.0
 41
8.0
 42
8.0
 43
8.0
 50
180.0
  0
MTEXT
  5
1B90
330
1B89
100
AcDbEntity
  8
sumpo
 62
     4
100
AcDbMText
 10
384.0717239156757
 20
649.1177267056457
 30
0.0
 40
8.0
 41
0.0
 71
     5
 72
     1
  1
61
 73
     1
 44
1.0
  0
POINT
  5
1B91
330
1B89
100
AcDbEntity
  8
Defpoints
 62
     0
100
AcDbPoint
 10
414.5717239156756
 20
603.8151510865909
 30
0.0
  0
POINT
  5
1B92
330
1B89
100
AcDbEntity
  8
Defpoints
 62
     0
100
AcDbPoint
 10
353.5717239156757
 20
554.3151510865909
 30
0.0
  0
POINT
  5
1B93
330
1B89
100
AcDbEntity
  8
Defpoints
 62
     0
100
AcDbPoint
 10
353.5717239156757
 20
641.1177267056457
 30
0.0
  0
ENDBLK
  5
1B94
330
1B89
100
AcDbEntity
  8
0
100
AcDbBlockEnd
  0
BLOCK
  5
1C12
330
1B95
100
AcDbEntity
  8
0
100
AcDbBlockBegin
  2
A$C21285C17
 70
     0
 10
0.0
 20
0.0
 30
0.0
  3
A$C21285C17
  1

  0
TEXT
  5
1B96
330
1B95
100
AcDbEntity
  8
zubanmoji
100
AcDbText
 10
113.7263531870003
 20
-164.7077796684366
 30
0.0
 40
2.0
  1
TATSUTA ELECTRIC WIRE & CABLE CO., LTD. 
 72
     1
 11
145.9739722346193
 21
-163.7077796684366
 31
0.0
100
AcDbText
 73
     2
  0
DIMENSION
  5
1B97
102
{ACAD_XDICTIONARY
360
1B98
102
}
102
{ACAD_REACTORS
330
1B99
102
}
330
1B95
100
AcDbEntity
  8
sumpo
100
AcDbDimension
  2
*D6
 10
281.2373536581558
 20
-62.14868905903222
 30
0.0
 11
311.7373536581558
 21
-54.14868905903222
 31
0.0
 12
-72.33437025751982
 22
-703.2664157646779
 32
0.0
 71
     5
 42
61.00000000000005
  3
ISO-25
100
AcDbAlignedDimension
 13
342.2373536581559
 23
-99.451264678087
 33
0.0
 14
281.2373536581558
 24
-148.951264678087
 34
0.0
100
AcDbRotatedDimension
  0
DIMENSION
  5
1B9A
102
{ACAD_XDICTIONARY
360
1B9B
102
}
102
{ACAD_REACTORS
330
1B9C
102
}
330
1B95
100
AcDbEntity
  8
sumpo
100
AcDbDimension
  2
*D5
 10
52.6928126511807
 20
-194.451264678087
 30
0.0
 11
44.69281265118062
 21
-146.951264678087
 31
0.0
 12
-72.33437025751982
 22
-703.2664157646779
 32
0.0
 71
     5
 42
95.0
  3
ISO-25
100
AcDbAlignedDimension
 13
91.78972051023146
 23
-99.451264678087
 33
0.0
 14
139.7897205102314
 24
-194.451264678087
 34
0.0
 50
90.0
100
AcDbRotatedDimension
  0
DIMENSION
  5
1B9D
102
{ACAD_XDICTIONARY
360
1B9E
102
}
102
{ACAD_REACTORS
330
1B9F
102
}
330
1B95
100
AcDbEntity
  8
sumpo
100
AcDbDimension
  2
*D4
 10
197.7897205102314
 20
-62.14868905903222
 30
0.0
 11
144.7897205102314
 21
-54.14868905903222
 31
0.0
 12
-72.33437025751982
 22
-703.2664157646779
 32
0.0
 71
     5
 42
106.0
  3
ISO-25
100
AcDbAlignedDimension
 13
91.78972051023146
 23
-99.451264678087
 33
0.0
 14
197.7897205102314
 24
-99.451264678087
 34
0.0
100
AcDbRotatedDimension
  0
LINE
  5
1BA0
330
1B95
100
AcDbEntity
  8
gaikei
100
AcDbLine
 10
194.7897205102314
 20
-294.3044366714199
 30
0.0
 11
197.7897205102315
 21
-294.30443667142
 31
0.0
  0
LINE
  5
1BA1
330
1B95
100
AcDbEntity
  8
gaikei
100
AcDbLine
 10
184.7897205102316
 20
-259.6044366714199
 30
0.0
 11
190.7897205102315
 21
-259.6044366714199
 31
0.0
  0
LINE
  5
1BA2
330
1B95
100
AcDbEntity
  8
gaikei
100
AcDbLine
 10
170.7897205102316
 20
-259.60443667142
 30
0.0
 11
176.7897205102315
 21
-259.6044366714199
 31
0.0
  0
LINE
  5
1BA3
330
1B95
100
AcDbEntity
  8
gaikei
100
AcDbLine
 10
190.7897205102315
 20
-259.6044366714199
 30
0.0
 11
190.7897205102315
 21
-262.6044366714199
 31
0.0
  0
LINE
  5
1BA4
330
1B95
100
AcDbEntity
  8
gaikei
100
AcDbLine
 10
184.7897205102316
 20
-259.6044366714199
 30
0.0
 11
184.7897205102316
 21
-262.6044366714199
 31
0.0
  0
LINE
  5
1BA5
330
1B95
100
AcDbEntity
  8
gaikei
100
AcDbLine
 10
176.7897205102315
 20
-259.6044366714199
 30
0.0
 11
176.7897205102315
 21
-262.6044366714199
 31
0.0
  0
LINE
  5
1BA6
330
1B95
100
AcDbEntity
  8
gaikei
100
AcDbLine
 10
170.7897205102316
 20
-259.60443667142
 30
0.0
 11
170.7897205102316
 21
-262.6044366714199
 31
0.0
  0
LINE
  5
1BA7
330
1B95
100
AcDbEntity
  8
gaikei
100
AcDbLine
 10
139.7897205102315
 20
-318.10443667142
 30
0.0
 11
149.7897205102315
 21
-318.10443667142
 31
0.0
  0
LINE
  5
1BA8
330
1B95
100
AcDbEntity
  8
gaikei
100
AcDbLine
 10
139.7897205102315
 20
-314.60443667142
 30
0.0
 11
149.7897205102315
 21
-314.60443667142
 31
0.0
  0
LINE
  5
1BA9
330
1B95
100
AcDbEntity
  8
gaikei
100
AcDbLine
 10
149.7897205102315
 20
-314.60443667142
 30
0.0
 11
149.7897205102315
 21
-320.60443667142
 31
0.0
  0
LINE
  5
1BAA
330
1B95
100
AcDbEntity
  8
gaikei
100
AcDbLine
 10
139.7897205102315
 20
-314.60443667142
 30
0.0
 11
139.7897205102315
 21
-320.60443667142
 31
0.0
  0
LINE
  5
1BAB
330
1B95
100
AcDbEntity
  8
gaikei
100
AcDbLine
 10
94.78972051023148
 20
-307.60443667142
 30
0.0
 11
194.7897205102314
 21
-307.60443667142
 31
0.0
  0
LINE
  5
1BAC
330
1B95
100
AcDbEntity
  8
gaikei
100
AcDbLine
 10
91.7897205102315
 20
-313.60443667142
 30
0.0
 11
197.7897205102315
 21
-313.60443667142
 31
0.0
  0
LINE
  5
1BAD
330
1B95
100
AcDbEntity
  8
gaikei
100
AcDbLine
 10
94.78972051023154
 20
-289.6044366714201
 30
0.0
 11
94.78972051023148
 21
-307.60443667142
 31
0.0
  0
LINE
  5
1BAE
330
1B95
100
AcDbEntity
  8
gaikei
100
AcDbLine
 10
194.7897205102314
 20
-289.6044366714201
 30
0.0
 11
194.7897205102314
 21
-307.60443667142
 31
0.0
  0
ARC
  5
1BAF
330
1B95
100
AcDbEntity
  8
gaikei
100
AcDbCircle
 10
96.7897205102315
 20
-289.6044366714201
 30
0.0
 40
2.0
100
AcDbArc
 50
90.0
 51
180.0
  0
ARC
  5
1BB0
330
1B95
100
AcDbEntity
  8
gaikei
100
AcDbCircle
 10
192.7897205102314
 20
-289.6044366714201
 30
0.0
 40
2.0
100
AcDbArc
 50
0.0
 51
90.0
  0
LINE
  5
1BB1
330
1B95
100
AcDbEntity
  8
gaikei
100
AcDbLine
 10
96.7897205102315
 20
-287.60443667142
 30
0.0
 11
192.7897205102314
 21
-287.60443667142
 31
0.0
  0
LINE
  5
1BB2
330
1B95
100
AcDbEntity
  8
gaikei
100
AcDbLine
 10
91.7897205102315
 20
-294.30443667142
 30
0.0
 11
94.78972051023148
 21
-294.3044366714199
 31
0.0
  0
LINE
  5
1BB3
330
1B95
100
AcDbEntity
  8
gaikei
100
AcDbLine
 10
91.7897205102315
 20
-272.60443667142
 30
0.0
 11
197.7897205102315
 21
-272.60443667142
 31
0.0
  0
LINE
  5
1BB4
330
1B95
100
AcDbEntity
  8
gaikei
100
AcDbLine
 10
197.7897205102314
 20
-262.6044366714199
 30
0.0
 11
197.7897205102315
 21
-320.60443667142
 31
0.0
  0
LINE
  5
1BB5
330
1B95
100
AcDbEntity
  8
gaikei
100
AcDbLine
 10
91.78972051023155
 20
-262.60443667142
 30
0.0
 11
197.7897205102314
 21
-262.6044366714199
 31
0.0
  0
MTEXT
  5
1BB6
330
1B95
100
AcDbEntity
  8
fuzoku
100
AcDbMText
 10
109.3487106192694
 20
-134.915516929693
 30
0.0
 40
1.5
 41
4.228860106140018
 71
     1
 72
     5
  1
1\P2\P3\P4\P5\P6\P7\P8
 73
     1
 44
1.0
  0
LINE
  5
1BB7
330
1B95
100
AcDbEntity
  8
fuzoku
100
AcDbLine
 10
148.0260722754835
 20
-133.2224589050081
 30
0.0
 11
171.2752691168895
 21
-133.2224589050081
 31
0.0
  0
LINE
  5
1BB8
330
1B95
100
AcDbEntity
  8
fuzoku
100
AcDbLine
 10
122.3669023179847
 20
-129.3967806048845
 30
0.0
 11
156.3901131062763
 21
-129.3967806048845
 31
0.0
  0
TEXT
  5
1BB9
330
1B95
100
AcDbEntity
  8
fuzoku
100
AcDbText
 10
133.4244444228094
 20
-132.513999214053
 30
0.0
 40
2.5
  1
　　　　　AD-AS-1LM
100
AcDbText
  0
TEXT
  5
1BBA
330
1B95
100
AcDbEntity
  8
fuzoku
100
AcDbText
 10
123.2174808912966
 20
-128.6883209139293
 30
0.0
 40
4.0
  1
漏水位置検知器
100
AcDbText
  0
TEXT
  5
1BBB
330
1B95
100
AcDbEntity
  8
fuzoku
100
AcDbText
 10
183.2563871768982
 20
-159.4435912882818
 30
0.0
 40
2.0
  1
警報解除
 72
     4
 11
187.7897205102316
 21
-158.4435912882818
 31
0.0
100
AcDbText
  0
TEXT
  5
1BBC
330
1B95
100
AcDbEntity
  8
fuzoku
100
AcDbText
 10
167.9230538435648
 20
-159.4435912882818
 30
0.0
 40
2.0
  1
ブザー停止
 72
     4
 11
173.7897205102315
 21
-158.4435912882818
 31
0.0
100
AcDbText
  0
TEXT
  5
1BBD
330
1B95
100
AcDbEntity
  8
fuzoku
100
AcDbText
 10
185.6563871768982
 20
-143.9910322821363
 30
0.0
 40
2.0
  1
警報
 72
     4
 11
187.7897205102316
 21
-142.9910322821363
 31
0.0
100
AcDbText
  0
TEXT
  5
1BBE
330
1B95
100
AcDbEntity
  8
fuzoku
100
AcDbText
 10
185.6563871768982
 20
-133.6475332537506
 30
0.0
 40
2.0
  1
電源
 72
     4
 11
187.7897205102316
 21
-132.6475332537507
 31
0.0
100
AcDbText
  0
LINE
  5
1BBF
330
1B95
100
AcDbEntity
  8
gaikei
100
AcDbLine
 10
108.2897205102314
 20
-155.4512646780869
 30
0.0
 11
101.7897205102314
 21
-155.4512646780868
 31
0.0
  0
LINE
  5
1BC0
330
1B95
100
AcDbEntity
  8
gaikei
100
AcDbLine
 10
108.2897205102314
 20
-133.4512646780867
 30
0.0
 11
101.7897205102314
 21
-133.4512646780867
 31
0.0
  0
LINE
  5
1BC1
330
1B95
100
AcDbEntity
  8
gaikei
100
AcDbLine
 10
108.2897205102314
 20
-133.4512646780867
 30
0.0
 11
108.2897205102314
 21
-155.4512646780869
 31
0.0
  0
LINE
  5
1BC2
330
1B95
100
AcDbEntity
  8
gaikei
100
AcDbLine
 10
101.7897205102314
 20
-133.4512646780867
 30
0.0
 11
101.7897205102314
 21
-155.4512646780868
 31
0.0
  0
LINE
  5
1BC3
330
1B95
100
AcDbEntity
  8
fuzoku
100
AcDbLine
 10
159.7897205102314
 20
-137.9512646780868
 30
0.0
 11
159.7897205102314
 21
-149.4512646780869
 31
0.0
  0
LINE
  5
1BC4
330
1B95
100
AcDbEntity
  8
fuzoku
100
AcDbLine
 10
152.2897205102314
 20
-137.9512646780866
 30
0.0
 11
152.2897205102314
 21
-149.4512646780868
 31
0.0
  0
LINE
  5
1BC5
330
1B95
100
AcDbEntity
  8
fuzoku
100
AcDbLine
 10
144.7897205102314
 20
-137.9512646780866
 30
0.0
 11
144.7897205102314
 21
-149.4512646780868
 31
0.0
  0
LINE
  5
1BC6
330
1B95
100
AcDbEntity
  8
fuzoku
100
AcDbLine
 10
133.2897205102314
 20
-149.4512646780868
 30
0.0
 11
125.2897205102314
 21
-149.4512646780868
 31
0.0
  0
LINE
  5
1BC7
330
1B95
100
AcDbEntity
  8
fuzoku
100
AcDbLine
 10
133.2897205102314
 20
-137.9512646780868
 30
0.0
 11
125.2897205102314
 21
-137.9512646780868
 31
0.0
  0
LINE
  5
1BC8
330
1B95
100
AcDbEntity
  8
fuzoku
100
AcDbLine
 10
159.7897205102314
 20
-149.4512646780869
 30
0.0
 11
137.2897205102314
 21
-149.4512646780868
 31
0.0
  0
LINE
  5
1BC9
330
1B95
100
AcDbEntity
  8
fuzoku
100
AcDbLine
 10
159.7897205102314
 20
-137.9512646780868
 30
0.0
 11
137.2897205102314
 21
-137.9512646780866
 31
0.0
  0
LINE
  5
1BCA
330
1B95
100
AcDbEntity
  8
fuzoku
100
AcDbLine
 10
137.2897205102314
 20
-137.9512646780866
 30
0.0
 11
137.2897205102314
 21
-149.4512646780868
 31
0.0
  0
LINE
  5
1BCB
330
1B95
100
AcDbEntity
  8
fuzoku
100
AcDbLine
 10
133.2897205102314
 20
-137.9512646780868
 30
0.0
 11
133.2897205102314
 21
-149.4512646780868
 31
0.0
  0
LINE
  5
1BCC
330
1B95
100
AcDbEntity
  8
fuzoku
100
AcDbLine
 10
125.2897205102314
 20
-137.9512646780868
 30
0.0
 11
125.2897205102314
 21
-149.4512646780868
 31
0.0
  0
CIRCLE
  5
1BCD
330
1B95
100
AcDbEntity
  8
gaikei
100
AcDbCircle
 10
187.7897205102314
 20
-151.951264678087
 30
0.0
 40
2.999999999999943
  0
CIRCLE
  5
1BCE
330
1B95
100
AcDbEntity
  8
gaikei
100
AcDbCircle
 10
173.7897205102314
 20
-151.9512646780869
 30
0.0
 40
2.999999999999943
  0
CIRCLE
  5
1BCF
330
1B95
100
AcDbEntity
  8
fuzoku
100
AcDbCircle
 10
187.7897205102316
 20
-128.9512646780867
 30
0.0
 40
2.0
  0
CIRCLE
  5
1BD0
330
1B95
100
AcDbEntity
  8
fuzoku
100
AcDbCircle
 10
187.7897205102315
 20
-138.9512646780868
 30
0.0
 40
2.0
  0
LINE
  5
1BD1
330
1B95
100
AcDbEntity
  8
gaikei
100
AcDbLine
 10
149.7897205102314
 20
-189.451264678087
 30
0.0
 11
149.7897205102314
 21
-194.451264678087
 31
0.0
  0
LINE
  5
1BD2
102
{ACAD_REACTORS
330
1B9C
102
}
330
1B95
100
AcDbEntity
  8
gaikei
100
AcDbLine
 10
139.7897205102314
 20
-189.451264678087
 30
0.0
 11
139.7897205102314
 21
-194.451264678087
 31
0.0
  0
LINE
  5
1BD3
330
1B95
100
AcDbEntity
  8
gaikei
100
AcDbLine
 10
197.7897205102314
 20
-175.451264678087
 30
0.0
 11
91.78972051023146
 21
-175.451264678087
 31
0.0
  0
LINE
  5
1BD4
330
1B95
100
AcDbEntity
  8
gaikei
100
AcDbLine
 10
197.7897205102314
 20
-166.951264678087
 30
0.0
 11
91.78972051023146
 21
-166.951264678087
 31
0.0
  0
LINE
  5
1BD5
330
1B95
100
AcDbEntity
  8
gaikei
100
AcDbLine
 10
197.7897205102314
 20
-121.9512646780867
 30
0.0
 11
91.78972051023146
 21
-121.9512646780867
 31
0.0
  0
LINE
  5
1BD6
330
1B95
100
AcDbEntity
  8
gaikei
100
AcDbLine
 10
197.7897205102314
 20
-113.4512646780869
 30
0.0
 11
91.78972051023146
 21
-113.4512646780869
 31
0.0
  0
LINE
  5
1BD7
330
1B95
100
AcDbEntity
  8
gaikei
100
AcDbLine
 10
96.78972051023146
 20
-111.951264678087
 30
0.0
 11
91.78972051023146
 21
-111.951264678087
 31
0.0
  0
LINE
  5
1BD8
330
1B95
100
AcDbEntity
  8
gaikei
100
AcDbLine
 10
96.78972051023146
 20
-105.451264678087
 30
0.0
 11
91.78972051023146
 21
-105.451264678087
 31
0.0
  0
LINE
  5
1BD9
330
1B95
100
AcDbEntity
  8
gaikei
100
AcDbLine
 10
96.78972051023146
 20
-105.451264678087
 30
0.0
 11
96.78972051023146
 21
-111.951264678087
 31
0.0
  0
LINE
  5
1BDA
330
1B95
100
AcDbEntity
  8
gaikei
100
AcDbLine
 10
192.7897205102315
 20
-111.951264678087
 30
0.0
 11
192.7897205102315
 21
-105.4512646780867
 31
0.0
  0
LINE
  5
1BDB
330
1B95
100
AcDbEntity
  8
gaikei
100
AcDbLine
 10
336.2373536581566
 20
-194.4512646780869
 30
0.0
 11
339.7373536581566
 21
-194.451264678087
 31
0.0
  0
LINE
  5
1BDC
330
1B95
100
AcDbEntity
  8
gaikei
100
AcDbLine
 10
197.7897205102314
 20
-111.951264678087
 30
0.0
 11
192.7897205102315
 21
-111.951264678087
 31
0.0
  0
LINE
  5
1BDD
330
1B95
100
AcDbEntity
  8
gaikei
100
AcDbLine
 10
197.7897205102314
 20
-105.4512646780867
 30
0.0
 11
192.7897205102315
 21
-105.4512646780867
 31
0.0
  0
LINE
  5
1BDE
330
1B95
100
AcDbEntity
  8
gaikei
100
AcDbLine
 10
339.7373536581566
 20
-189.4512646780869
 30
0.0
 11
339.7373536581566
 21
-194.451264678087
 31
0.0
  0
LINE
  5
1BDF
330
1B95
100
AcDbEntity
  8
gaikei
100
AcDbLine
 10
336.2373536581566
 20
-189.4512646780867
 30
0.0
 11
336.2373536581566
 21
-194.4512646780869
 31
0.0
  0
LINE
  5
1BE0
330
1B95
100
AcDbEntity
  8
gaikei
100
AcDbLine
 10
338.7373536581559
 20
-126.451264678087
 30
0.0
 11
340.2373536581559
 21
-129.451264678087
 31
0.0
  0
LINE
  5
1BE1
330
1B95
100
AcDbEntity
  8
gaikei
100
AcDbLine
 10
340.2373536581559
 20
-129.451264678087
 30
0.0
 11
342.2373536581559
 21
-129.451264678087
 31
0.0
  0
LINE
  5
1BE2
330
1B95
100
AcDbEntity
  8
gaikei
100
AcDbLine
 10
337.2373536581559
 20
-126.451264678087
 30
0.0
 11
337.2373536581559
 21
-162.7369789638012
 31
0.0
  0
LINE
  5
1BE3
330
1B95
100
AcDbEntity
  8
gaikei
100
AcDbLine
 10
337.2373536581559
 20
-162.7369789638012
 30
0.0
 11
342.2373536581559
 21
-163.451264678087
 31
0.0
  0
LINE
  5
1BE4
102
{ACAD_REACTORS
330
1B99
102
}
330
1B95
100
AcDbEntity
  8
gaikei
100
AcDbLine
 10
342.2373536581559
 20
-129.451264678087
 30
0.0
 11
342.2373536581559
 21
-99.451264678087
 31
0.0
  0
LINE
  5
1BE5
330
1B95
100
AcDbEntity
  8
gaikei
100
AcDbLine
 10
337.2373536581559
 20
-126.451264678087
 30
0.0
 11
342.2373536581559
 21
-126.451264678087
 31
0.0
  0
LINE
  5
1BE6
330
1B95
100
AcDbEntity
  8
gaikei
100
AcDbLine
 10
341.2373536581565
 20
-177.4512646780872
 30
0.0
 11
341.2373536581565
 21
-182.9512646780872
 31
0.0
  0
LINE
  5
1BE7
330
1B95
100
AcDbEntity
  8
gaikei
100
AcDbLine
 10
335.2373536581565
 20
-183.451264678087
 30
0.0
 11
341.2373536581565
 21
-182.9512646780872
 31
0.0
  0
LINE
  5
1BE8
330
1B95
100
AcDbEntity
  8
gaikei
100
AcDbLine
 10
335.2373536581565
 20
-176.951264678087
 30
0.0
 11
341.2373536581565
 21
-177.4512646780872
 31
0.0
  0
LINE
  5
1BE9
330
1B95
100
AcDbEntity
  8
gaikei
100
AcDbLine
 10
335.2373536581566
 20
-183.4512646780872
 30
0.0
 11
335.2373536581566
 21
-189.451264678087
 31
0.0
  0
LINE
  5
1BEA
330
1B95
100
AcDbEntity
  8
gaikei
100
AcDbLine
 10
335.2373536581566
 20
-183.451264678087
 30
0.0
 11
342.2373536581565
 21
-183.451264678087
 31
0.0
  0
LINE
  5
1BEB
330
1B95
100
AcDbEntity
  8
gaikei
100
AcDbLine
 10
335.2373536581565
 20
-176.951264678087
 30
0.0
 11
342.2373536581564
 21
-176.951264678087
 31
0.0
  0
LINE
  5
1BEC
330
1B95
100
AcDbEntity
  8
gaikei
100
AcDbLine
 10
342.2373536581564
 20
-176.951264678087
 30
0.0
 11
342.2373536581564
 21
-176.951264678087
 31
0.0
  0
LINE
  5
1BED
330
1B95
100
AcDbEntity
  8
gaikei
100
AcDbLine
 10
284.2373536581558
 20
-154.951264678087
 30
0.0
 11
281.2373536581559
 21
-154.9512646780869
 31
0.0
  0
LINE
  5
1BEE
102
{ACAD_REACTORS
330
1B99
102
}
330
1B95
100
AcDbEntity
  8
gaikei
100
AcDbLine
 10
284.2373536581559
 20
-148.9512646780869
 30
0.0
 11
281.2373536581558
 21
-148.951264678087
 31
0.0
  0
LINE
  5
1BEF
330
1B95
100
AcDbEntity
  8
gaikei
100
AcDbLine
 10
281.2373536581559
 20
-154.9512646780869
 30
0.0
 11
281.2373536581558
 21
-148.951264678087
 31
0.0
  0
LINE
  5
1BF0
330
1B95
100
AcDbEntity
  8
gaikei
100
AcDbLine
 10
342.2373536581559
 20
-111.951264678087
 30
0.0
 11
342.2373536581559
 21
-111.951264678087
 31
0.0
  0
LINE
  5
1BF1
330
1B95
100
AcDbEntity
  8
gaikei
100
AcDbLine
 10
335.2373536581559
 20
-111.951264678087
 30
0.0
 11
342.2373536581559
 21
-111.951264678087
 31
0.0
  0
LINE
  5
1BF2
330
1B95
100
AcDbEntity
  8
gaikei
100
AcDbLine
 10
335.237353658156
 20
-105.451264678087
 30
0.0
 11
342.2373536581559
 21
-105.451264678087
 31
0.0
  0
LINE
  5
1BF3
330
1B95
100
AcDbEntity
  8
gaikei
100
AcDbLine
 10
335.237353658156
 20
-105.4512646780867
 30
0.0
 11
335.2373536581559
 21
-99.451264678087
 31
0.0
  0
LINE
  5
1BF4
330
1B95
100
AcDbEntity
  8
gaikei
100
AcDbLine
 10
335.2373536581559
 20
-111.951264678087
 30
0.0
 11
341.2373536581559
 21
-111.4512646780867
 31
0.0
  0
LINE
  5
1BF5
330
1B95
100
AcDbEntity
  8
gaikei
100
AcDbLine
 10
335.2373536581559
 20
-105.451264678087
 30
0.0
 11
341.2373536581559
 21
-105.9512646780867
 31
0.0
  0
LINE
  5
1BF6
330
1B95
100
AcDbEntity
  8
gaikei
100
AcDbLine
 10
341.2373536581559
 20
-111.4512646780867
 30
0.0
 11
341.2373536581559
 21
-105.9512646780867
 31
0.0
  0
LINE
  5
1BF7
330
1B95
100
AcDbEntity
  8
gaikei
100
AcDbLine
 10
330.7373536581559
 20
-105.451264678087
 30
0.0
 11
315.9373536581559
 21
-105.4512646780869
 31
0.0
  0
LINE
  5
1BF8
330
1B95
100
AcDbEntity
  8
gaikei
100
AcDbLine
 10
330.7373536581559
 20
-111.951264678087
 30
0.0
 11
315.9373536581559
 21
-111.951264678087
 31
0.0
  0
LINE
  5
1BF9
330
1B95
100
AcDbEntity
  8
gaikei
100
AcDbLine
 10
330.7373536581559
 20
-111.951264678087
 30
0.0
 11
330.7373536581559
 21
-105.451264678087
 31
0.0
  0
LINE
  5
1BFA
330
1B95
100
AcDbEntity
  8
gaikei
100
AcDbLine
 10
294.2373536581559
 20
-121.9512646780869
 30
0.0
 11
294.2373536581559
 21
-113.4512646780869
 31
0.0
  0
LINE
  5
1BFB
330
1B95
100
AcDbEntity
  8
gaikei
100
AcDbLine
 10
294.2373536581558
 20
-166.951264678087
 30
0.0
 11
284.2373536581558
 21
-166.951264678087
 31
0.0
  0
LINE
  5
1BFC
330
1B95
100
AcDbEntity
  8
gaikei
100
AcDbLine
 10
294.2373536581559
 20
-121.9512646780869
 30
0.0
 11
284.2373536581558
 21
-121.9512646780867
 31
0.0
  0
LINE
  5
1BFD
330
1B95
100
AcDbEntity
  8
gaikei
100
AcDbLine
 10
315.9373536581558
 20
-113.451264678087
 30
0.0
 11
315.9373536581558
 21
-99.95126467808711
 31
0.0
  0
LINE
  5
1BFE
330
1B95
100
AcDbEntity
  8
gaikei
100
AcDbLine
 10
315.9373536581559
 20
-175.451264678087
 30
0.0
 11
294.2373536581558
 21
-175.451264678087
 31
0.0
  0
LINE
  5
1BFF
330
1B95
100
AcDbEntity
  8
gaikei
100
AcDbLine
 10
315.9373536581558
 20
-113.451264678087
 30
0.0
 11
294.2373536581559
 21
-113.4512646780869
 31
0.0
  0
LINE
  5
1C00
330
1B95
100
AcDbEntity
  8
gaikei
100
AcDbLine
 10
294.2373536581558
 20
-175.451264678087
 30
0.0
 11
294.2373536581558
 21
-166.951264678087
 31
0.0
  0
LINE
  5
1C01
330
1B95
100
AcDbEntity
  8
gaikei
100
AcDbLine
 10
315.9373536581559
 20
-188.9512646780869
 30
0.0
 11
335.2373536581558
 21
-189.451264678087
 31
0.0
  0
LINE
  5
1C02
330
1B95
100
AcDbEntity
  8
gaikei
100
AcDbLine
 10
315.9373536581558
 20
-99.95126467808711
 30
0.0
 11
335.2373536581559
 21
-99.451264678087
 31
0.0
  0
LINE
  5
1C03
330
1B95
100
AcDbEntity
  8
gaikei
100
AcDbLine
 10
335.2373536581558
 20
-189.451264678087
 30
0.0
 11
335.2373536581559
 21
-111.9512646780869
 31
0.0
  0
LINE
  5
1C04
330
1B95
100
AcDbEntity
  8
gaikei
100
AcDbLine
 10
315.9373536581559
 20
-188.9512646780869
 30
0.0
 11
315.9373536581559
 21
-175.451264678087
 31
0.0
  0
LINE
  5
1C05
330
1B95
100
AcDbEntity
  8
gaikei
100
AcDbLine
 10
197.7897205102314
 20
-189.451264678087
 30
0.0
 11
91.78972051023146
 21
-189.451264678087
 31
0.0
  0
LINE
  5
1C06
102
{ACAD_REACTORS
330
1B9F
330
1B9C
102
}
330
1B95
100
AcDbEntity
  8
gaikei
100
AcDbLine
 10
91.78972051023146
 20
-99.451264678087
 30
0.0
 11
91.78972051023146
 21
-189.451264678087
 31
0.0
  0
LINE
  5
1C07
102
{ACAD_REACTORS
330
1B9F
102
}
330
1B95
100
AcDbEntity
  8
gaikei
100
AcDbLine
 10
197.7897205102314
 20
-99.451264678087
 30
0.0
 11
91.78972051023146
 21
-99.451264678087
 31
0.0
  0
LINE
  5
1C08
330
1B95
100
AcDbEntity
  8
gaikei
100
AcDbLine
 10
197.7897205102314
 20
-189.451264678087
 30
0.0
 11
197.7897205102314
 21
-99.451264678087
 31
0.0
  0
LINE
  5
1C09
330
1B95
100
AcDbEntity
  8
gaikei
100
AcDbLine
 10
139.7897205102314
 20
-194.451264678087
 30
0.0
 11
149.7897205102314
 21
-194.451264678087
 31
0.0
  0
LINE
  5
1C0A
330
1B95
100
AcDbEntity
  8
gaikei
100
AcDbLine
 10
197.7897205102314
 20
-146.951264678087
 30
0.0
 11
197.7897205102314
 21
-146.951264678087
 31
0.0
  0
LINE
  5
1C0B
330
1B95
100
AcDbEntity
  8
gaikei
100
AcDbLine
 10
335.2373536581559
 20
-99.451264678087
 30
0.0
 11
342.2373536581559
 21
-99.451264678087
 31
0.0
  0
LINE
  5
1C0C
330
1B95
100
AcDbEntity
  8
gaikei
100
AcDbLine
 10
284.2373536581558
 20
-166.951264678087
 30
0.0
 11
284.2373536581558
 21
-121.9512646780867
 31
0.0
  0
LINE
  5
1C0D
330
1B95
100
AcDbEntity
  8
gaikei
100
AcDbLine
 10
91.7897205102315
 20
-320.60443667142
 30
0.0
 11
197.7897205102315
 21
-320.60443667142
 31
0.0
  0
LINE
  5
1C0E
330
1B95
100
AcDbEntity
  8
gaikei
100
AcDbLine
 10
91.78972051023155
 20
-262.60443667142
 30
0.0
 11
91.7897205102315
 21
-320.60443667142
 31
0.0
  0
LINE
  5
1C0F
330
1B95
100
AcDbEntity
  8
gaikei
100
AcDbLine
 10
342.2373536581558
 20
-189.451264678087
 30
0.0
 11
342.2373536581559
 21
-163.451264678087
 31
0.0
  0
LINE
  5
1C10
330
1B95
100
AcDbEntity
  8
gaikei
100
AcDbLine
 10
342.2373536581558
 20
-189.451264678087
 30
0.0
 11
342.2373536581558
 21
-189.451264678087
 31
0.0
  0
LINE
  5
1C11
330
1B95
100
AcDbEntity
  8
gaikei
100
AcDbLine
 10
335.2373536581558
 20
-189.4512646780869
 30
0.0
 11
342.2373536581558
 21
-189.451264678087
 31
0.0
  0
ENDBLK
  5
1C13
330
1B95
100
AcDbEntity
  8
0
100
AcDbBlockEnd
  0
BLOCK
  5
1D0F
330
1D0E
100
AcDbEntity
  8
0
100
AcDbBlockBegin
  2
*D11
 70
     1
 10
0.0
 20
0.0
 30
0.0
  3
*D11
  1

  0
LINE
  5
1D10
330
1D0E
100
AcDbEntity
  8
sumpo
370
    -2
100
AcDbLine
 10
103.8049817728069
 20
614.4560630483304
 30
0.0
 11
103.8049817728069
 21
668.4289936410675
 31
0.0
  0
LINE
  5
1D11
330
1D0E
100
AcDbEntity
  8
sumpo
370
    -2
100
AcDbLine
 10
228.804981772807
 20
614.4560630483304
 30
0.0
 11
228.804981772807
 21
668.4289936410675
 31
0.0
  0
LINE
  5
1D12
330
1D0E
100
AcDbEntity
  8
sumpo
370
    -2
100
AcDbLine
 10
111.8049817728069
 20
658.4289936410676
 30
0.0
 11
220.804981772807
 21
658.4289936410676
 31
0.0
  0
INSERT
  5
1D13
330
1D0E
100
AcDbEntity
  8
sumpo
370
    -2
100
AcDbBlockReference
  2
_Open30
 10
103.8049817728069
 20
658.4289936410676
 30
0.0
 41
8.0
 42
8.0
 43
8.0
 50
180.0
  0
INSERT
  5
1D14
330
1D0E
100
AcDbEntity
  8
sumpo
370
    -2
100
AcDbBlockReference
  2
_Open30
 10
228.804981772807
 20
658.4289936410676
 30
0.0
 41
8.0
 42
8.0
 43
8.0
  0
MTEXT
  5
1D15
330
1D0E
100
AcDbEntity
  8
sumpo
 62
     4
100
AcDbMText
 10
166.3049817728069
 20
666.4289936410675
 30
0.0
 40
8.0
 41
0.0
 71
     5
 72
     1
  1
125
 73
     1
 44
1.0
  0
POINT
  5
1D16
330
1D0E
100
AcDbEntity
  8
Defpoints
 62
     0
100
AcDbPoint
 10
103.8049817728069
 20
604.4560630483304
 30
0.0
  0
POINT
  5
1D17
330
1D0E
100
AcDbEntity
  8
Defpoints
 62
     0
100
AcDbPoint
 10
228.804981772807
 20
604.4560630483304
 30
0.0
  0
POINT
  5
1D18
330
1D0E
100
AcDbEntity
  8
Defpoints
 62
     0
100
AcDbPoint
 10
228.804981772807
 20
658.4289936410676
 30
0.0
  0
ENDBLK
  5
1D19
330
1D0E
100
AcDbEntity
  8
0
100
AcDbBlockEnd
  0
BLOCK
  5
1D1B
330
1D1A
100
AcDbEntity
  8
0
100
AcDbBlockBegin
  2
*D12
 70
     1
 10
0.0
 20
0.0
 30
0.0
  3
*D12
  1

  0
LINE
  5
1D1C
330
1D1A
100
AcDbEntity
  8
sumpo
370
    -2
100
AcDbLine
 10
93.80498177280697
 20
604.4560630483304
 30
0.0
 11
31.57816511263312
 21
604.4560630483304
 31
0.0
  0
LINE
  5
1D1D
330
1D1A
100
AcDbEntity
  8
sumpo
370
    -2
100
AcDbLine
 10
93.80498177280697
 20
424.4560630483304
 30
0.0
 11
31.57816511263308
 21
424.4560630483304
 31
0.0
  0
LINE
  5
1D1E
330
1D1A
100
AcDbEntity
  8
sumpo
370
    -2
100
AcDbLine
 10
41.57816511263312
 20
596.4560630483304
 30
0.0
 11
41.57816511263308
 21
432.4560630483303
 31
0.0
  0
INSERT
  5
1D1F
330
1D1A
100
AcDbEntity
  8
sumpo
370
    -2
100
AcDbBlockReference
  2
_Open30
 10
41.57816511263312
 20
604.4560630483304
 30
0.0
 41
8.0
 42
8.0
 43
8.0
 50
90.0
  0
INSERT
  5
1D20
330
1D1A
100
AcDbEntity
  8
sumpo
370
    -2
100
AcDbBlockReference
  2
_Open30
 10
41.57816511263308
 20
424.4560630483304
 30
0.0
 41
8.0
 42
8.0
 43
8.0
 50
270.0
  0
MTEXT
  5
1D21
330
1D1A
100
AcDbEntity
  8
sumpo
 62
     4
100
AcDbMText
 10
33.57816511263302
 20
514.4560630483304
 30
0.0
 40
8.0
 41
0.0
 71
     5
 72
     1
  1
180
 11
0.0000000000000001
 21
1.0
 31
0.0
 73
     1
 44
1.0
  0
POINT
  5
1D22
330
1D1A
100
AcDbEntity
  8
Defpoints
 62
     0
100
AcDbPoint
 10
103.8049817728069
 20
604.4560630483304
 30
0.0
  0
POINT
  5
1D23
330
1D1A
100
AcDbEntity
  8
Defpoints
 62
     0
100
AcDbPoint
 10
103.8049817728069
 20
424.4560630483304
 30
0.0
  0
POINT
  5
1D24
330
1D1A
100
AcDbEntity
  8
Defpoints
 62
     0
100
AcDbPoint
 10
41.57816511263308
 20
424.4560630483304
 30
0.0
  0
ENDBLK
  5
1D25
330
1D1A
100
AcDbEntity
  8
0
100
AcDbBlockEnd
  0
BLOCK
  5
1D27
330
1D26
100
AcDbEntity
  8
0
100
AcDbBlockBegin
  2
*D13
 70
     1
 10
0.0
 20
0.0
 30
0.0
  3
*D13
  1

  0
LINE
  5
1D28
330
1D26
100
AcDbEntity
  8
sumpo
370
    -2
100
AcDbLine
 10
331.067501084679
 20
614.4560630483304
 30
0.0
 11
331.067501084679
 21
668.4289936410675
 31
0.0
  0
LINE
  5
1D29
330
1D26
100
AcDbEntity
  8
sumpo
370
    -2
100
AcDbLine
 10
366.067501084679
 20
609.9560630483304
 30
0.0
 11
366.067501084679
 21
668.4289936410675
 31
0.0
  0
LINE
  5
1D2A
330
1D26
100
AcDbEntity
  8
sumpo
370
    -2
100
AcDbLine
 10
339.067501084679
 20
658.4289936410676
 30
0.0
 11
358.067501084679
 21
658.4289936410676
 31
0.0
  0
INSERT
  5
1D2B
330
1D26
100
AcDbEntity
  8
sumpo
370
    -2
100
AcDbBlockReference
  2
_Open30
 10
331.067501084679
 20
658.4289936410676
 30
0.0
 41
8.0
 42
8.0
 43
8.0
 50
180.0
  0
INSERT
  5
1D2C
330
1D26
100
AcDbEntity
  8
sumpo
370
    -2
100
AcDbBlockReference
  2
_Open30
 10
366.067501084679
 20
658.4289936410676
 30
0.0
 41
8.0
 42
8.0
 43
8.0
  0
MTEXT
  5
1D2D
330
1D26
100
AcDbEntity
  8
sumpo
 62
     4
100
AcDbMText
 10
348.567501084679
 20
666.4289936410675
 30
0.0
 40
8.0
 41
0.0
 71
     5
 72
     1
  1
35
 73
     1
 44
1.0
  0
POINT
  5
1D2E
330
1D26
100
AcDbEntity
  8
Defpoints
 62
     0
100
AcDbPoint
 10
331.067501084679
 20
604.4560630483304
 30
0.0
  0
POINT
  5
1D2F
330
1D26
100
AcDbEntity
  8
Defpoints
 62
     0
100
AcDbPoint
 10
366.067501084679
 20
599.9560630483304
 30
0.0
  0
POINT
  5
1D30
330
1D26
100
AcDbEntity
  8
Defpoints
 62
     0
100
AcDbPoint
 10
366.067501084679
 20
658.4289936410676
 30
0.0
  0
ENDBLK
  5
1D31
330
1D26
100
AcDbEntity
  8
0
100
AcDbBlockEnd
  0
BLOCK
  5
1D77
330
1D32
100
AcDbEntity
  8
0
100
AcDbBlockBegin
  2
A$C56A732E8
 70
     0
 10
0.0
 20
0.0
 30
0.0
  3
A$C56A732E8
  1

  0
CIRCLE
  5
1D33
330
1D32
100
AcDbEntity
  8
gaikei
100
AcDbCircle
 10
177.4856652937565
 20
53.20860334254007
 30
0.0
 40
7.0
  0
CIRCLE
  5
1D34
330
1D32
100
AcDbEntity
  8
gaikei
100
AcDbCircle
 10
122.4856652937565
 20
53.20860334254007
 30
0.0
 40
7.0
  0
CIRCLE
  5
1D35
330
1D32
100
AcDbEntity
  8
gaikei
100
AcDbCircle
 10
177.4856652937565
 20
53.20860334254007
 30
0.0
 40
12.0
  0
CIRCLE
  5
1D36
330
1D32
100
AcDbEntity
  8
gaikei
100
AcDbCircle
 10
122.4856652937565
 20
53.20860334254007
 30
0.0
 40
12.0
  0
CIRCLE
  5
1D37
330
1D32
100
AcDbEntity
  8
gaikei
100
AcDbCircle
 10
174.9856652937565
 20
234.9137245280214
 30
0.0
 40
2.0
  0
CIRCLE
  5
1D38
330
1D32
100
AcDbEntity
  8
gaikei
100
AcDbCircle
 10
174.9856652937564
 20
247.4137245280215
 30
0.0
 40
2.0
  0
LINE
  5
1D39
330
1D32
100
AcDbEntity
  8
gaikei
100
AcDbLine
 10
136.9856652937565
 20
234.4137245280215
 30
0.0
 11
168.4856652937565
 21
234.4137245280215
 31
0.0
  0
LINE
  5
1D3A
330
1D32
100
AcDbEntity
  8
gaikei
100
AcDbLine
 10
136.9856652937564
 20
248.4137245280215
 30
0.0
 11
168.4856652937564
 21
248.4137245280215
 31
0.0
  0
LINE
  5
1D3B
330
1D32
100
AcDbEntity
  8
gaikei
100
AcDbLine
 10
122.4856652937565
 20
234.4137245280215
 30
0.0
 11
132.9856652937564
 21
234.4137245280215
 31
0.0
  0
LINE
  5
1D3C
330
1D32
100
AcDbEntity
  8
gaikei
100
AcDbLine
 10
122.4856652937564
 20
248.4137245280215
 30
0.0
 11
132.9856652937564
 21
248.4137245280215
 31
0.0
  0
LINE
  5
1D3D
330
1D32
100
AcDbEntity
  8
gaikei
100
AcDbLine
 10
168.4856652937564
 20
248.4137245280215
 30
0.0
 11
168.4856652937565
 21
234.4137245280215
 31
0.0
  0
LINE
  5
1D3E
330
1D32
100
AcDbEntity
  8
gaikei
100
AcDbLine
 10
157.9856652937564
 20
248.4137245280215
 30
0.0
 11
157.9856652937565
 21
234.4137245280215
 31
0.0
  0
LINE
  5
1D3F
330
1D32
100
AcDbEntity
  8
gaikei
100
AcDbLine
 10
147.4856652937564
 20
248.4137245280215
 30
0.0
 11
147.4856652937565
 21
234.4137245280215
 31
0.0
  0
LINE
  5
1D40
330
1D32
100
AcDbEntity
  8
gaikei
100
AcDbLine
 10
136.9856652937564
 20
248.4137245280215
 30
0.0
 11
136.9856652937565
 21
234.4137245280215
 31
0.0
  0
LINE
  5
1D41
330
1D32
100
AcDbEntity
  8
gaikei
100
AcDbLine
 10
132.9856652937564
 20
248.4137245280215
 30
0.0
 11
132.9856652937564
 21
234.4137245280215
 31
0.0
  0
CIRCLE
  5
1D42
330
1D32
100
AcDbEntity
  8
gaikei
100
AcDbCircle
 10
128.4856652937564
 20
223.4137245280215
 30
0.0
 40
3.0
  0
CIRCLE
  5
1D43
330
1D32
100
AcDbEntity
  8
gaikei
100
AcDbCircle
 10
153.4856652937565
 20
223.4137245280215
 30
0.0
 40
3.0
  0
LINE
  5
1D44
102
{ACAD_REACTORS
330
1D49
102
}
330
1D32
100
AcDbEntity
  8
gaikei
100
AcDbLine
 10
311.7481846056285
 20
227.9137245280215
 30
0.0
 11
311.7481846056285
 21
218.9137245280214
 31
0.0
  0
LINE
  5
1D45
330
1D32
100
AcDbEntity
  8
gaikei
100
AcDbLine
 10
311.7481846056285
 20
218.9137245280214
 30
0.0
 11
314.7481846056285
 21
218.9137245280215
 31
0.0
  0
LINE
  5
1D46
330
1D32
100
AcDbEntity
  8
gaikei
100
AcDbLine
 10
311.7481846056285
 20
227.9137245280215
 30
0.0
 11
314.7481846056285
 21
227.9137245280215
 31
0.0
  0
DIMENSION
  5
1D47
102
{ACAD_XDICTIONARY
360
1D48
102
}
102
{ACAD_REACTORS
330
1D49
102
}
330
1D32
100
AcDbEntity
  8
sumpo
100
AcDbDimension
  2
*D13
 10
349.7481846056285
 20
369.8866551207586
 30
0.0
 11
332.2481846056285
 21
377.8866551207586
 31
0.0
 12
-16.31931647905048
 22
-288.5423385203089
 32
0.0
 71
     5
 42
35.0
  3
ISO-25
100
AcDbAlignedDimension
 13
314.7481846056285
 23
315.9137245280215
 33
0.0
 14
349.7481846056285
 24
311.4137245280215
 34
0.0
100
AcDbRotatedDimension
  0
DIMENSION
  5
1D4A
102
{ACAD_XDICTIONARY
360
1D4B
102
}
102
{ACAD_REACTORS
330
1D4C
102
}
330
1D32
100
AcDbEntity
  8
sumpo
100
AcDbDimension
  2
*D12
 10
25.2588486335826
 20
135.9137245280215
 30
0.0
 11
17.25884863358253
 21
225.9137245280215
 31
0.0
 12
-16.31931647905048
 22
-288.5423385203089
 32
0.0
 71
     5
 42
180.0
  3
ISO-25
100
AcDbAlignedDimension
 13
87.48566529375649
 23
315.9137245280215
 33
0.0
 14
87.48566529375649
 24
135.9137245280215
 34
0.0
 50
90.0
100
AcDbRotatedDimension
  0
DIMENSION
  5
1D4D
102
{ACAD_XDICTIONARY
360
1D4E
102
}
102
{ACAD_REACTORS
330
1D4F
102
}
330
1D32
100
AcDbEntity
  8
sumpo
100
AcDbDimension
  2
*D11
 10
212.4856652937565
 20
369.8866551207586
 30
0.0
 11
149.9856652937564
 21
377.8866551207586
 31
0.0
 12
-16.31931647905048
 22
-288.5423385203089
 32
0.0
 71
     5
 42
125.0
  3
ISO-25
100
AcDbAlignedDimension
 13
87.48566529375649
 23
315.9137245280215
 33
0.0
 14
212.4856652937565
 24
315.9137245280215
 34
0.0
100
AcDbRotatedDimension
  0
LINE
  5
1D50
330
1D32
100
AcDbEntity
  8
gaikei
100
AcDbLine
 10
122.4856652937564
 20
248.4137245280215
 30
0.0
 11
122.4856652937565
 21
234.4137245280215
 31
0.0
  0
LINE
  5
1D51
102
{ACAD_REACTORS
330
1D4F
330
1D4C
102
}
330
1D32
100
AcDbEntity
  8
gaikei
100
AcDbLine
 10
87.48566529375649
 20
315.9137245280215
 30
0.0
 11
87.48566529375649
 21
135.9137245280215
 31
0.0
  0
LINE
  5
1D52
102
{ACAD_REACTORS
330
1D4F
102
}
330
1D32
100
AcDbEntity
  8
gaikei
100
AcDbLine
 10
212.4856652937565
 20
315.9137245280215
 30
0.0
 11
87.48566529375649
 21
315.9137245280215
 31
0.0
  0
LINE
  5
1D53
330
1D32
100
AcDbEntity
  8
gaikei
100
AcDbLine
 10
212.4856652937565
 20
135.9137245280215
 30
0.0
 11
212.4856652937565
 21
315.9137245280215
 31
0.0
  0
LINE
  5
1D54
330
1D32
100
AcDbEntity
  8
gaikei
100
AcDbLine
 10
87.48566529375649
 20
135.9137245280215
 30
0.0
 11
212.4856652937565
 21
135.9137245280215
 31
0.0
  0
LINE
  5
1D55
330
1D32
100
AcDbEntity
  8
fuzoku
100
AcDbLine
 10
341.2481846056286
 20
140.4137245280215
 30
0.0
 11
344.7481846056285
 21
140.4137245280215
 31
0.0
  0
LINE
  5
1D56
330
1D32
100
AcDbEntity
  8
fuzoku
100
AcDbLine
 10
341.2481846056286
 20
311.4137245280216
 30
0.0
 11
341.2481846056286
 21
140.4137245280215
 31
0.0
  0
LINE
  5
1D57
330
1D32
100
AcDbEntity
  8
fuzoku
100
AcDbLine
 10
344.7481846056285
 20
311.4137245280216
 30
0.0
 11
341.2481846056286
 21
311.4137245280216
 31
0.0
  0
LINE
  5
1D58
330
1D32
100
AcDbEntity
  8
gaikei
100
AcDbLine
 10
344.7481846056285
 20
140.4137245280215
 30
0.0
 11
344.7481846056285
 21
135.9137245280214
 31
0.0
  0
LINE
  5
1D59
330
1D32
100
AcDbEntity
  8
gaikei
100
AcDbLine
 10
344.7481846056285
 20
315.9137245280216
 30
0.0
 11
344.7481846056285
 21
311.4137245280216
 31
0.0
  0
LINE
  5
1D5A
330
1D32
100
AcDbEntity
  8
gaikei
100
AcDbLine
 10
344.7481846056285
 20
140.4137245280215
 30
0.0
 11
349.7481846056285
 21
140.4137245280214
 31
0.0
  0
LINE
  5
1D5B
102
{ACAD_REACTORS
330
1D49
102
}
330
1D32
100
AcDbEntity
  8
gaikei
100
AcDbLine
 10
344.7481846056285
 20
311.4137245280216
 30
0.0
 11
349.7481846056285
 21
311.4137245280215
 31
0.0
  0
LINE
  5
1D5C
330
1D32
100
AcDbEntity
  8
gaikei
100
AcDbLine
 10
189.4856652937565
 20
53.20860334254007
 30
0.0
 11
212.4856652937565
 21
53.20860334254007
 31
0.0
  0
LINE
  5
1D5D
330
1D32
100
AcDbEntity
  8
gaikei
100
AcDbLine
 10
134.4856652937565
 20
53.20860334254007
 30
0.0
 11
165.4856652937565
 21
53.20860334254007
 31
0.0
  0
ARC
  5
1D5E
330
1D32
100
AcDbEntity
  8
gaikei
100
AcDbCircle
 10
103.4856652937565
 20
53.20860334254007
 30
0.0
 40
13.5
100
AcDbArc
 50
112.1916065662727
 51
247.8083934337273
  0
ARC
  5
1D5F
330
1D32
100
AcDbEntity
  8
gaikei
100
AcDbCircle
 10
196.4856652937564
 20
53.20860334254007
 30
0.0
 40
13.5
100
AcDbArc
 50
292.1916065662728
 51
67.80839343372725
  0
LINE
  5
1D60
330
1D32
100
AcDbEntity
  8
gaikei
100
AcDbLine
 10
98.38664578016375
 20
40.70860334254007
 30
0.0
 11
201.5846848073493
 21
40.70860334254007
 31
0.0
  0
LINE
  5
1D61
330
1D32
100
AcDbEntity
  8
gaikei
100
AcDbLine
 10
98.38664578016375
 20
65.70860334254007
 30
0.0
 11
201.5846848073493
 21
65.70860334254007
 31
0.0
  0
LINE
  5
1D62
330
1D32
100
AcDbEntity
  8
gaikei
100
AcDbLine
 10
93.4856652937565
 20
40.71860734574329
 30
0.0
 11
93.4856652937565
 21
33.20860334254007
 31
0.0
  0
LINE
  5
1D63
330
1D32
100
AcDbEntity
  8
gaikei
100
AcDbLine
 10
206.4856652937565
 20
40.71860734574329
 30
0.0
 11
206.4856652937565
 21
33.20860334254007
 31
0.0
  0
ARC
  5
1D64
330
1D32
100
AcDbEntity
  8
gaikei
100
AcDbCircle
 10
103.4856652937565
 20
53.20860334254007
 30
0.0
 40
16.0
100
AcDbArc
 50
110.3641348063178
 51
249.6358651936822
  0
ARC
  5
1D65
330
1D32
100
AcDbEntity
  8
gaikei
100
AcDbCircle
 10
196.4856652937564
 20
53.20860334254007
 30
0.0
 40
16.0
100
AcDbArc
 50
290.3641348063177
 51
69.6358651936822
  0
LINE
  5
1D66
330
1D32
100
AcDbEntity
  8
gaikei
100
AcDbLine
 10
87.48566529375649
 20
53.20860334254007
 30
0.0
 11
110.4856652937565
 21
53.20860334254007
 31
0.0
  0
LINE
  5
1D67
330
1D32
100
AcDbEntity
  8
gaikei
100
AcDbLine
 10
97.9179009309265
 20
38.20860334254007
 30
0.0
 11
202.0534296565865
 21
38.20860334254007
 31
0.0
  0
LINE
  5
1D68
330
1D32
100
AcDbEntity
  8
gaikei
100
AcDbLine
 10
314.7481846056285
 20
135.9137245280215
 30
0.0
 11
344.7481846056285
 21
135.9137245280214
 31
0.0
  0
LINE
  5
1D69
330
1D32
100
AcDbEntity
  8
gaikei
100
AcDbLine
 10
97.9179009309265
 20
68.20860334254007
 30
0.0
 11
202.0534296565865
 21
68.20860334254001
 31
0.0
  0
LINE
  5
1D6A
102
{ACAD_REACTORS
330
1D49
102
}
330
1D32
100
AcDbEntity
  8
gaikei
100
AcDbLine
 10
314.7481846056285
 20
315.9137245280215
 30
0.0
 11
314.7481846056285
 21
135.9137245280215
 31
0.0
  0
LINE
  5
1D6B
330
1D32
100
AcDbEntity
  8
gaikei
100
AcDbLine
 10
93.4856652937565
 20
33.20860334254007
 30
0.0
 11
206.4856652937565
 21
33.20860334254007
 31
0.0
  0
LINE
  5
1D6C
330
1D32
100
AcDbEntity
  8
gaikei
100
AcDbLine
 10
349.7481846056285
 20
311.4137245280215
 30
0.0
 11
349.7481846056285
 21
140.4137245280214
 31
0.0
  0
LINE
  5
1D6D
330
1D32
100
AcDbEntity
  8
gaikei
100
AcDbLine
 10
314.7481846056285
 20
315.9137245280215
 30
0.0
 11
344.7481846056285
 21
315.9137245280216
 31
0.0
  0
TEXT
  5
1D6E
330
1D32
100
AcDbEntity
  8
zubanmoji
100
AcDbText
 10
117.4270809483869
 20
208.7515563979803
 30
0.0
 40
2.0
  1
TATSUTA ELECTRIC WIRE & CABLE CO., LTD. 
 72
     1
 11
149.6746999960059
 21
209.7515563979803
 31
0.0
100
AcDbText
 73
     2
  0
LINE
  5
1D6F
330
1D32
100
AcDbEntity
  8
fuzoku
100
AcDbLine
 10
132.1158153032793
 20
254.3125994068166
 30
0.0
 11
170.1355797189412
 21
254.3125994068166
 31
0.0
  0
LINE
  5
1D70
330
1D32
100
AcDbEntity
  8
fuzoku
100
AcDbLine
 10
122.8878064929814
 20
259.9073777490382
 30
0.0
 11
165.29209566388
 21
259.9073777490382
 31
0.0
  0
TEXT
  5
1D71
330
1D32
100
AcDbEntity
  8
fuzoku
100
AcDbText
 10
115.1431291253949
 20
255.0210590977717
 30
0.0
 40
3.0
  1
　　　　　AD-AS-1CLM-A
100
AcDbText
  0
TEXT
  5
1D72
330
1D32
100
AcDbEntity
  8
fuzoku
100
AcDbText
 10
123.7383850662933
 20
260.6158374399933
 30
0.0
 40
5.0
  1
漏水位置検知器
100
AcDbText
  0
TEXT
  5
1D73
330
1D32
100
AcDbEntity
  8
fuzoku
100
AcDbText
 10
158.9614798471748
 20
222.1996836680994
 30
0.0
 40
2.5
  1
警報解除
 72
     4
 11
164.6281465138415
 21
223.4496836680994
 31
0.0
100
AcDbText
  0
TEXT
  5
1D74
330
1D32
100
AcDbEntity
  8
fuzoku
100
AcDbText
 10
133.5762432543761
 20
222.1215172365508
 30
0.0
 40
2.5
  1
ブザー停止
 72
     4
 11
140.9095765877094
 21
223.3715172365507
 31
0.0
100
AcDbText
  0
TEXT
  5
1D75
330
1D32
100
AcDbEntity
  8
fuzoku
100
AcDbText
 10
178.8955278906728
 20
233.8353211449787
 30
0.0
 40
2.5
  1
警報
 72
     4
 11
181.5621945573394
 21
235.0853211449787
 31
0.0
100
AcDbText
  0
TEXT
  5
1D76
330
1D32
100
AcDbEntity
  8
fuzoku
100
AcDbText
 10
178.7519997962099
 20
246.6028927430536
 30
0.0
 40
2.5
  1
電源
 72
     4
 11
181.4186664628765
 21
247.8528927430537
 31
0.0
100
AcDbText
  0
ENDBLK
  5
1D78
330
1D32
100
AcDbEntity
  8
0
100
AcDbBlockEnd
  0
BLOCK
  5
1DC8
330
1DBE
100
AcDbEntity
  8
0
100
AcDbBlockBegin
  2
*D15
 70
     1
 10
0.0
 20
0.0
 30
0.0
  3
*D15
  1

  0
LINE
  5
1E47
330
1DBE
100
AcDbEntity
  8
sumpo
 62
     4
370
    -2
100
AcDbLine
 10
174.4667474456716
 20
161.4435168387377
 30
0.0
 11
174.4667474456716
 21
185.4299821351063
 31
0.0
  0
LINE
  5
1E48
330
1DBE
100
AcDbEntity
  8
sumpo
 62
     4
370
    -2
100
AcDbLine
 10
191.9667474456716
 20
159.1935168387377
 30
0.0
 11
191.9667474456716
 21
185.4299821351063
 31
0.0
  0
LINE
  5
1E49
330
1DBE
100
AcDbEntity
  8
sumpo
 62
     4
370
    -2
100
AcDbLine
 10
177.4667474456716
 20
183.4299821351063
 30
0.0
 11
188.9667474456716
 21
183.4299821351063
 31
0.0
  0
INSERT
  5
1E4A
330
1DBE
100
AcDbEntity
  8
sumpo
 62
     4
370
    -2
100
AcDbBlockReference
  2
_Open30
 10
174.4667474456716
 20
183.4299821351063
 30
0.0
 41
3.0
 42
3.0
 43
3.0
 50
180.0
  0
INSERT
  5
1E4B
330
1DBE
100
AcDbEntity
  8
sumpo
 62
     4
370
    -2
100
AcDbBlockReference
  2
_Open30
 10
191.9667474456716
 20
183.4299821351063
 30
0.0
 41
3.0
 42
3.0
 43
3.0
  0
MTEXT
  5
1E4C
330
1DBE
100
AcDbEntity
  8
sumpo
 62
     4
100
AcDbMText
 10
183.2167474456716
 20
185.9299821351063
 30
0.0
 40
3.0
 41
0.0
 71
     5
 72
     1
  1
35
 73
     1
 44
1.0
  0
POINT
  5
1E4D
330
1DBE
100
AcDbEntity
  8
Defpoints
 62
     0
100
AcDbPoint
 10
174.4667474456716
 20
156.4435168387377
 30
0.0
  0
POINT
  5
1E4E
330
1DBE
100
AcDbEntity
  8
Defpoints
 62
     0
100
AcDbPoint
 10
191.9667474456716
 20
154.1935168387377
 30
0.0
  0
POINT
  5
1E4F
330
1DBE
100
AcDbEntity
  8
Defpoints
 62
     0
100
AcDbPoint
 10
191.9667474456716
 20
183.4299821351063
 30
0.0
  0
ENDBLK
  5
1DC9
330
1DBE
100
AcDbEntity
  8
0
100
AcDbBlockEnd
  0
BLOCK
  5
1DD4
330
1DCA
100
AcDbEntity
  8
0
100
AcDbBlockBegin
  2
*D16
 70
     1
 10
0.0
 20
0.0
 30
0.0
  3
*D16
  1

  0
LINE
  5
1E3E
330
1DCA
100
AcDbEntity
  8
sumpo
 62
     4
370
    -2
100
AcDbLine
 10
55.83548778973562
 20
156.4435168387377
 30
0.0
 11
27.72207945964871
 21
156.4435168387377
 31
0.0
  0
LINE
  5
1E3F
330
1DCA
100
AcDbEntity
  8
sumpo
 62
     4
370
    -2
100
AcDbLine
 10
55.83548778973562
 20
66.44351683873771
 30
0.0
 11
27.72207945964868
 21
66.44351683873772
 31
0.0
  0
LINE
  5
1E40
330
1DCA
100
AcDbEntity
  8
sumpo
 62
     4
370
    -2
100
AcDbLine
 10
29.7220794596487
 20
153.4435168387377
 30
0.0
 11
29.72207945964868
 21
69.44351683873772
 31
0.0
  0
INSERT
  5
1E41
330
1DCA
100
AcDbEntity
  8
sumpo
 62
     4
370
    -2
100
AcDbBlockReference
  2
_Open30
 10
29.7220794596487
 20
156.4435168387377
 30
0.0
 41
3.0
 42
3.0
 43
3.0
 50
90.0
  0
INSERT
  5
1E42
330
1DCA
100
AcDbEntity
  8
sumpo
 62
     4
370
    -2
100
AcDbBlockReference
  2
_Open30
 10
29.72207945964868
 20
66.44351683873772
 30
0.0
 41
3.0
 42
3.0
 43
3.0
 50
270.0
  0
MTEXT
  5
1E43
330
1DCA
100
AcDbEntity
  8
sumpo
 62
     4
100
AcDbMText
 10
27.22207945964868
 20
111.4435168387377
 30
0.0
 40
3.0
 41
0.0
 71
     5
 72
     1
  1
180
 11
0.0000000000000001
 21
1.0
 31
0.0
 73
     1
 44
1.0
  0
POINT
  5
1E44
330
1DCA
100
AcDbEntity
  8
Defpoints
 62
     0
100
AcDbPoint
 10
60.83548778973562
 20
156.4435168387377
 30
0.0
  0
POINT
  5
1E45
330
1DCA
100
AcDbEntity
  8
Defpoints
 62
     0
100
AcDbPoint
 10
60.83548778973562
 20
66.44351683873771
 30
0.0
  0
POINT
  5
1E46
330
1DCA
100
AcDbEntity
  8
Defpoints
 62
     0
100
AcDbPoint
 10
29.72207945964868
 20
66.44351683873772
 30
0.0
  0
ENDBLK
  5
1DD5
330
1DCA
100
AcDbEntity
  8
0
100
AcDbBlockEnd
  0
BLOCK
  5
1DE0
330
1DD6
100
AcDbEntity
  8
0
100
AcDbBlockBegin
  2
*D17
 70
     1
 10
0.0
 20
0.0
 30
0.0
  3
*D17
  1

  0
LINE
  5
1E35
330
1DD6
100
AcDbEntity
  8
sumpo
 62
     4
370
    -2
100
AcDbLine
 10
60.83548778973562
 20
161.4435168387377
 30
0.0
 11
60.83548778973562
 21
185.4299821351063
 31
0.0
  0
LINE
  5
1E36
330
1DD6
100
AcDbEntity
  8
sumpo
 62
     4
370
    -2
100
AcDbLine
 10
123.3354877897356
 20
161.4435168387377
 30
0.0
 11
123.3354877897356
 21
185.4299821351063
 31
0.0
  0
LINE
  5
1E37
330
1DD6
100
AcDbEntity
  8
sumpo
 62
     4
370
    -2
100
AcDbLine
 10
63.83548778973562
 20
183.4299821351063
 30
0.0
 11
120.3354877897356
 21
183.4299821351063
 31
0.0
  0
INSERT
  5
1E38
330
1DD6
100
AcDbEntity
  8
sumpo
 62
     4
370
    -2
100
AcDbBlockReference
  2
_Open30
 10
60.83548778973562
 20
183.4299821351063
 30
0.0
 41
3.0
 42
3.0
 43
3.0
 50
180.0
  0
INSERT
  5
1E39
330
1DD6
100
AcDbEntity
  8
sumpo
 62
     4
370
    -2
100
AcDbBlockReference
  2
_Open30
 10
123.3354877897356
 20
183.4299821351063
 30
0.0
 41
3.0
 42
3.0
 43
3.0
  0
MTEXT
  5
1E3A
330
1DD6
100
AcDbEntity
  8
sumpo
 62
     4
100
AcDbMText
 10
92.08548778973563
 20
185.9299821351063
 30
0.0
 40
3.0
 41
0.0
 71
     5
 72
     1
  1
125
 73
     1
 44
1.0
  0
POINT
  5
1E3B
330
1DD6
100
AcDbEntity
  8
Defpoints
 62
     0
100
AcDbPoint
 10
60.83548778973562
 20
156.4435168387377
 30
0.0
  0
POINT
  5
1E3C
330
1DD6
100
AcDbEntity
  8
Defpoints
 62
     0
100
AcDbPoint
 10
123.3354877897356
 20
156.4435168387377
 30
0.0
  0
POINT
  5
1E3D
330
1DD6
100
AcDbEntity
  8
Defpoints
 62
     0
100
AcDbPoint
 10
123.3354877897356
 20
183.4299821351063
 30
0.0
  0
ENDBLK
  5
1DE1
330
1DD6
100
AcDbEntity
  8
0
100
AcDbBlockEnd
  0
ENDSEC
  0
SECTION
  2
ENTITIES
  0
LINE
  5
B2B
330
21
100
AcDbEntity
  8
zubanwaku
100
AcDbLine
 10
241.691677128843
 20
17.17263488768844
 30
0.0
 11
241.6916771288431
 21
-18.82736511231155
 31
0.0
  0
LINE
  5
B2E
330
21
100
AcDbEntity
  8
zubanwaku
100
AcDbLine
 10
241.691677128843
 20
17.17263488768844
 30
0.0
 11
366.1916771288431
 21
17.17263488768845
 31
0.0
  0
LINE
  5
B33
330
21
100
AcDbEntity
  8
zubanwaku
100
AcDbLine
 10
241.691677128843
 20
8.172634887688445
 30
0.0
 11
366.1916771288431
 21
8.172634887688452
 31
0.0
  0
LINE
  5
B34
330
21
100
AcDbEntity
  8
zubanwaku
100
AcDbLine
 10
241.691677128843
 20
-0.8273651123115541
 30
0.0
 11
366.1916771288431
 21
-0.827365112311547
 31
0.0
  0
LINE
  5
B35
330
21
100
AcDbEntity
  8
zubanwaku
100
AcDbLine
 10
241.691677128843
 20
-9.827365112311554
 30
0.0
 11
366.1916771288431
 21
-9.827365112311554
 31
0.0
  0
LINE
  5
B36
330
21
100
AcDbEntity
  8
zubanwaku
100
AcDbLine
 10
241.691677128843
 20
-18.82736511231155
 30
0.0
 11
366.1916771288431
 21
-18.82736511231155
 31
0.0
  0
LINE
  5
B3D
330
21
100
AcDbEntity
  8
zubanwaku
100
AcDbLine
 10
259.691677128843
 20
17.17263488768844
 30
0.0
 11
259.6916771288431
 21
-9.827365112311554
 31
0.0
  0
LINE
  5
B3E
330
21
100
AcDbEntity
  8
zubanwaku
100
AcDbLine
 10
328.6916771288431
 20
17.17263488768844
 30
0.0
 11
328.6916771288431
 21
-0.827365112311547
 31
0.0
  0
LINE
  5
B3F
330
21
100
AcDbEntity
  8
zubanwaku
100
AcDbLine
 10
346.6916771288431
 20
17.17263488768844
 30
0.0
 11
346.6916771288431
 21
-0.827365112311547
 31
0.0
  0
LINE
  5
B40
330
21
100
AcDbEntity
  8
zubanwaku
100
AcDbLine
 10
366.1916771288431
 20
17.17263488768844
 30
0.0
 11
366.1916771288431
 21
-18.82736511231155
 31
0.0
  0
TEXT
  5
B45
330
21
100
AcDbEntity
  8
zubanmoji
100
AcDbText
 10
245.891677128843
 20
10.42263488768844
 30
0.0
 40
4.5
  1
名称
 72
     1
 11
250.691677128843
 21
12.67263488768844
 31
0.0
100
AcDbText
 73
     2
  0
TEXT
  5
B47
330
21
100
AcDbEntity
  8
zubanmoji
100
AcDbText
 10
263.741677128843
 20
10.42263488768844
 30
0.0
 40
4.5
  1
漏水検知器　外形寸法図
 72
     1
 11
292.691677128843
 21
12.67263488768844
 31
0.0
100
AcDbText
 73
     2
  0
TEXT
  5
B48
330
21
100
AcDbEntity
  8
zubanmoji
100
AcDbText
 10
332.8916771288431
 20
10.42263488768844
 30
0.0
 40
4.5
  1
尺度
 72
     1
 11
337.6916771288431
 21
12.67263488768844
 31
0.0
100
AcDbText
 73
     2
  0
TEXT
  5
B4B
330
21
100
AcDbEntity
  8
zubanmoji
100
AcDbText
 10
245.891677128843
 20
1.422634887688445
 30
0.0
 40
4.5
  1
型式
 72
     1
 11
250.691677128843
 21
3.672634887688445
 31
0.0
100
AcDbText
 73
     2
  0
TEXT
  5
B4C
330
21
100
AcDbEntity
  8
zubanmoji
100
AcDbText
 10
267.6202485574145
 20
1.422634887688445
 30
0.0
 40
4.5
  1
AD-AS-1LM-A
 72
     1
 11
292.691677128843
 21
3.672634887688445
 31
0.0
100
AcDbText
 73
     2
  0
TEXT
  5
B4D
330
21
100
AcDbEntity
  8
zubanmoji
100
AcDbText
 10
332.8916771288431
 20
1.422634887688445
 30
0.0
 40
4.5
  1
単位
 72
     1
 11
337.6916771288431
 21
3.672634887688445
 31
0.0
100
AcDbText
 73
     2
  0
TEXT
  5
B4E
330
21
100
AcDbEntity
  8
zubanmoji
100
AcDbText
 10
349.2631057002717
 20
1.422634887688445
 30
0.0
 40
4.5
  1
mm
 72
     1
 11
355.6916771288431
 21
3.672634887688445
 31
0.0
100
AcDbText
 73
     2
  0
TEXT
  5
B4F
330
21
100
AcDbEntity
  8
zubanmoji
100
AcDbText
 10
245.7416771288431
 20
-7.577365112311554
 30
0.0
 40
4.5
  1
図番
 72
     1
 11
250.691677128843
 21
-5.327365112311554
 31
0.0
100
AcDbText
 73
     2
  0
TEXT
  5
B50
330
21
100
AcDbEntity
  8
zubanmoji
100
AcDbText
 10
265.4077697922783
 20
-7.577365112311554
 30
0.0
 40
4.5
  1
TTS-KS-W3280-0
 72
     1
 11
296.8006269351354
 21
-5.327365112311554
 31
0.0
100
AcDbText
 73
     2
  0
TEXT
  5
B51
330
21
100
AcDbEntity
  8
zubanmoji
100
AcDbText
 10
257.6175006067728
 20
-15.84570805426224
 30
0.0
 40
3.0
  1
TATSUTA ELECTRIC WIRE & CABLE CO., LTD. 
 72
     1
 11
305.9889291782014
 21
-14.34570805426224
 31
0.0
100
AcDbText
 73
     2
  0
TEXT
  5
125F
330
21
100
AcDbEntity
  8
moji
100
AcDbText
 10
1414.276227074711
 20
343.7095352342497
 30
0.0
 40
9.0
  1

 11
1414.276227074711
 21
348.2095352342497
 31
0.0
100
AcDbText
 73
     2
  0
LINE
  5
1646
330
21
100
AcDbEntity
  8
shiyouwaku
100
AcDbLine
 10
355.652564416875
 20
169.6783370392937
 30
0.0
 11
355.652564416875
 21
49.67833703929375
 31
0.0
  0
TEXT
  5
1647
330
21
100
AcDbEntity
  8
moji
100
AcDbText
 10
248.652564416875
 20
50.67833703929376
 30
0.0
 40
3.0
  1
材質・色　：　ABS樹脂・グレー
 11
248.652564416875
 21
52.17833703929375
 31
0.0
100
AcDbText
 73
     2
  0
TEXT
  5
1648
330
21
100
AcDbEntity
  8
moji
100
AcDbText
 10
248.652564416875
 20
55.67833703929376
 30
0.0
 40
3.0
  1
重量　：　約300g
 11
248.652564416875
 21
57.17833703929375
 31
0.0
100
AcDbText
 73
     2
  0
TEXT
  5
1649
330
21
100
AcDbEntity
  8
moji
100
AcDbText
 10
248.652564416875
 20
60.67833703929375
 30
0.0
 40
3.0
  1
外形寸法　：　（W）125×（H）180×（D）35
 11
248.652564416875
 21
62.17833703929375
 31
0.0
100
AcDbText
 73
     2
  0
TEXT
  5
164B
330
21
100
AcDbEntity
  8
moji
100
AcDbText
 10
248.652564416875
 20
70.67833703929375
 30
0.0
 40
3.0
  1
漏水位置表示機能　：　有
 11
248.652564416875
 21
72.17833703929375
 31
0.0
100
AcDbText
 73
     2
  0
TEXT
  5
164C
330
21
100
AcDbEntity
  8
moji
100
AcDbText
 10
248.652564416875
 20
115.6783370392937
 30
0.0
 40
3.0
  1
　　　　　　　　　断線接点　1a×1点
 11
248.652564416875
 21
117.1783370392937
 31
0.0
100
AcDbText
 73
     2
  0
TEXT
  5
164D
330
21
100
AcDbEntity
  8
moji
100
AcDbText
 10
248.652564416875
 20
75.67833703929375
 30
0.0
 40
3.0
  1
ブザー設定機能　：　有（スイッチで有無設定可能）
 11
248.652564416875
 21
77.17833703929375
 31
0.0
100
AcDbText
 73
     2
  0
TEXT
  5
164E
330
21
100
AcDbEntity
  8
moji
100
AcDbText
 10
248.652564416875
 20
80.67833703929375
 30
0.0
 40
3.0
  1
フェールセーフ機能　：　有（スイッチで有無設定可能）
 11
248.652564416875
 21
82.17833703929375
 31
0.0
100
AcDbText
 73
     2
  0
TEXT
  5
164F
330
21
100
AcDbEntity
  8
moji
100
AcDbText
 10
248.652564416875
 20
85.67833703929375
 30
0.0
 40
3.0
  1
警報保持機能　：　有（スイッチで有無設定可能）
 11
248.652564416875
 21
87.17833703929375
 31
0.0
100
AcDbText
 73
     2
  0
TEXT
  5
1650
330
21
100
AcDbEntity
  8
moji
100
AcDbText
 10
248.652564416875
 20
90.67833703929375
 30
0.0
 40
3.0
  1
断線検知機能　：　有
 11
248.652564416875
 21
92.17833703929375
 31
0.0
100
AcDbText
 73
     2
  0
TEXT
  5
1651
330
21
100
AcDbEntity
  8
moji
100
AcDbText
 10
248.652564416875
 20
95.67833703929375
 30
0.0
 40
3.0
  1
感度調整　：　有（10、25、50、100kΩ設定可能）
 11
248.652564416875
 21
97.17833703929375
 31
0.0
100
AcDbText
 73
     2
  0
TEXT
  5
1652
330
21
100
AcDbEntity
  8
moji
100
AcDbText
 10
248.652564416875
 20
105.6783370392937
 30
0.0
 40
3.0
  1
（抵抗負荷）　　　　　DC　30V 2.0A
 11
248.652564416875
 21
107.1783370392937
 31
0.0
100
AcDbText
 73
     2
  0
TEXT
  5
1653
330
21
100
AcDbEntity
  8
moji
100
AcDbText
 10
248.652564416875
 20
110.6783370392937
 30
0.0
 40
3.0
  1
制御出力接点負荷　：　AC125V 0.4A
 11
248.652564416875
 21
112.1783370392937
 31
0.0
100
AcDbText
 73
     2
  0
TEXT
  5
1654
330
21
100
AcDbEntity
  8
moji
100
AcDbText
 10
248.652564416875
 20
120.6783370392937
 30
0.0
 40
3.0
  1
制御接点構成　：　漏水接点　1a×1点
 11
248.652564416875
 21
122.1783370392937
 31
0.0
100
AcDbText
 73
     2
  0
TEXT
  5
1655
330
21
100
AcDbEntity
  8
moji
100
AcDbText
 10
248.652564416875
 20
125.6783370392937
 30
0.0
 40
3.0
  1
断線警報　：　赤色LEDランプ点灯・ブザー嗚動
 11
248.652564416875
 21
127.1783370392937
 31
0.0
100
AcDbText
 73
     2
  0
TEXT
  5
1656
330
21
100
AcDbEntity
  8
moji
100
AcDbText
 10
248.652564416875
 20
130.6783370392937
 30
0.0
 40
3.0
  1
漏水警報　：　赤色LEDランプ点滅・ブザー嗚動
 11
248.652564416875
 21
132.1783370392937
 31
0.0
100
AcDbText
 73
     2
  0
TEXT
  5
1657
330
21
100
AcDbEntity
  8
moji
100
AcDbText
 10
248.652564416875
 20
135.6783370392937
 30
0.0
 40
3.0
  1
センサ短絡電流　：　0.3mA以下
 11
248.652564416875
 21
137.1783370392937
 31
0.0
100
AcDbText
 73
     2
  0
TEXT
  5
1658
330
21
100
AcDbEntity
  8
moji
100
AcDbText
 10
248.652564416875
 20
140.6783370392937
 30
0.0
 40
3.0
  1
センサ印加電圧　：　AC5.5V（最大値）
 11
248.652564416875
 21
142.1783370392937
 31
0.0
100
AcDbText
 73
     2
  0
TEXT
  5
1659
330
21
100
AcDbEntity
  8
moji
100
AcDbText
 10
248.652564416875
 20
145.6783370392937
 30
0.0
 40
3.0
  1
周波数　：　50/60Hz
 11
248.652564416875
 21
147.1783370392937
 31
0.0
100
AcDbText
 73
     2
  0
TEXT
  5
165A
330
21
100
AcDbEntity
  8
moji
100
AcDbText
 10
248.652564416875
 20
150.6783370392937
 30
0.0
 40
3.0
  1
電源電圧　：　AC100～240V
 11
248.652564416875
 21
152.1783370392937
 31
0.0
100
AcDbText
 73
     2
  0
TEXT
  5
165B
330
21
100
AcDbEntity
  8
moji
100
AcDbText
 10
248.652564416875
 20
155.6783370392937
 30
0.0
 40
3.0
  1
センサ回路数　：　1
 11
248.652564416875
 21
157.1783370392937
 31
0.0
100
AcDbText
 73
     2
  0
TEXT
  5
165C
330
21
100
AcDbEntity
  8
moji
100
AcDbText
 10
248.652564416875
 20
160.6783370392937
 30
0.0
 40
3.0
  1
型番　：　AD-AS-1LM-A
 11
248.652564416875
 21
162.1783370392937
 31
0.0
100
AcDbText
 73
     2
  0
LINE
  5
165D
330
21
100
AcDbEntity
  8
zubanwaku
100
AcDbLine
 10
245.6525644168749
 20
49.67833703929375
 30
0.0
 11
355.652564416875
 21
49.67833703929375
 31
0.0
  0
LINE
  5
165E
330
21
100
AcDbEntity
  8
zubanwaku
100
AcDbLine
 10
245.6525644168749
 20
104.6783370392937
 30
0.0
 11
355.652564416875
 21
104.6783370392937
 31
0.0
  0
LINE
  5
165F
330
21
100
AcDbEntity
  8
zubanwaku
100
AcDbLine
 10
245.6525644168749
 20
94.67833703929375
 30
0.0
 11
355.652564416875
 21
94.67833703929375
 31
0.0
  0
LINE
  5
1660
330
21
100
AcDbEntity
  8
zubanwaku
100
AcDbLine
 10
245.6525644168749
 20
89.67833703929375
 30
0.0
 11
355.652564416875
 21
89.67833703929375
 31
0.0
  0
LINE
  5
1661
330
21
100
AcDbEntity
  8
zubanwaku
100
AcDbLine
 10
245.6525644168749
 20
84.67833703929375
 30
0.0
 11
355.652564416875
 21
84.67833703929375
 31
0.0
  0
LINE
  5
1662
330
21
100
AcDbEntity
  8
zubanwaku
100
AcDbLine
 10
245.6525644168749
 20
79.67833703929375
 30
0.0
 11
355.652564416875
 21
79.67833703929375
 31
0.0
  0
LINE
  5
1663
330
21
100
AcDbEntity
  8
zubanwaku
100
AcDbLine
 10
245.6525644168749
 20
74.67833703929375
 30
0.0
 11
355.652564416875
 21
74.67833703929375
 31
0.0
  0
LINE
  5
1664
330
21
100
AcDbEntity
  8
zubanwaku
100
AcDbLine
 10
245.6525644168749
 20
69.67833703929375
 30
0.0
 11
355.652564416875
 21
69.67833703929375
 31
0.0
  0
LINE
  5
1665
330
21
100
AcDbEntity
  8
zubanwaku
100
AcDbLine
 10
245.6525644168749
 20
64.67833703929375
 30
0.0
 11
355.652564416875
 21
64.67833703929375
 31
0.0
  0
LINE
  5
1666
330
21
100
AcDbEntity
  8
zubanwaku
100
AcDbLine
 10
245.6525644168749
 20
59.67833703929375
 30
0.0
 11
355.652564416875
 21
59.67833703929375
 31
0.0
  0
LINE
  5
1667
330
21
100
AcDbEntity
  8
zubanwaku
100
AcDbLine
 10
245.6525644168749
 20
54.67833703929375
 30
0.0
 11
355.652564416875
 21
54.67833703929375
 31
0.0
  0
LINE
  5
1668
330
21
100
AcDbEntity
  8
zubanwaku
100
AcDbLine
 10
245.6525644168749
 20
114.6783370392937
 30
0.0
 11
355.652564416875
 21
114.6783370392937
 31
0.0
  0
LINE
  5
1669
330
21
100
AcDbEntity
  8
zubanwaku
100
AcDbLine
 10
245.6525644168749
 20
124.6783370392937
 30
0.0
 11
355.652564416875
 21
124.6783370392937
 31
0.0
  0
LINE
  5
166A
330
21
100
AcDbEntity
  8
zubanwaku
100
AcDbLine
 10
245.6525644168749
 20
129.6783370392937
 30
0.0
 11
355.652564416875
 21
129.6783370392937
 31
0.0
  0
LINE
  5
166B
330
21
100
AcDbEntity
  8
zubanwaku
100
AcDbLine
 10
245.6525644168749
 20
134.6783370392937
 30
0.0
 11
355.652564416875
 21
134.6783370392937
 31
0.0
  0
LINE
  5
166C
330
21
100
AcDbEntity
  8
zubanwaku
100
AcDbLine
 10
245.6525644168749
 20
139.6783370392937
 30
0.0
 11
355.652564416875
 21
139.6783370392937
 31
0.0
  0
LINE
  5
166D
330
21
100
AcDbEntity
  8
zubanwaku
100
AcDbLine
 10
245.6525644168749
 20
144.6783370392937
 30
0.0
 11
355.652564416875
 21
144.6783370392937
 31
0.0
  0
LINE
  5
166E
330
21
100
AcDbEntity
  8
zubanwaku
100
AcDbLine
 10
245.6525644168749
 20
149.6783370392937
 30
0.0
 11
355.652564416875
 21
149.6783370392937
 31
0.0
  0
LINE
  5
166F
330
21
100
AcDbEntity
  8
zubanwaku
100
AcDbLine
 10
245.6525644168749
 20
154.6783370392937
 30
0.0
 11
355.652564416875
 21
154.6783370392937
 31
0.0
  0
LINE
  5
1670
330
21
100
AcDbEntity
  8
zubanwaku
100
AcDbLine
 10
245.6525644168749
 20
159.6783370392937
 30
0.0
 11
355.652564416875
 21
159.6783370392937
 31
0.0
  0
LINE
  5
1671
330
21
100
AcDbEntity
  8
zubanwaku
100
AcDbLine
 10
245.6525644168749
 20
164.6783370392937
 30
0.0
 11
355.652564416875
 21
164.6783370392937
 31
0.0
  0
LINE
  5
1672
330
21
100
AcDbEntity
  8
shiyouwaku
100
AcDbLine
 10
245.6525644168749
 20
169.6783370392937
 30
0.0
 11
245.6525644168749
 21
49.67833703929375
 31
0.0
  0
LINE
  5
1673
330
21
100
AcDbEntity
  8
zubanwaku
100
AcDbLine
 10
245.6525644168749
 20
169.6783370392937
 30
0.0
 11
355.652564416875
 21
169.6783370392937
 31
0.0
  0
TEXT
  5
1674
330
21
100
AcDbEntity
  8
moji
100
AcDbText
 10
283.4525644168749
 20
165.6783370392937
 30
0.0
 40
3.0
  1
仕　　　　　様
 72
     1
 11
295.6525644168749
 21
167.1783370392937
 31
0.0
100
AcDbText
 73
     2
  0
LINE
  5
196E
330
21
100
AcDbEntity
  8
zubanwaku
100
AcDbLine
 10
245.6525644168749
 20
99.67833703929375
 30
0.0
 11
355.652564416875
 21
99.67833703929375
 31
0.0
  0
TEXT
  5
196F
330
21
100
AcDbEntity
  8
moji
100
AcDbText
 10
248.652564416875
 20
100.6783370392937
 30
0.0
 40
3.0
  1
消費電力　：　最大 5W
 11
248.652564416875
 21
102.1783370392937
 31
0.0
100
AcDbText
 73
     2
  0
LINE
  5
1976
330
21
100
AcDbEntity
  8
zubanmoji
100
AcDbLine
 10
350.3986496968989
 20
12.67263488768844
 30
0.0
 11
362.4847045607874
 21
12.67263488768844
 31
0.0
  0
TEXT
  5
1D07
330
21
100
AcDbEntity
  8
moji
100
AcDbText
 10
248.652564416875
 20
65.67833703929375
 30
0.0
 40
3.0
  1
漏水位置データ出力機能　：　無
 11
248.652564416875
 21
67.17833703929375
 31
0.0
100
AcDbText
 73
     2
  0
CIRCLE
  5
1D7A
330
21
100
AcDbEntity
  8
gaikei
100
AcDbCircle
 10
105.8354877897356
 20
33.48514554159925
 30
0.0
 40
3.5
  0
CIRCLE
  5
1D7B
330
21
100
AcDbEntity
  8
gaikei
100
AcDbCircle
 10
78.33548778973564
 20
33.48514554159925
 30
0.0
 40
3.5
  0
CIRCLE
  5
1D7C
330
21
100
AcDbEntity
  8
gaikei
100
AcDbCircle
 10
105.8354877897356
 20
33.48514554159925
 30
0.0
 40
6.0
  0
CIRCLE
  5
1D7D
330
21
100
AcDbEntity
  8
gaikei
100
AcDbCircle
 10
78.33548778973564
 20
33.48514554159925
 30
0.0
 40
6.0
  0
CIRCLE
  5
1D7E
330
21
100
AcDbEntity
  8
gaikei
100
AcDbCircle
 10
104.5854877897356
 20
115.9435168387376
 30
0.0
 40
1.0
  0
CIRCLE
  5
1D7F
330
21
100
AcDbEntity
  8
gaikei
100
AcDbCircle
 10
104.5854877897356
 20
122.1935168387377
 30
0.0
 40
1.0
  0
LINE
  5
1D80
330
21
100
AcDbEntity
  8
gaikei
100
AcDbLine
 10
85.58548778973563
 20
115.6935168387377
 30
0.0
 11
101.3354877897356
 21
115.6935168387377
 31
0.0
  0
LINE
  5
1D81
330
21
100
AcDbEntity
  8
gaikei
100
AcDbLine
 10
85.58548778973561
 20
122.6935168387377
 30
0.0
 11
101.3354877897356
 21
122.6935168387377
 31
0.0
  0
LINE
  5
1D82
330
21
100
AcDbEntity
  8
gaikei
100
AcDbLine
 10
78.33548778973562
 20
115.6935168387377
 30
0.0
 11
83.58548778973561
 21
115.6935168387377
 31
0.0
  0
LINE
  5
1D83
330
21
100
AcDbEntity
  8
gaikei
100
AcDbLine
 10
78.33548778973561
 20
122.6935168387377
 30
0.0
 11
83.5854877897356
 21
122.6935168387377
 31
0.0
  0
LINE
  5
1D84
330
21
100
AcDbEntity
  8
gaikei
100
AcDbLine
 10
101.3354877897356
 20
122.6935168387377
 30
0.0
 11
101.3354877897356
 21
115.6935168387377
 31
0.0
  0
LINE
  5
1D85
330
21
100
AcDbEntity
  8
gaikei
100
AcDbLine
 10
96.08548778973561
 20
122.6935168387377
 30
0.0
 11
96.08548778973563
 21
115.6935168387377
 31
0.0
  0
LINE
  5
1D86
330
21
100
AcDbEntity
  8
gaikei
100
AcDbLine
 10
90.83548778973561
 20
122.6935168387377
 30
0.0
 11
90.83548778973563
 21
115.6935168387377
 31
0.0
  0
LINE
  5
1D87
330
21
100
AcDbEntity
  8
gaikei
100
AcDbLine
 10
85.58548778973561
 20
122.6935168387377
 30
0.0
 11
85.58548778973563
 21
115.6935168387377
 31
0.0
  0
LINE
  5
1D88
330
21
100
AcDbEntity
  8
gaikei
100
AcDbLine
 10
83.5854877897356
 20
122.6935168387377
 30
0.0
 11
83.58548778973561
 21
115.6935168387377
 31
0.0
  0
CIRCLE
  5
1D89
330
21
100
AcDbEntity
  8
gaikei
100
AcDbCircle
 10
81.3354877897356
 20
110.1935168387377
 30
0.0
 40
1.5
  0
CIRCLE
  5
1D8A
330
21
100
AcDbEntity
  8
gaikei
100
AcDbCircle
 10
93.83548778973562
 20
110.1935168387377
 30
0.0
 40
1.5
  0
LINE
  5
1D8B
102
{ACAD_REACTORS
330
1D90
102
}
330
21
100
AcDbEntity
  8
gaikei
100
AcDbLine
 10
172.9667474456716
 20
112.4435168387377
 30
0.0
 11
172.9667474456716
 21
107.9435168387376
 31
0.0
  0
LINE
  5
1D8C
330
21
100
AcDbEntity
  8
gaikei
100
AcDbLine
 10
172.9667474456716
 20
107.9435168387376
 30
0.0
 11
174.4667474456716
 21
107.9435168387377
 31
0.0
  0
LINE
  5
1D8D
330
21
100
AcDbEntity
  8
gaikei
100
AcDbLine
 10
172.9667474456716
 20
112.4435168387377
 30
0.0
 11
174.4667474456716
 21
112.4435168387377
 31
0.0
  0
DIMENSION
  5
1D8E
102
{ACAD_XDICTIONARY
360
1D8F
102
}
102
{ACAD_REACTORS
330
1D90
102
}
330
21
100
AcDbEntity
  8
sumpo
100
AcDbDimension
  2
*D15
 10
191.9667474456716
 20
183.4299821351063
 30
0.0
 11
183.2167474456716
 21
185.9299821351063
 31
0.0
 70
    32
  1
35
 71
     5
 42
17.5
  3
ISO-25
100
AcDbAlignedDimension
 13
174.4667474456716
 23
156.4435168387377
 33
0.0
 14
191.9667474456716
 24
154.1935168387377
 34
0.0
100
AcDbRotatedDimension
  0
DIMENSION
  5
1D91
102
{ACAD_XDICTIONARY
360
1D92
102
}
102
{ACAD_REACTORS
330
1D93
102
}
330
21
100
AcDbEntity
  8
sumpo
100
AcDbDimension
  2
*D16
 10
29.72207945964868
 20
66.44351683873772
 30
0.0
 11
27.22207945964868
 21
111.4435168387377
 31
0.0
 70
    32
  1
180
 71
     5
 42
89.99999999999998
  3
ISO-25
100
AcDbAlignedDimension
 13
60.83548778973562
 23
156.4435168387377
 33
0.0
 14
60.83548778973562
 24
66.44351683873771
 34
0.0
 50
90.0
100
AcDbRotatedDimension
  0
DIMENSION
  5
1D94
102
{ACAD_XDICTIONARY
360
1D95
102
}
102
{ACAD_REACTORS
330
1D96
102
}
330
21
100
AcDbEntity
  8
sumpo
100
AcDbDimension
  2
*D17
 10
123.3354877897356
 20
183.4299821351063
 30
0.0
 11
92.08548778973563
 21
185.9299821351063
 31
0.0
 70
    32
  1
125
 71
     5
 42
62.5
  3
ISO-25
100
AcDbAlignedDimension
 13
60.83548778973562
 23
156.4435168387377
 33
0.0
 14
123.3354877897356
 24
156.4435168387377
 34
0.0
100
AcDbRotatedDimension
  0
LINE
  5
1D97
330
21
100
AcDbEntity
  8
gaikei
100
AcDbLine
 10
78.33548778973561
 20
122.6935168387377
 30
0.0
 11
78.33548778973562
 21
115.6935168387377
 31
0.0
  0
LINE
  5
1D98
102
{ACAD_REACTORS
330
1D96
330
1D93
102
}
330
21
100
AcDbEntity
  8
gaikei
100
AcDbLine
 10
60.83548778973562
 20
156.4435168387377
 30
0.0
 11
60.83548778973562
 21
66.44351683873771
 31
0.0
  0
LINE
  5
1D99
102
{ACAD_REACTORS
330
1D96
102
}
330
21
100
AcDbEntity
  8
gaikei
100
AcDbLine
 10
123.3354877897356
 20
156.4435168387377
 30
0.0
 11
60.83548778973562
 21
156.4435168387377
 31
0.0
  0
LINE
  5
1D9A
330
21
100
AcDbEntity
  8
gaikei
100
AcDbLine
 10
123.3354877897356
 20
66.44351683873771
 30
0.0
 11
123.3354877897356
 21
156.4435168387377
 31
0.0
  0
LINE
  5
1D9B
330
21
100
AcDbEntity
  8
gaikei
100
AcDbLine
 10
60.83548778973562
 20
66.44351683873771
 30
0.0
 11
123.3354877897356
 21
66.44351683873771
 31
0.0
  0
LINE
  5
1D9C
330
21
100
AcDbEntity
  8
fuzoku
100
AcDbLine
 10
187.7167474456717
 20
68.69351683873773
 30
0.0
 11
189.4667474456716
 21
68.6935168387377
 31
0.0
  0
LINE
  5
1D9D
330
21
100
AcDbEntity
  8
fuzoku
100
AcDbLine
 10
187.7167474456717
 20
154.1935168387377
 30
0.0
 11
187.7167474456717
 21
68.69351683873773
 31
0.0
  0
LINE
  5
1D9E
330
21
100
AcDbEntity
  8
fuzoku
100
AcDbLine
 10
189.4667474456716
 20
154.1935168387377
 30
0.0
 11
187.7167474456717
 21
154.1935168387377
 31
0.0
  0
LINE
  5
1D9F
330
21
100
AcDbEntity
  8
gaikei
100
AcDbLine
 10
189.4667474456716
 20
68.6935168387377
 30
0.0
 11
189.4667474456716
 21
66.44351683873768
 31
0.0
  0
LINE
  5
1DA0
330
21
100
AcDbEntity
  8
gaikei
100
AcDbLine
 10
189.4667474456716
 20
156.4435168387377
 30
0.0
 11
189.4667474456716
 21
154.1935168387377
 31
0.0
  0
LINE
  5
1DA1
330
21
100
AcDbEntity
  8
gaikei
100
AcDbLine
 10
189.4667474456716
 20
68.69351683873773
 30
0.0
 11
191.9667474456716
 21
68.69351683873768
 31
0.0
  0
LINE
  5
1DA2
102
{ACAD_REACTORS
330
1D90
102
}
330
21
100
AcDbEntity
  8
gaikei
100
AcDbLine
 10
189.4667474456716
 20
154.1935168387377
 30
0.0
 11
191.9667474456716
 21
154.1935168387377
 31
0.0
  0
LINE
  5
1DA3
330
21
100
AcDbEntity
  8
gaikei
100
AcDbLine
 10
111.8354877897356
 20
33.48514554159925
 30
0.0
 11
123.3354877897356
 21
33.48514554159925
 31
0.0
  0
LINE
  5
1DA4
330
21
100
AcDbEntity
  8
gaikei
100
AcDbLine
 10
84.33548778973564
 20
33.48514554159925
 30
0.0
 11
99.83548778973563
 21
33.48514554159925
 31
0.0
  0
ARC
  5
1DA5
330
21
100
AcDbEntity
  8
gaikei
100
AcDbCircle
 10
68.83548778973562
 20
33.48514554159925
 30
0.0
 40
6.75
100
AcDbArc
 50
112.1916065662727
 51
247.8083934337273
  0
ARC
  5
1DA6
330
21
100
AcDbEntity
  8
gaikei
100
AcDbCircle
 10
115.3354877897356
 20
33.48514554159925
 30
0.0
 40
6.75
100
AcDbArc
 50
292.1916065662728
 51
67.80839343372725
  0
LINE
  5
1DA7
330
21
100
AcDbEntity
  8
gaikei
100
AcDbLine
 10
66.28597803293925
 20
27.23514554159925
 30
0.0
 11
117.884997546532
 21
27.23514554159925
 31
0.0
  0
LINE
  5
1DA8
330
21
100
AcDbEntity
  8
gaikei
100
AcDbLine
 10
66.28597803293925
 20
39.73514554159925
 30
0.0
 11
117.884997546532
 21
39.73514554159925
 31
0.0
  0
LINE
  5
1DA9
330
21
100
AcDbEntity
  8
gaikei
100
AcDbLine
 10
63.83548778973564
 20
27.24014754320086
 30
0.0
 11
63.83548778973564
 21
23.48514554159925
 31
0.0
  0
LINE
  5
1DAA
330
21
100
AcDbEntity
  8
gaikei
100
AcDbLine
 10
120.3354877897356
 20
27.24014754320086
 30
0.0
 11
120.3354877897356
 21
23.48514554159925
 31
0.0
  0
ARC
  5
1DAB
330
21
100
AcDbEntity
  8
gaikei
100
AcDbCircle
 10
68.83548778973562
 20
33.48514554159925
 30
0.0
 40
8.0
100
AcDbArc
 50
110.3641348063178
 51
249.6358651936822
  0
ARC
  5
1DAC
330
21
100
AcDbEntity
  8
gaikei
100
AcDbCircle
 10
115.3354877897356
 20
33.48514554159925
 30
0.0
 40
8.0
100
AcDbArc
 50
290.3641348063178
 51
69.6358651936822
  0
LINE
  5
1DAD
330
21
100
AcDbEntity
  8
gaikei
100
AcDbLine
 10
60.83548778973562
 20
33.48514554159925
 30
0.0
 11
72.33548778973563
 21
33.48514554159925
 31
0.0
  0
LINE
  5
1DAE
330
21
100
AcDbEntity
  8
gaikei
100
AcDbLine
 10
66.05160560832063
 20
25.98514554159925
 30
0.0
 11
118.1193699711506
 21
25.98514554159925
 31
0.0
  0
LINE
  5
1DAF
330
21
100
AcDbEntity
  8
gaikei
100
AcDbLine
 10
174.4667474456716
 20
66.44351683873773
 30
0.0
 11
189.4667474456716
 21
66.44351683873768
 31
0.0
  0
LINE
  5
1DB0
330
21
100
AcDbEntity
  8
gaikei
100
AcDbLine
 10
66.05160560832063
 20
40.98514554159925
 30
0.0
 11
118.1193699711506
 21
40.98514554159922
 31
0.0
  0
LINE
  5
1DB1
102
{ACAD_REACTORS
330
1D90
102
}
330
21
100
AcDbEntity
  8
gaikei
100
AcDbLine
 10
174.4667474456716
 20
156.4435168387377
 30
0.0
 11
174.4667474456716
 21
66.44351683873773
 31
0.0
  0
LINE
  5
1DB2
330
21
100
AcDbEntity
  8
gaikei
100
AcDbLine
 10
63.83548778973564
 20
23.48514554159925
 30
0.0
 11
120.3354877897356
 21
23.48514554159925
 31
0.0
  0
LINE
  5
1DB3
330
21
100
AcDbEntity
  8
gaikei
100
AcDbLine
 10
191.9667474456716
 20
154.1935168387377
 30
0.0
 11
191.9667474456716
 21
68.69351683873768
 31
0.0
  0
LINE
  5
1DB4
330
21
100
AcDbEntity
  8
gaikei
100
AcDbLine
 10
174.4667474456716
 20
156.4435168387377
 30
0.0
 11
189.4667474456716
 21
156.4435168387377
 31
0.0
  0
TEXT
  5
1DB5
330
21
100
AcDbEntity
  8
zubanmoji
100
AcDbText
 10
75.80619561705083
 20
102.8624327737171
 30
0.0
 40
1.0
  1
TATSUTA ELECTRIC WIRE & CABLE CO., LTD. 
 72
     1
 11
91.93000514086035
 21
103.3624327737171
 31
0.0
100
AcDbText
 73
     2
  0
LINE
  5
1DB6
330
21
100
AcDbEntity
  8
fuzoku
100
AcDbLine
 10
83.15056279449704
 20
125.6429542781352
 30
0.0
 11
102.160445002328
 21
125.6429542781352
 31
0.0
  0
LINE
  5
1DB7
330
21
100
AcDbEntity
  8
fuzoku
100
AcDbLine
 10
78.53655838934812
 20
128.4403434492461
 30
0.0
 11
99.73870297479738
 21
128.4403434492461
 31
0.0
  0
TEXT
  5
1DB8
330
21
100
AcDbEntity
  8
fuzoku
100
AcDbText
 10
74.66421970555487
 20
125.9971841236128
 30
0.0
 40
1.5
  1
　　　　　AD-AS-1LM-A
100
AcDbText
  0
TEXT
  5
1DB9
330
21
100
AcDbEntity
  8
fuzoku
100
AcDbText
 10
78.96184767600404
 20
128.7945732947236
 30
0.0
 40
2.5
  1
漏水位置検知器
100
AcDbText
  0
TEXT
  5
1DBA
330
21
100
AcDbEntity
  8
fuzoku
100
AcDbText
 10
96.57339506644479
 20
109.5864964087766
 30
0.0
 40
1.25
  1
警報解除
 72
     4
 11
99.40672839977812
 21
110.2114964087766
 31
0.0
100
AcDbText
  0
TEXT
  5
1DBB
330
21
100
AcDbEntity
  8
fuzoku
100
AcDbText
 10
83.88077677004543
 20
109.5474131930023
 30
0.0
 40
1.25
  1
ブザー停止
 72
     4
 11
87.54744343671211
 21
110.1724131930023
 31
0.0
100
AcDbText
  0
TEXT
  5
1DBC
330
21
100
AcDbEntity
  8
fuzoku
100
AcDbText
 10
106.5404190881938
 20
115.4043151472163
 30
0.0
 40
1.25
  1
警報
 72
     4
 11
107.8737524215271
 21
116.0293151472163
 31
0.0
100
AcDbText
  0
TEXT
  5
1DBD
330
21
100
AcDbEntity
  8
fuzoku
100
AcDbText
 10
106.4686550409623
 20
121.7881009462538
 30
0.0
 40
1.25
  1
電源
 72
     4
 11
107.8019883742956
 21
122.4131009462538
 31
0.0
100
AcDbText
  0
VIEWPORT
  5
1886
330
187F
100
AcDbEntity
 67
     1
  8
0
100
AcDbViewport
 10
221.8988813324755
 20
100.8062472343445
 30
0.0
 40
512.0405926593053
 41
222.1517806396485
 68
     1
 69
     1
 12
221.8988813324755
 22
100.8062472343445
 13
0.0
 23
0.0
 14
10.0
 24
10.0
 15
10.0
 25
10.0
 16
0.0
 26
0.0
 36
1.0
 17
0.0
 27
0.0
 37
0.0
 42
50.0
 43
0.0
 44
0.0
 45
222.1517806396485
 50
0.0
 51
0.0
 72
  1000
 90
    32800
  1

281
     0
 71
     1
 74
     0
110
0.0
120
0.0
130
0.0
111
1.0
121
0.0
131
0.0
112
0.0
122
1.0
132
0.0
 79
     0
146
0.0
170
     0
  0
VIEWPORT
  5
1888
330
187F
100
AcDbEntity
 67
     1
  8
hojo
100
AcDbViewport
 10
144.2825528925341
 20
102.1391580989504
 30
0.0
 40
282.4235581177303
 41
192.5315437884264
 68
     2
 69
     2
 12
190.2203607897572
 22
97.76443033407272
 13
0.0
 23
0.0
 14
10.0
 24
10.0
 15
10.0
 25
10.0
 16
0.0
 26
0.0
 36
1.0
 17
0.0
 27
0.0
 37
0.0
 42
50.0
 43
0.0
 44
0.0
 45
245.6642201174587
 50
0.0
 51
0.0
 72
  1000
 90
    32864
  1

281
     0
 71
     1
 74
     0
110
0.0
120
0.0
130
0.0
111
1.0
121
0.0
131
0.0
112
0.0
122
1.0
132
0.0
 79
     0
146
0.0
170
     0
  0
ENDSEC
  0
SECTION
  2
OBJECTS
  0
DICTIONARY
  5
C
330
0
100
AcDbDictionary
281
     1
  3
ACAD_COLOR
350
1C
  3
ACAD_GROUP
350
D
  3
ACAD_LAYOUT
350
1A
  3
ACAD_MATERIAL
350
1B
  3
ACAD_MLEADERSTYLE
350
1E9C
  3
ACAD_MLINESTYLE
350
17
  3
ACAD_PLOTSETTINGS
350
19
  3
ACAD_PLOTSTYLENAME
350
E
  3
ACAD_SCALELIST
350
1E7A
  3
ACAD_TABLESTYLE
350
1E78
  3
ACAD_VISUALSTYLE
350
1E67
  3
ACDB_RECOMPOSE_DATA
350
1ED8
  3
AcDbVariableDictionary
350
1ED2
  0
DICTIONARY
  5
5C
330
2
100
AcDbDictionary
280
     1
281
     1
  3
ACAD_LAYERFILTERS
360
89B
  3
ACAD_LAYERSTATES
360
5D
  0
DICTIONARY
  5
1EB7
330
10
100
AcDbDictionary
280
     1
281
     1
  3
ADSK_XREC_LAYER_RECONCILED
360
1EB8
  0
DICTIONARY
  5
1EB9
330
2D
100
AcDbDictionary
280
     1
281
     1
  3
ADSK_XREC_LAYER_RECONCILED
360
1EBA
  0
DICTIONARY
  5
1EBB
330
2E
100
AcDbDictionary
280
     1
281
     1
  3
ADSK_XREC_LAYER_RECONCILED
360
1EBC
  0
DICTIONARY
  5
1EBD
330
2F
100
AcDbDictionary
280
     1
281
     1
  3
ADSK_XREC_LAYER_RECONCILED
360
1EBE
  0
DICTIONARY
  5
1EBF
330
30
100
AcDbDictionary
280
     1
281
     1
  3
ADSK_XREC_LAYER_RECONCILED
360
1EC0
  0
DICTIONARY
  5
1EC1
330
48
100
AcDbDictionary
280
     1
281
     1
  3
ADSK_XREC_LAYER_RECONCILED
360
1EC2
  0
DICTIONARY
  5
1EC3
330
B26
100
AcDbDictionary
280
     1
281
     1
  3
ADSK_XREC_LAYER_RECONCILED
360
1EC4
  0
DICTIONARY
  5
1EC5
330
B29
100
AcDbDictionary
280
     1
281
     1
  3
ADSK_XREC_LAYER_RECONCILED
360
1EC6
  0
DICTIONARY
  5
1EC7
330
B2A
100
AcDbDictionary
280
     1
281
     1
  3
ADSK_XREC_LAYER_RECONCILED
360
1EC8
  0
DICTIONARY
  5
1B98
330
1B97
100
AcDbDictionary
280
     1
281
     1
  3
ACAD_DIMASSOC
360
1B99
  0
DICTIONARY
  5
1B9B
330
1B9A
100
AcDbDictionary
280
     1
281
     1
  3
ACAD_DIMASSOC
360
1B9C
  0
DICTIONARY
  5
1B9E
330
1B9D
100
AcDbDictionary
280
     1
281
     1
  3
ACAD_DIMASSOC
360
1B9F
  0
DICTIONARY
  5
1D48
330
1D47
100
AcDbDictionary
280
     1
281
     1
  3
ACAD_DIMASSOC
360
1D49
  0
DICTIONARY
  5
1D4B
330
1D4A
100
AcDbDictionary
280
     1
281
     1
  3
ACAD_DIMASSOC
360
1D4C
  0
DICTIONARY
  5
1D4E
330
1D4D
100
AcDbDictionary
280
     1
281
     1
  3
ACAD_DIMASSOC
360
1D4F
  0
DICTIONARY
  5
1D8F
330
1D8E
100
AcDbDictionary
280
     1
281
     1
  3
ACAD_DIMASSOC
360
1D90
  0
DICTIONARY
  5
1D92
330
1D91
100
AcDbDictionary
280
     1
281
     1
  3
ACAD_DIMASSOC
360
1D93
  0
DICTIONARY
  5
1D95
330
1D94
100
AcDbDictionary
280
     1
281
     1
  3
ACAD_DIMASSOC
360
1D96
  0
DICTIONARY
  5
1C
102
{ACAD_REACTORS
330
C
102
}
330
C
100
AcDbDictionary
281
     1
  0
DICTIONARY
  5
D
102
{ACAD_REACTORS
330
C
102
}
330
C
100
AcDbDictionary
281
     1
  3
*A1
350
AE8
  0
DICTIONARY
  5
1A
102
{ACAD_REACTORS
330
C
102
}
330
C
100
AcDbDictionary
281
     1
  3
Model
350
24
  3
レイアウト1
350
1880
  0
DICTIONARY
  5
1B
102
{ACAD_REACTORS
330
C
102
}
330
C
100
AcDbDictionary
281
     1
  3
ByBlock
350
1E5F
  3
ByLayer
350
1E57
  3
Global
350
55
  0
DICTIONARY
  5
1E9C
102
{ACAD_REACTORS
330
C
102
}
330
C
100
AcDbDictionary
281
     1
  3
Standard
350
1E9D
  0
DICTIONARY
  5
17
102
{ACAD_REACTORS
330
C
102
}
330
C
100
AcDbDictionary
281
     1
  3
Standard
350
18
  0
DICTIONARY
  5
19
102
{ACAD_REACTORS
330
C
102
}
330
C
100
AcDbDictionary
281
     1
  0
ACDBDICTIONARYWDFLT
  5
E
102
{ACAD_REACTORS
330
C
102
}
330
C
100
AcDbDictionary
281
     1
  3
Normal
350
F
100
AcDbDictionaryWithDefault
340
F
  0
DICTIONARY
  5
1E7A
102
{ACAD_REACTORS
330
C
102
}
330
C
100
AcDbDictionary
281
     1
  3
A0
350
1E7B
  3
A1
350
1E7C
  3
A2
350
1E7D
  3
A3
350
1E7E
  3
A4
350
1E7F
  3
A5
350
1E80
  3
A6
350
1E81
  3
A7
350
1E82
  3
A8
350
1E83
  3
A9
350
1E84
  3
B0
350
1E85
  3
B1
350
1E86
  3
B2
350
1E87
  3
B3
350
1E88
  3
B4
350
1E89
  3
B5
350
1E8A
  3
B6
350
1E8B
  3
B7
350
1E8C
  3
B8
350
1E8D
  3
B9
350
1E8E
  3
C0
350
1E8F
  3
C1
350
1E90
  3
C2
350
1E91
  3
C3
350
1E92
  3
C4
350
1E93
  3
C5
350
1E94
  3
C6
350
1E95
  3
C7
350
1E96
  3
C8
350
1E97
  3
C9
350
1E98
  3
D0
350
1E99
  3
D1
350
1E9A
  3
D2
350
1E9B
  0
DICTIONARY
  5
1E78
102
{ACAD_REACTORS
330
C
102
}
330
C
100
AcDbDictionary
281
     1
  3
Standard
350
1E79
  0
DICTIONARY
  5
1E67
102
{ACAD_REACTORS
330
C
102
}
330
C
100
AcDbDictionary
281
     1
  3
2dWireframe
350
1E6D
  3
3D Hidden
350
1E6F
  3
3dWireframe
350
1E6E
  3
Basic
350
1E6C
  3
Brighten
350
1E73
  3
ColorChange
350
1E77
  3
Conceptual
350
1E70
  3
Dim
350
1E72
  3
Facepattern
350
1E76
  3
Flat
350
1E68
  3
FlatWithEdges
350
1E69
  3
Gouraud
350
1E6A
  3
GouraudWithEdges
350
1E6B
  3
Linepattern
350
1E75
  3
Realistic
350
1E71
  3
Thicken
350
1E74
  0
XRECORD
  5
1ED8
102
{ACAD_REACTORS
330
C
102
}
330
C
100
AcDbXrecord
280
     1
 90
        1
330
1E79
  0
DICTIONARY
  5
1ED2
102
{ACAD_REACTORS
330
C
102
}
330
C
100
AcDbDictionary
281
     1
  3
CANNOSCALE
350
1ED5
  3
CMLEADERSTYLE
350
1ED4
  3
CTABLESTYLE
350
1ED3
  0
DICTIONARY
  5
89B
102
{ACAD_REACTORS
330
5C
102
}
330
5C
100
AcDbDictionary
281
     1
  0
DICTIONARY
  5
5D
102
{ACAD_REACTORS
330
5C
102
}
330
5C
100
AcDbDictionary
281
     1
  0
XRECORD
  5
1EB8
102
{ACAD_REACTORS
330
1EB7
102
}
330
1EB7
100
AcDbXrecord
280
     1
290
     1
  0
XRECORD
  5
1EBA
102
{ACAD_REACTORS
330
1EB9
102
}
330
1EB9
100
AcDbXrecord
280
     1
290
     1
  0
XRECORD
  5
1EBC
102
{ACAD_REACTORS
330
1EBB
102
}
330
1EBB
100
AcDbXrecord
280
     1
290
     1
  0
XRECORD
  5
1EBE
102
{ACAD_REACTORS
330
1EBD
102
}
330
1EBD
100
AcDbXrecord
280
     1
290
     1
  0
XRECORD
  5
1EC0
102
{ACAD_REACTORS
330
1EBF
102
}
330
1EBF
100
AcDbXrecord
280
     1
290
     1
  0
XRECORD
  5
1EC2
102
{ACAD_REACTORS
330
1EC1
102
}
330
1EC1
100
AcDbXrecord
280
     1
290
     1
  0
XRECORD
  5
1EC4
102
{ACAD_REACTORS
330
1EC3
102
}
330
1EC3
100
AcDbXrecord
280
     1
290
     1
  0
XRECORD
  5
1EC6
102
{ACAD_REACTORS
330
1EC5
102
}
330
1EC5
100
AcDbXrecord
280
     1
290
     1
  0
XRECORD
  5
1EC8
102
{ACAD_REACTORS
330
1EC7
102
}
330
1EC7
100
AcDbXrecord
280
     1
290
     1
  0
DIMASSOC
  5
1B99
102
{ACAD_REACTORS
330
1B98
102
}
330
1B98
100
AcDbDimAssoc
330
1B97
 90
        3
 70
     0
 71
     0
  1
AcDbOsnapPointRef
 72
     1
331
1BE4
 73
     2
 91
        0
 40
1.0
 10
0.0
 20
0.0
 30
2.000000000000000E+50
 75
     0
  1
AcDbOsnapPointRef
 72
     1
331
1BEE
 73
     2
 91
        0
 40
1.0
 10
0.0
 20
0.0
 30
2.000000000000000E+50
 75
     0
  0
DIMASSOC
  5
1B9C
102
{ACAD_REACTORS
330
1B9B
102
}
330
1B9B
100
AcDbDimAssoc
330
1B9A
 90
        3
 70
     0
 71
     0
  1
AcDbOsnapPointRef
 72
    13
331
1C06
 73
     2
 91
        0
 40
0.0
 10
0.0
 20
0.0
 30
2.000000000000000E+50
 75
     0
  1
AcDbOsnapPointRef
 72
     1
331
1BD2
 73
     2
 91
        0
 40
1.0
 10
0.0
 20
0.0
 30
2.000000000000000E+50
 75
     0
  0
DIMASSOC
  5
1B9F
102
{ACAD_REACTORS
330
1B9E
102
}
330
1B9E
100
AcDbDimAssoc
330
1B9D
 90
        3
 70
     0
 71
     0
  1
AcDbOsnapPointRef
 72
    13
331
1C06
 73
     2
 91
        0
 40
0.0
 10
0.0
 20
0.0
 30
2.000000000000000E+50
 75
     0
  1
AcDbOsnapPointRef
 72
    13
331
1C07
 73
     2
 91
        0
 40
0.0
 10
0.0
 20
0.0
 30
2.000000000000000E+50
 75
     0
  0
DIMASSOC
  5
1D49
102
{ACAD_REACTORS
330
1D48
102
}
330
1D48
100
AcDbDimAssoc
330
1D47
 90
        3
 70
     0
 71
     0
  1
AcDbOsnapPointRef
 72
    13
331
1D6A
 73
     2
 91
        0
 40
0.0
 10
0.0
 20
0.0
 30
2.000000000000000E+50
 75
     0
  1
AcDbOsnapPointRef
 72
     1
331
1D5B
 73
     2
 91
        0
 40
1.0
 10
0.0
 20
0.0
 30
2.000000000000000E+50
 75
     0
  0
DIMASSOC
  5
1D4C
102
{ACAD_REACTORS
330
1D4B
102
}
330
1D4B
100
AcDbDimAssoc
330
1D4A
 90
        3
 70
     0
 71
     0
  1
AcDbOsnapPointRef
 72
    13
331
1D51
 73
     2
 91
        0
 40
0.0
 10
0.0
 20
0.0
 30
2.000000000000000E+50
 75
     0
  1
AcDbOsnapPointRef
 72
     1
331
1D51
 73
     2
 91
        0
 40
1.0
 10
0.0
 20
0.0
 30
2.000000000000000E+50
 75
     0
  0
DIMASSOC
  5
1D4F
102
{ACAD_REACTORS
330
1D4E
102
}
330
1D4E
100
AcDbDimAssoc
330
1D4D
 90
        3
 70
     0
 71
     0
  1
AcDbOsnapPointRef
 72
    13
331
1D51
 73
     2
 91
        0
 40
0.0
 10
0.0
 20
0.0
 30
2.000000000000000E+50
 75
     0
  1
AcDbOsnapPointRef
 72
    13
331
1D52
 73
     2
 91
        0
 40
0.0
 10
0.0
 20
0.0
 30
2.000000000000000E+50
 75
     0
  0
DIMASSOC
  5
1D90
102
{ACAD_REACTORS
330
1D8F
102
}
330
1D8F
100
AcDbDimAssoc
330
1D8E
 90
        3
 70
     0
 71
     0
  1
AcDbOsnapPointRef
 72
    13
331
1DB1
 73
     2
 91
        0
 40
0.0
 10
0.0
 20
0.0
 30
2.000000000000000E+50
 75
     0
  1
AcDbOsnapPointRef
 72
     1
331
1DA2
 73
     2
 91
        0
 40
1.0
 10
0.0
 20
0.0
 30
2.000000000000000E+50
 75
     0
  0
DIMASSOC
  5
1D93
102
{ACAD_REACTORS
330
1D92
102
}
330
1D92
100
AcDbDimAssoc
330
1D91
 90
        3
 70
     0
 71
     0
  1
AcDbOsnapPointRef
 72
    13
331
1D98
 73
     2
 91
        0
 40
0.0
 10
0.0
 20
0.0
 30
2.000000000000000E+50
 75
     0
  1
AcDbOsnapPointRef
 72
     1
331
1D98
 73
     2
 91
        0
 40
1.0
 10
0.0
 20
0.0
 30
2.000000000000000E+50
 75
     0
  0
DIMASSOC
  5
1D96
102
{ACAD_REACTORS
330
1D95
102
}
330
1D95
100
AcDbDimAssoc
330
1D94
 90
        3
 70
     0
 71
     0
  1
AcDbOsnapPointRef
 72
    13
331
1D98
 73
     2
 91
        0
 40
0.0
 10
0.0
 20
0.0
 30
2.000000000000000E+50
 75
     0
  1
AcDbOsnapPointRef
 72
    13
331
1D99
 73
     2
 91
        0
 40
0.0
 10
0.0
 20
0.0
 30
2.000000000000000E+50
 75
     0
  0
GROUP
  5
AE8
102
{ACAD_REACTORS
330
D
102
}
330
D
100
AcDbGroup
300

 70
     1
 71
     1
  0
LAYOUT
  5
24
102
{ACAD_REACTORS
330
1A
102
}
330
1A
100
AcDbPlotSettings
  1

  2
none_device
  4
Letter_(8.50_x_11.00_Inches)
  6

 40
6.349999904632568
 41
6.349999904632568
 42
6.350006103515625
 43
6.350006103515625
 44
215.8999938964844
 45
279.3999938964844
 46
0.0
 47
0.0
 48
0.0
 49
0.0
140
0.0
141
0.0
142
1.0
143
1.0
 70
 11952
 72
     1
 73
     1
 74
     0
  7

 75
     0
147
1.0
 76
     0
 77
     2
 78
   300
148
-83.36161879895561
149
0.0
100
AcDbLayout
  1
Model
 70
     1
 71
     0
 10
0.0
 20
0.0
 11
12.0
 21
9.0
 12
0.0
 22
0.0
 32
0.0
 14
0.0
 24
0.0
 34
0.0
 15
0.0
 25
0.0
 35
0.0
146
0.0
 13
0.0
 23
0.0
 33
0.0
 16
1.0
 26
0.0
 36
0.0
 17
0.0
 27
1.0
 37
0.0
 76
     0
330
21
331
1E55
  0
LAYOUT
  5
1880
102
{ACAD_XDICTIONARY
360
1EB4
102
}
102
{ACAD_REACTORS
330
1A
102
}
330
1A
100
AcDbPlotSettings
  1

  2
Canon MP990 series Printer
  4
A4
  6

 40
4.180416584014892
 41
5.831417560577392
 42
4.180404663085937
 43
3.757080078125
 44
209.9733276367187
 45
296.9683227539062
 46
0.0
 47
0.0
 48
0.0
 49
0.0
140
0.0
141
0.0
142
1.0
143
1.0
 70
   688
 72
     1
 73
     1
 74
     5
  7

 75
    16
147
1.0
 76
     1
 77
     2
 78
   300
148
0.0
149
0.0
100
AcDbLayout
  1
レイアウト1
 70
     1
 71
     1
 10
-3.757080078125
 20
-4.180416584014892
 11
293.2112426757813
 21
205.7929110527039
 12
0.0
 22
0.0
 32
0.0
 14
3.070773833669022
 24
5.873386204737187
 34
0.0
 15
285.4943319513993
 25
198.4049299931636
 35
0.0
146
0.0
 13
0.0
 23
0.0
 33
0.0
 16
1.0
 26
0.0
 36
0.0
 17
0.0
 27
1.0
 37
0.0
 76
     0
330
187F
331
1886
  0
MATERIAL
  5
1E5F
102
{ACAD_XDICTIONARY
360
1E60
102
}
102
{ACAD_REACTORS
330
1B
102
}
330
1B
100
AcDbMaterial
  1
ByBlock
 72
     0
 43
0.0008202099737533
 43
0.0
 43
0.0
 43
0.0
 43
0.0
 43
0.0008202099737533
 43
0.0
 43
0.0
 43
0.0
 43
0.0
 43
1.0
 43
0.0
 43
0.0
 43
0.0
 43
0.0
 43
1.0
 77
     0
 47
0.0008202099737533
 47
0.0
 47
0.0
 47
0.0
 47
0.0
 47
0.0008202099737533
 47
0.0
 47
0.0
 47
0.0
 47
0.0
 47
1.0
 47
0.0
 47
0.0
 47
0.0
 47
0.0
 47
1.0
171
     0
 49
0.0008202099737533
 49
0.0
 49
0.0
 49
0.0
 49
0.0
 49
0.0008202099737533
 49
0.0
 49
0.0
 49
0.0
 49
0.0
 49
1.0
 49
0.0
 49
0.0
 49
0.0
 49
0.0
 49
1.0
175
     0
142
0.0008202099737533
142
0.0
142
0.0
142
0.0
142
0.0
142
0.0008202099737533
142
0.0
142
0.0
142
0.0
142
0.0
142
1.0
142
0.0
142
0.0
142
0.0
142
0.0
142
1.0
179
     0
144
0.0008202099737533
144
0.0
144
0.0
144
0.0
144
0.0
144
0.0008202099737533
144
0.0
144
0.0
144
0.0
144
0.0
144
1.0
144
0.0
144
0.0
144
0.0
144
0.0
144
1.0
147
0.0008202099737533
147
0.0
147
0.0
147
0.0
147
0.0
147
0.0008202099737533
147
0.0
147
0.0
147
0.0
147
0.0
147
1.0
147
0.0
147
0.0
147
0.0
147
0.0
147
1.0
  0
MATERIAL
  5
1E57
102
{ACAD_XDICTIONARY
360
1E58
102
}
102
{ACAD_REACTORS
330
1B
102
}
330
1B
100
AcDbMaterial
  1
ByLayer
 72
     0
 43
0.0008202099737533
 43
0.0
 43
0.0
 43
0.0
 43
0.0
 43
0.0008202099737533
 43
0.0
 43
0.0
 43
0.0
 43
0.0
 43
1.0
 43
0.0
 43
0.0
 43
0.0
 43
0.0
 43
1.0
 77
     0
 47
0.0008202099737533
 47
0.0
 47
0.0
 47
0.0
 47
0.0
 47
0.0008202099737533
 47
0.0
 47
0.0
 47
0.0
 47
0.0
 47
1.0
 47
0.0
 47
0.0
 47
0.0
 47
0.0
 47
1.0
171
     0
 49
0.0008202099737533
 49
0.0
 49
0.0
 49
0.0
 49
0.0
 49
0.0008202099737533
 49
0.0
 49
0.0
 49
0.0
 49
0.0
 49
1.0
 49
0.0
 49
0.0
 49
0.0
 49
0.0
 49
1.0
175
     0
142
0.0008202099737533
142
0.0
142
0.0
142
0.0
142
0.0
142
0.0008202099737533
142
0.0
142
0.0
142
0.0
142
0.0
142
1.0
142
0.0
142
0.0
142
0.0
142
0.0
142
1.0
179
     0
144
0.0008202099737533
144
0.0
144
0.0
144
0.0
144
0.0
144
0.0008202099737533
144
0.0
144
0.0
144
0.0
144
0.0
144
1.0
144
0.0
144
0.0
144
0.0
144
0.0
144
1.0
147
0.0008202099737533
147
0.0
147
0.0
147
0.0
147
0.0
147
0.0008202099737533
147
0.0
147
0.0
147
0.0
147
0.0
147
1.0
147
0.0
147
0.0
147
0.0
147
0.0
147
1.0
  0
MATERIAL
  5
55
102
{ACAD_XDICTIONARY
360
56
102
}
102
{ACAD_REACTORS
330
1B
102
}
330
1B
100
AcDbMaterial
  1
Global
 43
0.0208000000566244
 43
0.0
 43
0.0
 43
0.0
 43
0.0
 43
0.0208000000566244
 43
0.0
 43
0.0
 43
0.0
 43
0.0
 43
1.0
 43
0.0
 43
0.0
 43
0.0
 43
0.0
 43
1.0
 49
0.0208000000566244
 49
0.0
 49
0.0
 49
0.0
 49
0.0
 49
0.0208000000566244
 49
0.0
 49
0.0
 49
0.0
 49
0.0
 49
1.0
 49
0.0
 49
0.0
 49
0.0
 49
0.0
 49
1.0
142
0.0208000000566244
142
0.0
142
0.0
142
0.0
142
0.0
142
0.0208000000566244
142
0.0
142
0.0
142
0.0
142
0.0
142
1.0
142
0.0
142
0.0
142
0.0
142
0.0
142
1.0
144
0.0208000000566244
144
0.0
144
0.0
144
0.0
144
0.0
144
0.0208000000566244
144
0.0
144
0.0
144
0.0
144
0.0
144
1.0
144
0.0
144
0.0
144
0.0
144
0.0
144
1.0
1001
ACAD
1070
    -1
1070
     3
1070
     0
1000

1071
        0
1070
     0
  0
MLEADERSTYLE
  5
1E9D
102
{ACAD_REACTORS
330
1E9C
102
}
330
1E9C
100
AcDbMLeaderStyle
170
     2
171
     1
172
     0
 90
        2
 40
0.0
 41
0.0
173
     1
 91
-1056964608
340
14
 92
       -2
290
     1
 42
2.0
291
     1
 43
0.36
  3
Standard
 44
4.0
300

342
11
174
     1
178
     6
175
     1
176
     0
 93
-1056964608
 45
4.0
292
     0
297
     0
 46
4.0
 94
-1056964608
 47
1.0
 49
1.0
140
1.0
293
     1
141
0.0
294
     1
177
     0
142
1.0
295
     0
296
     0
143
0.125
1001
ACAD_MLEADERVER
1070
     2
  0
MLINESTYLE
  5
18
102
{ACAD_REACTORS
330
17
102
}
330
17
100
AcDbMlineStyle
  2
STANDARD
 70
     0
  3

 62
   256
 51
90.0
 52
90.0
 71
     2
 49
0.5
 62
   256
  6
BYLAYER
 49
-0.5
 62
   256
  6
BYLAYER
  0
ACDBPLACEHOLDER
  5
F
102
{ACAD_REACTORS
330
E
102
}
330
E
  0
SCALE
  5
1E7B
102
{ACAD_REACTORS
330
1E7A
102
}
330
1E7A
100
AcDbScale
 70
     0
300
1:1
140
1.0
141
1.0
290
     1
  0
SCALE
  5
1E7C
102
{ACAD_REACTORS
330
1E7A
102
}
330
1E7A
100
AcDbScale
 70
     0
300
1:2
140
1.0
141
2.0
290
     0
  0
SCALE
  5
1E7D
102
{ACAD_REACTORS
330
1E7A
102
}
330
1E7A
100
AcDbScale
 70
     0
300
1:4
140
1.0
141
4.0
290
     0
  0
SCALE
  5
1E7E
102
{ACAD_REACTORS
330
1E7A
102
}
330
1E7A
100
AcDbScale
 70
     0
300
1:5
140
1.0
141
5.0
290
     0
  0
SCALE
  5
1E7F
102
{ACAD_REACTORS
330
1E7A
102
}
330
1E7A
100
AcDbScale
 70
     0
300
1:8
140
1.0
141
8.0
290
     0
  0
SCALE
  5
1E80
102
{ACAD_REACTORS
330
1E7A
102
}
330
1E7A
100
AcDbScale
 70
     0
300
1:10
140
1.0
141
10.0
290
     0
  0
SCALE
  5
1E81
102
{ACAD_REACTORS
330
1E7A
102
}
330
1E7A
100
AcDbScale
 70
     0
300
1:16
140
1.0
141
16.0
290
     0
  0
SCALE
  5
1E82
102
{ACAD_REACTORS
330
1E7A
102
}
330
1E7A
100
AcDbScale
 70
     0
300
1:20
140
1.0
141
20.0
290
     0
  0
SCALE
  5
1E83
102
{ACAD_REACTORS
330
1E7A
102
}
330
1E7A
100
AcDbScale
 70
     0
300
1:30
140
1.0
141
30.0
290
     0
  0
SCALE
  5
1E84
102
{ACAD_REACTORS
330
1E7A
102
}
330
1E7A
100
AcDbScale
 70
     0
300
1:40
140
1.0
141
40.0
290
     0
  0
SCALE
  5
1E85
102
{ACAD_REACTORS
330
1E7A
102
}
330
1E7A
100
AcDbScale
 70
     0
300
1:50
140
1.0
141
50.0
290
     0
  0
SCALE
  5
1E86
102
{ACAD_REACTORS
330
1E7A
102
}
330
1E7A
100
AcDbScale
 70
     0
300
1:100
140
1.0
141
100.0
290
     0
  0
SCALE
  5
1E87
102
{ACAD_REACTORS
330
1E7A
102
}
330
1E7A
100
AcDbScale
 70
     0
300
2:1
140
2.0
141
1.0
290
     0
  0
SCALE
  5
1E88
102
{ACAD_REACTORS
330
1E7A
102
}
330
1E7A
100
AcDbScale
 70
     0
300
4:1
140
4.0
141
1.0
290
     0
  0
SCALE
  5
1E89
102
{ACAD_REACTORS
330
1E7A
102
}
330
1E7A
100
AcDbScale
 70
     0
300
8:1
140
8.0
141
1.0
290
     0
  0
SCALE
  5
1E8A
102
{ACAD_REACTORS
330
1E7A
102
}
330
1E7A
100
AcDbScale
 70
     0
300
10:1
140
10.0
141
1.0
290
     0
  0
SCALE
  5
1E8B
102
{ACAD_REACTORS
330
1E7A
102
}
330
1E7A
100
AcDbScale
 70
     0
300
100:1
140
100.0
141
1.0
290
     0
  0
SCALE
  5
1E8C
102
{ACAD_REACTORS
330
1E7A
102
}
330
1E7A
100
AcDbScale
 70
     0
300
1/128" = 1'-0"
140
0.0078125
141
12.0
290
     0
  0
SCALE
  5
1E8D
102
{ACAD_REACTORS
330
1E7A
102
}
330
1E7A
100
AcDbScale
 70
     0
300
1/64" = 1'-0"
140
0.015625
141
12.0
290
     0
  0
SCALE
  5
1E8E
102
{ACAD_REACTORS
330
1E7A
102
}
330
1E7A
100
AcDbScale
 70
     0
300
1/32" = 1'-0"
140
0.03125
141
12.0
290
     0
  0
SCALE
  5
1E8F
102
{ACAD_REACTORS
330
1E7A
102
}
330
1E7A
100
AcDbScale
 70
     0
300
1/16" = 1'-0"
140
0.0625
141
12.0
290
     0
  0
SCALE
  5
1E90
102
{ACAD_REACTORS
330
1E7A
102
}
330
1E7A
100
AcDbScale
 70
     0
300
3/32" = 1'-0"
140
0.09375
141
12.0
290
     0
  0
SCALE
  5
1E91
102
{ACAD_REACTORS
330
1E7A
102
}
330
1E7A
100
AcDbScale
 70
     0
300
1/8" = 1'-0"
140
0.125
141
12.0
290
     0
  0
SCALE
  5
1E92
102
{ACAD_REACTORS
330
1E7A
102
}
330
1E7A
100
AcDbScale
 70
     0
300
3/16" = 1'-0"
140
0.1875
141
12.0
290
     0
  0
SCALE
  5
1E93
102
{ACAD_REACTORS
330
1E7A
102
}
330
1E7A
100
AcDbScale
 70
     0
300
1/4" = 1'-0"
140
0.25
141
12.0
290
     0
  0
SCALE
  5
1E94
102
{ACAD_REACTORS
330
1E7A
102
}
330
1E7A
100
AcDbScale
 70
     0
300
3/8" = 1'-0"
140
0.375
141
12.0
290
     0
  0
SCALE
  5
1E95
102
{ACAD_REACTORS
330
1E7A
102
}
330
1E7A
100
AcDbScale
 70
     0
300
1/2" = 1'-0"
140
0.5
141
12.0
290
     0
  0
SCALE
  5
1E96
102
{ACAD_REACTORS
330
1E7A
102
}
330
1E7A
100
AcDbScale
 70
     0
300
3/4" = 1'-0"
140
0.75
141
12.0
290
     0
  0
SCALE
  5
1E97
102
{ACAD_REACTORS
330
1E7A
102
}
330
1E7A
100
AcDbScale
 70
     0
300
1" = 1'-0"
140
1.0
141
12.0
290
     0
  0
SCALE
  5
1E98
102
{ACAD_REACTORS
330
1E7A
102
}
330
1E7A
100
AcDbScale
 70
     0
300
1-1/2" = 1'-0"
140
1.5
141
12.0
290
     0
  0
SCALE
  5
1E99
102
{ACAD_REACTORS
330
1E7A
102
}
330
1E7A
100
AcDbScale
 70
     0
300
3" = 1'-0"
140
3.0
141
12.0
290
     0
  0
SCALE
  5
1E9A
102
{ACAD_REACTORS
330
1E7A
102
}
330
1E7A
100
AcDbScale
 70
     0
300
6" = 1'-0"
140
6.0
141
12.0
290
     0
  0
SCALE
  5
1E9B
102
{ACAD_REACTORS
330
1E7A
102
}
330
1E7A
100
AcDbScale
 70
     0
300
1'-0" = 1'-0"
140
12.0
141
12.0
290
     0
  0
TABLESTYLE
  5
1E79
102
{ACAD_XDICTIONARY
360
1ED6
102
}
102
{ACAD_REACTORS
330
1E78
102
}
330
1E78
100
AcDbTableStyle
  3
Standard
 70
     0
 71
     0
 40
1.5
 41
1.5
280
     0
281
     0
  7
Standard
140
4.5
170
     2
 62
     0
 63
     7
283
     0
274
    -2
284
     1
 64
     0
275
    -2
285
     1
 65
     0
276
    -2
286
     1
 66
     0
277
    -2
287
     1
 67
     0
278
    -2
288
     1
 68
     0
279
    -2
289
     1
 69
     0
  7
Standard
140
6.0
170
     5
 62
     0
 63
     7
283
     0
274
    -2
284
     1
 64
     0
275
    -2
285
     1
 65
     0
276
    -2
286
     1
 66
     0
277
    -2
287
     1
 67
     0
278
    -2
288
     1
 68
     0
279
    -2
289
     1
 69
     0
  7
Standard
140
4.5
170
     5
 62
     0
 63
     7
283
     0
274
    -2
284
     1
 64
     0
275
    -2
285
     1
 65
     0
276
    -2
286
     1
 66
     0
277
    -2
287
     1
 67
     0
278
    -2
288
     1
 68
     0
279
    -2
289
     1
 69
     0
  0
VISUALSTYLE
  5
1E6D
102
{ACAD_REACTORS
330
1E67
102
}
330
1E67
100
AcDbVisualStyle
  2
2dWireframe
 70
     4
 71
     0
 72
     2
 73
     0
 90
        0
 40
-0.6
 41
-30.0
 62
     5
 63
     7
421
 16777215
 74
     1
 91
        4
 64
     7
 65
   257
 75
     1
175
     1
 42
1.0
 92
        0
 66
   257
 43
1.0
 76
     1
 77
     6
 78
     2
 67
     7
 79
     5
170
     0
171
     0
290
     0
174
     0
 93
        1
 44
0.0
173
     0
291
     0
 45
0.0
1001
ACAD
1000
AcDbSavedByObjectVersion
1070
     0
  0
VISUALSTYLE
  5
1E6F
102
{ACAD_REACTORS
330
1E67
102
}
330
1E67
100
AcDbVisualStyle
  2
3D Hidden
 70
     6
 71
     1
 72
     2
 73
     2
 90
        0
 40
-0.6
 41
-30.0
 62
     5
 63
     7
421
 16777215
 74
     2
 91
        2
 64
     7
 65
   257
 75
     2
175
     1
 42
40.0
 92
        0
 66
   257
 43
1.0
 76
     1
 77
     6
 78
     2
 67
     7
 79
     3
170
     0
171
     0
290
     0
174
     0
 93
        1
 44
0.0
173
     0
291
     0
 45
0.0
1001
ACAD
1000
AcDbSavedByObjectVersion
1070
     0
  0
VISUALSTYLE
  5
1E6E
102
{ACAD_REACTORS
330
1E67
102
}
330
1E67
100
AcDbVisualStyle
  2
3dWireframe
 70
     5
 71
     0
 72
     2
 73
     0
 90
        0
 40
-0.6
 41
-30.0
 62
     5
 63
     7
421
 16777215
 74
     1
 91
        4
 64
     7
 65
   257
 75
     1
175
     1
 42
1.0
 92
        0
 66
   257
 43
1.0
 76
     1
 77
     6
 78
     2
 67
     7
 79
     5
170
     0
171
     0
290
     0
174
     0
 93
        1
 44
0.0
173
     0
291
     0
 45
0.0
1001
ACAD
1000
AcDbSavedByObjectVersion
1070
     0
  0
VISUALSTYLE
  5
1E6C
102
{ACAD_REACTORS
330
1E67
102
}
330
1E67
100
AcDbVisualStyle
  2
Basic
 70
     7
 71
     1
 72
     0
 73
     1
 90
        0
 40
-0.6
 41
-30.0
 62
     5
 63
     7
421
 16777215
 74
     0
 91
        4
 64
     7
 65
   257
 75
     1
175
     1
 42
1.0
 92
        8
 66
     7
 43
1.0
 76
     1
 77
     6
 78
     2
 67
     7
 79
     5
170
     0
171
     0
290
     0
174
     0
 93
        1
 44
0.0
173
     0
291
     1
 45
0.0
1001
ACAD
1000
AcDbSavedByObjectVersion
1070
     0
  0
VISUALSTYLE
  5
1E73
102
{ACAD_REACTORS
330
1E67
102
}
330
1E67
100
AcDbVisualStyle
  2
Brighten
 70
    12
 71
     2
 72
     2
 73
     0
 90
        0
 40
-0.6
 41
-30.0
 62
     5
 63
     7
421
 16777215
 74
     1
 91
        4
 64
     7
 65
   257
 75
     1
175
     1
 42
1.0
 92
        8
 66
     7
 43
1.0
 76
     1
 77
     6
 78
     2
 67
     7
 79
     5
170
     0
171
     0
290
     0
174
     0
 93
        1
 44
50.0
173
     0
291
     1
 45
0.0
1001
ACAD
1000
AcDbSavedByObjectVersion
1070
     0
  0
VISUALSTYLE
  5
1E77
102
{ACAD_REACTORS
330
1E67
102
}
330
1E67
100
AcDbVisualStyle
  2
ColorChange
 70
    16
 71
     2
 72
     2
 73
     3
 90
        0
 40
-0.6
 41
-30.0
 62
     5
 63
     8
421
  8421504
 74
     1
 91
        4
 64
     7
 65
   257
 75
     1
175
     1
 42
1.0
 92
        8
 66
     8
424
  8421504
 43
1.0
 76
     1
 77
     6
 78
     2
 67
     7
 79
     5
170
     0
171
     0
290
     0
174
     0
 93
        1
 44
0.0
173
     0
291
     1
 45
0.0
1001
ACAD
1000
AcDbSavedByObjectVersion
1070
     0
  0
VISUALSTYLE
  5
1E70
102
{ACAD_REACTORS
330
1E67
102
}
330
1E67
100
AcDbVisualStyle
  2
Conceptual
 70
     9
 71
     3
 72
     2
 73
     0
 90
        0
 40
-0.6
 41
-30.0
 62
     5
 63
     7
421
 16777215
 74
     2
 91
        2
 64
     7
 65
   257
 75
     1
175
     1
 42
40.0
 92
        8
 66
     7
 43
1.0
 76
     1
 77
     6
 78
     2
 67
     7
 79
     3
170
     0
171
     0
290
     0
174
     0
 93
        1
 44
0.0
173
     0
291
     0
 45
0.0
1001
ACAD
1000
AcDbSavedByObjectVersion
1070
     0
  0
VISUALSTYLE
  5
1E72
102
{ACAD_REACTORS
330
1E67
102
}
330
1E67
100
AcDbVisualStyle
  2
Dim
 70
    11
 71
     2
 72
     2
 73
     0
 90
        0
 40
-0.6
 41
-30.0
 62
     5
 63
     7
421
 16777215
 74
     1
 91
        4
 64
     7
 65
   257
 75
     1
175
     1
 42
1.0
 92
        8
 66
     7
 43
1.0
 76
     1
 77
     6
 78
     2
 67
     7
 79
     5
170
     0
171
     0
290
     0
174
     0
 93
        1
 44
-50.0
173
     0
291
     1
 45
0.0
1001
ACAD
1000
AcDbSavedByObjectVersion
1070
     0
  0
VISUALSTYLE
  5
1E76
102
{ACAD_REACTORS
330
1E67
102
}
330
1E67
100
AcDbVisualStyle
  2
Facepattern
 70
    15
 71
     2
 72
     2
 73
     0
 90
        0
 40
-0.6
 41
-30.0
 62
     5
 63
     7
421
 16777215
 74
     1
 91
        4
 64
     7
 65
   257
 75
     1
175
     1
 42
1.0
 92
        8
 66
     7
 43
1.0
 76
     1
 77
     6
 78
     2
 67
     7
 79
     5
170
     0
171
     0
290
     0
174
     0
 93
        1
 44
0.0
173
     0
291
     1
 45
0.0
1001
ACAD
1000
AcDbSavedByObjectVersion
1070
     0
  0
VISUALSTYLE
  5
1E68
102
{ACAD_REACTORS
330
1E67
102
}
330
1E67
100
AcDbVisualStyle
  2
Flat
 70
     0
 71
     2
 72
     1
 73
     1
 90
        2
 40
-0.6
 41
30.0
 62
     5
 63
     7
421
 16777215
 74
     0
 91
        4
 64
     7
 65
   257
 75
     1
175
     1
 42
1.0
 92
        8
 66
     7
 43
1.0
 76
     1
 77
     6
 78
     2
 67
     7
 79
     5
170
     0
171
     0
290
     0
174
     0
 93
       13
 44
0.0
173
     0
291
     1
 45
0.0
1001
ACAD
1000
AcDbSavedByObjectVersion
1070
     0
  0
VISUALSTYLE
  5
1E69
102
{ACAD_REACTORS
330
1E67
102
}
330
1E67
100
AcDbVisualStyle
  2
FlatWithEdges
 70
     1
 71
     2
 72
     1
 73
     1
 90
        2
 40
-0.6
 41
30.0
 62
     5
 63
     7
421
 16777215
 74
     1
 91
        4
 64
     7
 65
   257
 75
     1
175
     1
 42
1.0
 92
        0
 66
   257
 43
1.0
 76
     1
 77
     6
 78
     2
 67
     7
 79
     5
170
     0
171
     0
290
     0
174
     0
 93
       13
 44
0.0
173
     0
291
     1
 45
0.0
1001
ACAD
1000
AcDbSavedByObjectVersion
1070
     0
  0
VISUALSTYLE
  5
1E6A
102
{ACAD_REACTORS
330
1E67
102
}
330
1E67
100
AcDbVisualStyle
  2
Gouraud
 70
     2
 71
     2
 72
     2
 73
     1
 90
        2
 40
-0.6
 41
30.0
 62
     5
 63
     7
421
 16777215
 74
     0
 91
        4
 64
     7
 65
   257
 75
     1
175
     1
 42
1.0
 92
        0
 66
     7
 43
1.0
 76
     1
 77
     6
 78
     2
 67
     7
 79
     5
170
     0
171
     0
290
     0
174
     0
 93
       13
 44
0.0
173
     0
291
     1
 45
0.0
1001
ACAD
1000
AcDbSavedByObjectVersion
1070
     0
  0
VISUALSTYLE
  5
1E6B
102
{ACAD_REACTORS
330
1E67
102
}
330
1E67
100
AcDbVisualStyle
  2
GouraudWithEdges
 70
     3
 71
     2
 72
     2
 73
     1
 90
        2
 40
-0.6
 41
30.0
 62
     5
 63
     7
421
 16777215
 74
     1
 91
        4
 64
     7
 65
   257
 75
     1
175
     1
 42
1.0
 92
        0
 66
   257
 43
1.0
 76
     1
 77
     6
 78
     2
 67
     7
 79
     5
170
     0
171
     0
290
     0
174
     0
 93
       13
 44
0.0
173
     0
291
     1
 45
0.0
1001
ACAD
1000
AcDbSavedByObjectVersion
1070
     0
  0
VISUALSTYLE
  5
1E75
102
{ACAD_REACTORS
330
1E67
102
}
330
1E67
100
AcDbVisualStyle
  2
Linepattern
 70
    14
 71
     2
 72
     2
 73
     0
 90
        0
 40
-0.6
 41
-30.0
 62
     5
 63
     7
421
 16777215
 74
     1
 91
        4
 64
     7
 65
   257
 75
     7
175
     7
 42
1.0
 92
        8
 66
     7
 43
1.0
 76
     1
 77
     6
 78
     2
 67
     7
 79
     5
170
     0
171
     0
290
     0
174
     0
 93
        1
 44
0.0
173
     0
291
     1
 45
0.0
1001
ACAD
1000
AcDbSavedByObjectVersion
1070
     0
  0
VISUALSTYLE
  5
1E71
102
{ACAD_REACTORS
330
1E67
102
}
330
1E67
100
AcDbVisualStyle
  2
Realistic
 70
     8
 71
     2
 72
     2
 73
     0
 90
        0
 40
-0.6
 41
-30.0
 62
     5
 63
     7
421
 16777215
 74
     1
 91
        0
 64
     7
 65
   257
 75
     1
175
     1
 42
1.0
 92
        8
 66
     8
424
  7895160
 43
1.0
 76
     1
 77
     6
 78
     2
 67
     7
 79
     5
170
     0
171
     0
290
     0
174
     0
 93
       13
 44
0.0
173
     0
291
     0
 45
0.0
1001
ACAD
1000
AcDbSavedByObjectVersion
1070
     0
  0
VISUALSTYLE
  5
1E74
102
{ACAD_REACTORS
330
1E67
102
}
330
1E67
100
AcDbVisualStyle
  2
Thicken
 70
    13
 71
     2
 72
     2
 73
     0
 90
        0
 40
-0.6
 41
-30.0
 62
     5
 63
     7
421
 16777215
 74
     1
 91
        4
 64
     7
 65
   257
 75
     1
175
     1
 42
1.0
 92
       12
 66
     7
 43
1.0
 76
     1
 77
     6
 78
     2
 67
     7
 79
     5
170
     0
171
     0
290
     0
174
     0
 93
        1
 44
0.0
173
     0
291
     1
 45
0.0
1001
ACAD
1000
AcDbSavedByObjectVersion
1070
     0
  0
DICTIONARYVAR
  5
1ED5
102
{ACAD_REACTORS
330
1ED2
102
}
330
1ED2
100
DictionaryVariables
280
     0
  1
1:1
  0
DICTIONARYVAR
  5
1ED4
102
{ACAD_REACTORS
330
1ED2
102
}
330
1ED2
100
DictionaryVariables
280
     0
  1
STANDARD
  0
DICTIONARYVAR
  5
1ED3
102
{ACAD_REACTORS
330
1ED2
102
}
330
1ED2
100
DictionaryVariables
280
     0
  1
STANDARD
  0
DICTIONARY
  5
1EB4
330
1880
100
AcDbDictionary
280
     1
281
     1
  3
ADSK_XREC_LAYOUTTHUMBNAIL
360
1EB5
  0
DICTIONARY
  5
1E60
330
1E5F
100
AcDbDictionary
280
     1
281
     1
  3
ACAD_XREC_ROUNDTRIP
360
1EDB
  3
BUMPTILE
360
1E62
  3
DIFFUSETILE
360
1E61
  3
OPACITYTILE
360
1E65
  3
REFLECTIONTILE
360
1E64
  3
REFRACTIONTILE
360
1E66
  3
SPECULARTILE
360
1E63
  0
DICTIONARY
  5
1E58
330
1E57
100
AcDbDictionary
280
     1
281
     1
  3
ACAD_XREC_ROUNDTRIP
360
1EDA
  3
BUMPTILE
360
1E5A
  3
DIFFUSETILE
360
1E59
  3
OPACITYTILE
360
1E5D
  3
REFLECTIONTILE
360
1E5C
  3
REFRACTIONTILE
360
1E5E
  3
SPECULARTILE
360
1E5B
  0
DICTIONARY
  5
56
330
55
100
AcDbDictionary
280
     1
281
     1
  3
ACAD_XREC_ROUNDTRIP
360
1ED9
  3
BUMPTILE
360
58
  3
DIFFUSETILE
360
59
  3
OPACITYTILE
360
5A
  3
REFLECTIONTILE
360
5B
  0
DICTIONARY
  5
1ED6
330
1E79
100
AcDbDictionary
280
     1
281
     1
  3
ACAD_ROUNDTRIP_2008_TABLESTYLE_CELLSTYLEMAP
360
1ED7
  3
ACAD_XREC_ROUNDTRIP
360
1EDC
  0
XRECORD
  5
1EB5
102
{ACAD_REACTORS
330
1EB4
102
}
330
1EB4
100
AcDbXrecord
280
     1
310
28000000B40000007F00000001000800000000004C59000000000000000000000001000000000000FFFFFF0000000000FFFFFF000000000000000000000000000000000000000000000000000000000000000000330000006600000099000000CC000000FF00000000330000333300006633000099330000CC330000FF3300
310
0000660000336600006666000099660000CC660000FF66000000990000339900006699000099990000CC990000FF99000000CC000033CC000066CC000099CC0000CCCC0000FFCC000000FF000033FF000066FF000099FF0000CCFF0000FFFF000000003300330033006600330099003300CC003300FF003300003333003333
310
33006633330099333300CC333300FF33330000663300336633006666330099663300CC663300FF66330000993300339933006699330099993300CC993300FF99330000CC330033CC330066CC330099CC3300CCCC3300FFCC330000FF330033FF330066FF330099FF3300CCFF3300FFFF330000006600330066006600660099
310
006600CC006600FF00660000336600333366006633660099336600CC336600FF33660000666600336666006666660099666600CC666600FF66660000996600339966006699660099996600CC996600FF99660000CC660033CC660066CC660099CC6600CCCC6600FFCC660000FF660033FF660066FF660099FF6600CCFF6600
310
FFFF660000009900330099006600990099009900CC009900FF00990000339900333399006633990099339900CC339900FF33990000669900336699006666990099669900CC669900FF66990000999900339999006699990099999900CC999900FF99990000CC990033CC990066CC990099CC9900CCCC9900FFCC990000FF99
310
0033FF990066FF990099FF9900CCFF9900FFFF99000000CC003300CC006600CC009900CC00CC00CC00FF00CC000033CC003333CC006633CC009933CC00CC33CC00FF33CC000066CC003366CC006666CC009966CC00CC66CC00FF66CC000099CC003399CC006699CC009999CC00CC99CC00FF99CC0000CCCC0033CCCC0066CC
310
CC0099CCCC00CCCCCC00FFCCCC0000FFCC0033FFCC0066FFCC0099FFCC00CCFFCC00FFFFCC000000FF003300FF006600FF009900FF00CC00FF00FF00FF000033FF003333FF006633FF009933FF00CC33FF00FF33FF000066FF003366FF006666FF009966FF00CC66FF00FF66FF000099FF003399FF006699FF009999FF00CC
310
99FF00FF99FF0000CCFF0033CCFF0066CCFF0099CCFF00CCCCFF00FFCCFF0000FFFF0033FFFF0066FFFF0099FFFF00CCFFFF00FFFFFF00000000000D0D0D001A1A1A00282828003535350043434300505050005D5D5D006B6B6B00787878008686860093939300A1A1A100AEAEAE00BBBBBB00C9C9C900D6D6D600E4E4E400
310
F1F1F100FFFFFF0000000000000000000000000000000000000000000000000000000000000000000000000000000000E2E2E2E2E2E2E2E2E2E2E2E2E2E2E2E2E2E2E2E2E2E2E2E2E2E2E2E2E2E2E2E2E2E2E2E2E2E2E2E2E2E2E2E2E2E2E2E2E2E2E2E2E2E2E2E2E2E2E2E2E2E2E2E2E2E2E2E2E2E2E2E2E2E2E2E2E2E2E2
310
E2E2E2E2E2E2E2E2E2E2E2E2E2E2E2E2E2E2E2E2E2E2E2E2E2E2E2E2E2E2E2E2E2E2E2E2E2E2E2E2E2E2E2E2E2E2E2E2E2E2E2E2E2E2E2E2E2E2E2E2E2E2E2E2E2E2E2E2E2E2E2E2E2E2E2E2E2E2E2E2E2E2E2E2E2E2E2E2E2E2E2E2E2E2E2E2E2E2E2E2E2F5F5F5F5F5F5F5F5F5F5F5F5F5F5F5F5F5F5F5F5F5F5F5F5F5F5
310
F5F5F5F5F5F5F5F5F5F5F5F5F5F5F5F5F5F5F5F5F5F5F5F5F5F5F5F5F5F5F5F5F5F5F5F5F5F5F5F5F5F5F5F5F5F5F5F5F5F5F5F5F5F5F5F5F5F5F5F5F5F5F5F5F5F5F5F5F5F5F5F5F5F5F5F5F5F5F5F5F5F5F5F5F5F5F5F5F5F5F5F5F5F5F5F5F5F5F5F5F5F5F5F5F5F5F5F5F5F5F5F5F5F5F5F5F5F5F5F5F5F5F5F5F5F5F5
310
F5F5F5F5F5F5F5F5F5F5F5F5F5F5F5F5F5F5F5F5F5F5F5F5F5E2E2F5F5F5F5F5F5F5F5F5F5F5F5F5F5F5F5F5F5F5F5F5F5F5F5F5F5F5F5F5F5F5F5F5F5F5F5F5F5F5F5F5F5F5F5F5F5F5F5F5F5F5F5F5F5F5F5F5F5F5F5F5F5F5F5F5F5F5F5F5F5F5F5F5F5F5F5F5F5F5F5F5F5F5F5F5F5F5F5F5F5F5F5F5F5F5F5F5F5F5F5
310
F5F5F5F5F5F5F5F5F5F5F5F5F5F5F5F5F5F5F5F5F5F5F5F5F5F5F5F5F5F5F5F5F5F5F5F5F5F5F5F5F5F5F5F5F5F5F5F5F5F5F5F5F5F5F5F5F5F5F5F5F5F5F5F5F5F5F5F5F5F5F5F5F5F5F5F5F5F5E2E2F5F5E2E2E2E2E2E2E2E2F5F5F5F5F5F5F5F5F5E2E2E2E2E2E2E2E2E2E2E2E2E2E2E2E2F5F5F5F5F5F5F5F5F5E2E2E2
310
E2E2E2E2E2E2E2E2E2E2E2E2E2F5F5F5F5F5F5F5F5E2E2E2E2E2E2E2E2E2E2E2E2E2E2E2E2F5F5F5F5F5F5F5F5F5E2E2E2E2E2E2E2E2E2E2E2E2E2E2E2E2F5F5F5F5F5F5F5F5E2E2E2E2E2E2E2E2E2E2E2E2E2E2E2E2F5F5F5F5F5F5F5F5F5E2E2E2E2E2E2E2E2E2E2E2E2E2E2E2E2F5F5F5F5F5F5F5F5F5E2E2E2E2E2E2E2
310
E2F5F5F5E2E2F5F5E2F5F5F5F5F5F5F5F5F5F5F5F5F5F5F5F5F5F5F5F5F5F5F5F5F5F5F5F5F5F5F5F5F5F5F5F5F5F5F5F5F5F5F5F5F5F5F5F5F5F5F5F5F5F5F5F5F5F5F5F5F5F5F5F5F5F5F5F5F5F5F5F5F5F5F5F5F5F5F5F5F5F5F5F5F5F5F5F5F5F5F5F5F5F5F5F5F5F5F5F5F5F5F5F5F5F5F5F5F5F5F5F5F5F5F5F5F5F5
310
F5F5F5F5F5F5F5F5F5F5F5F5F5F5F5F5F5F5F5F5F5F5F5F5F5F5F5F5F5F5F5F5F5F5F5F5F5F5F5F5F5F5F5F5F5F5F5F5F5F5F5F5F5E2F5F5F5E2E2F5F5E2F5F5F5F5F5F5F5F5F5F5F5F5F5F5F5F5F5F5F5F5F5F5F5F5F5F5F5F5F5F5F5F5F5F5F5F5F5F5F5F5F5F5F5F5F5F5F5F5F5F5F5F5F5F5F5F5F5F5F5F5F5F5F5F5F5
310
F5F5F5F5F5F5F5F5F5F5F5F5F5F5F5F5F5F5F5F5F5F5F5F5F5F5F5F5F5F5F5F5F5F5F5F5F5F5F5F5F5F5F5F5F5F5F5F5F5F5F5F5F5F5F5F5F5F5F5F5F5F5F5F5F5F5F5F5F5F5F5F5F5F5F5F5F5F5F5F5F5F5F5F5F5F5F5F5F5F5F5F5F5F5F5F5F5F5F5F5F5F5F5F5F5F5E2F5F5F5E2E2F5F5E2C3C3C3C3C3C3C3C3C3C3C3C3
310
C3C3C3C3C3C3C3C3C3C3C3C3C3C3C3C3C3C3C3C3C3C3C3C3C3C3C3C3C3C3C3C3C3C3C3C3C3C3C3C3C3C3C3C3C3C3C3C3C3C3C3C3C3C3C3C3C3C3C3C3C3C3C3C3C3C3C3C3C3C3C3C3C3C3C3C3C3C3C3C3C3C3C3C3C3C3C3C3C3C3C3C3C3C3C3C3C3C3C3C3C3C3C3C3C3C3C3C3C3C3C3C3C3C3C3C3C3C3C3C3C3C3C3C3C3C3C3
310
C3C3C3C3C3C3C3C3C3C3C3C3C3C3C3C3C3C3C3C3C3C3C3C3C3C3C3C3C3C3C3C3E2F5F5F5E2E2F5F5E2C3F5F5F5F5F5F5F5F5F5F5F5F5F5F5F5F5F5F5F5F5F5F5F5F5F5F5F5F5F5F5F5F5F5F5F5F5F5F5F5F5F5F5F5F5F5F5F5F5F5F5F5F5F5F5F5F5F5F5F5F5F5F5F5F5F5F5F5F5F5F5F5F5F5F5F5F5F5F5F5F5F5F5F5F5F5
310
F5F5F5F5F5F5F5F5F5F5F5F5F5F5F5F5F5F5F5F5F5F5F5F5F5F5F5F5F5F5F5F5F5F5F5F5F5F5F5F5F5F5F5F5F5F5F5F5F5F5F5F5F5F5F5F5F5F5F5F5F5F5F5F5F5F5F5F5F5F5F5F5F5F5F5F5F5F5F5F5F5F5F5F5C3E2F5F5F5E2E2F5F5E2C3F5F5F5F5F5F5F5F5F5F5F5F5F5F5F5F5F5F5F5F5F5F5F5F5F5F5F5F5F5F5F5F5
310
F5F5F5F5F5F5F5F5F5F5F5F5F5F5F5F5F5F5F5F5F5F5F5F5F5F5F5F5F5F5F5F5F5F5F5F5F5F5F5F5F5F5F5F5F5F5F5F5F5F5F5F5F5F5F5F5F5F5F5F5F5F5F5F5F5F5F5F5F5F5F5F5F5F5F5F5F5F5F5F5F5F5F5F5F5F5F5F5F5F5F5F5F5F5F5F5F5F5F5F5F5F5F5F5F5F5F5F5F5F5F5F5F5F5F5F5F5F5F5F5F5F5F5F5F5F5F5
310
F5F5F5F5F5F5F5F5F5F5C3E2F5F5F5E2E2F5F5E2C3F5F5F5F5F5F5F5F5F5F5F5F5F5F5F5F5F5F5F5F5F5F5F5F5F5F5F5F5F5F5F5F5F5F5F5F5F5F5F5F5F5F5F5F5F5F5F5F5F5F5F5F5F5F5F5F5F5F5F5F5F5F5F5F5F5F5F5F5F5F5F5F5F5F5F5F5F5F5F5F5F5F5F5F5F5F5F5F5F5F5F5F5F5F5F5F5F5F5F5F5F5F5F5F5F5F5
310
F5F5F5E2E2E2E2E2E2E2E2E2E2E2E2E2E2E2E2E2E2E2E2E2E2E2E2E2E2E2E2E2E2E2E2E2E2E2E2E2E2E2E2E2E2E2E2E2E2E2E2E2E2E2E2E2E2E2E2E2E2E2F5C3E2F5F5F5E2E2F5F5E2C3F5F5F5F5F5F5F5F5F5F5F5F5F5F5F5F5F5F5F5F5F5F5F5F5F5F5F5F5F5F5F5F5F5F5F5F5F5F5F5F5F5F5F5F5F5F5F5F5F5F5F5F5F5
310
F5F5F5F5F5F5F5F5F5F5F5F5F5F5F5F5F5F5F5F5F5F5F5F5F5F5F5F5F5F5F5F5F5F5F5F5F5F5F5F5F5F5F5F5F5F5F5F5F5F5F5F5F5F5F5F5E2F5F5F5F5F5F5F528282828282828F52828282828282828282828282828282828282828282828282828F528282828F52828282828F5F5F5F5F5E2F5C3E2F5F5F5E2E2F5F5F5C3
310
F5F5F5F5F5F5F5F5F5F5F5F5F5F5F5F5F5F5F5F5F5F5F5F5F5F5F5F5F5F5F5F5F5F5F5F5F5F5F5F5F5F5F5F5F5F5F5F5F5F5F5F5F5F5F5F5F5F5F5F5F5F5F5F5F5F5F5F5F5F5F5F5F5F5F5F5F5F5F5F5F5F5F5F5F5F5F5F5F5F5F5F5F5F5F5F5F5F5F5F5F5F5F5F5F5F5F5F5F5E2F5F5F5F5F5F5F528282828282828282828
310
2828282828282828282828282828F528282828282828F528F5282828F5F528282828F5F5F5F5F5F5E2F5C3F5F5F5F5E2E2F5F5F5C3F5F5F5F5F5F5F5F5F5F5F5F5F5F5F5F5F5F5F5F5F5F5F5F5F5F5F5F5F5F5F5F5F5F5F5F5F5F5F5F5F5F5F5F5F5F5F5F5F5F5F5F5F5F5F5F5F5F5F5F5F5F5F5F5F5F5F5F5F5F5F5F5F5F5
310
F5F5F5F5F5F5F5F5F5F5F5F5F5F5F5F5F5F5F5F5F5F5F5F5F5F5F5F5F5F5F5F5F5F5F5E2F5F5F5F5F5F5282828282828282828F5282828282828282828F528282828282828F5F528282828F528F5282828F5F5282828F5F5F5F5F5F5F5E2F5C3F5F5F5F5E2E2F5F5F5C3F5F5F5F5F5F5F5F5F5F5F5F5F5F5F5F5F5F5F5F5F5
310
F5F5F5F5F5F5F5F5F5F5F5F5F5F5F5F5F5F5F5F5F5F5F5F5F5F5F5F5F5F5F5F5F5F5F5F5F5F5F5F5F5F5F5F5F5F5F5F5F5F5F5F5F5F5F5F5F5F5F5F5F5F5F5F5F5F5F5F5F5F5F5F5F5F5F5F5F5F5F5F5F5F5F5F5F5F5F5F5E2E2E2E2E2E2E2E2E2E2E2E2E2E2E2E2E2E2E2E2E2E2E2E2E2E2E2E2E2E2E2E2E2E2E2E2E2E2E2
310
E2E2E2E2E2E2E2E2E2E2E2E2E2E2E2E2E2E2E2E2F5C3F5F5F5F5E2E2F5F5F5C3F5F5F5F5F5F5F5F5F5F5F5F5F5F5F5F5F5F5F5F5F5F5F5F5F5F5F5F5F5F5F5F5F5F5F5F5F5F5F5F5F5F5F5F5F5F5F5F5F5F5F5F5F5F5F5F5F5F5F5F5F5F5F5F5F5F5F5F5F5F5F5F5F5F5F5F5F5F5F5F5F5F5F5F5F5F5F5F5F5F5F5F5F5F5F5
310
F5F5F5F5F5F5F5F5F5F5F5F5F5F5E2F52828F52828F5E2F5F5F52828282828F5F528F5282828F5F52828282828282828282828F5F52828F5F5F5F5F5F5F5F5F5F5F5F5F5F5F5F5F5E2F5C3F5F5F5F5E2E2F5F5F5C3F5F5F5F5F5F5F5F5F5F5F5F5F5F5F5F5F5F5F5F5F5F5F5F5F5F5F5F5F5F5F5F5F5F5F5F5F5F5F5F5F5F5
310
F5F5F5F5F5F5F5F5F5F5F5F5F5F5F5F5F5F5F5F5F5F5F5F5F5F5F5F5F5F5F5F5F5F5F5F5F5F5F5F5F5F5F5F5F5F5F5F5F5F5F5F5F5F5F5F5F5F5F5F5F5F5F5F5F5F5F5E2F52828282828F5E2F5F5F52828282828282828282828282828282828282828282828F52828282828F5F5F5F5F5F5F5F5F5F5F5F5F5F5F5F5F5E2F5
310
C3F5F5F5F5E2E2F5F5F5C3F5F5F5F5F5F5F5F5F5F5F5F5F5F5F5F5F5F5F5F5F5F5F5F5F5F5F5F5F5F5F5F5F5F5F5F5F5F5F5F5F5F5F5F5F5F5F5F5F5F5F5F5F5F5F5F5F5F5F5F5F5F5F5F5F5F5F5F5F5F5F5F5F5F5F5F5F5F5F5F5F5F5F5F5F5F5F5F5F5F5F5F5F5F5F5F5F5F5F5F5F5F5F5F5F5F5F5F5F5E2F52828282828
310
F5E2F5F5282828282828F5F52828282828F5F52828282828282828282828F5F52828F5F5F5F5F5F5F5F5F5F5F5F5F5F5F5F5F5E2F5C3F5F5F5F5E2E2F5F5F5C3F5F5F5F5F5F5F5F5F5F5F5F5F5F5F5F5F5F5F5F5F5F5F5F5F5F5F5F5F5F5F5F5F5F5F5F5F5F5F5F5F5F5F5F5F5F5F5F5F5F5F5F5F5F5F5F5F5F5F5F5F5F5F5
310
F5F5F5F5F5F5F5F5F5F5F5F5F5F5F5F5F5F5F5F5F5F5F5F5F5F5F5F5F5F5F5F5F5F5F5F5F5F5F5F5F5F5F5F5F5F5E2E2E2E2E2E2E2E2E2E2E2E2E2E2E2E2E2E2E2E2E2E2E2E2E2E2E2E2E2E2E2E2E2E2E2E2E2E2E2E2E2E2E2E2E2E2E2E2E2E2E2E2E2E2E2E2E2E2E2F5C3F5F5F5F5E2E2F5F5F5C3F5F5F5F5F5F5F5F5F5F5
310
F5F5F5F5F5F5F5F5F5F5F5F5F5F5F5F5F5F5F5F5F5F5F5F5F5F5F5F5F5F5F5F5F5F5F5F5F5F5F5F5F5F5F5F5F5F5F5F5F5F5F5F5F5F5F5F5F5F5F5F5F5F5F5F5F5F5F5F5F5F5F5F5F5F5F5F5F5F5F5F5F5F5F5F5F5F5F5F5F5F5F5F5F5F5F5F5F5F5F5E2F5282828F528F5E2F5F5F528F52828F5F5F528282828F5F5F52828
310
28282828F5F52828F5F5F5F5F5E2F5F528282828F5E2F5282828282828F5E2F5C3F5F5F5F5E2E2F5F5F5C3F5F5F5F5F5F5F5F5F5F5F5F5F5F5F5F5F5F5F5F5F5F5F5F5F5F5F5F5F5F5F5F5F5F5F5F5F5F5F5F5F5F5F5F5F5F5F5F5F5F5F5F5F5F5F5F5F5F5F5F5F5F5F5F5F5F5F5F5F5F5F5F5F5F5F5F5F5F5F5F5F5F5F5F5
310
F5F5F5F5F5F5F5F5F5F5F5F5F5F5F5F5F5F5F5F5F5F5F5F5F5E2F52828282828F5E2F5F5F528282828282828282828282828F52828F528282828282828F5F5F5F5F5E2F52828282828F5E2F5282828282828F5E2F5C3F5F5F5F5E2E2F5F5E2C3F5F5F5F5F5F5F5F5F5F5F5F5F5F5F5F5F5F5F5F5F5F5F5F5F5F5F5F5F5F5F5
310
F5F5F5F5F5F5F5F5F5F5F5F5F5F5F5F5F5F5F5F5F5F5F5F5F5F5F5F5F5F5F5F5F5F5F5F5F5F5F5F5F5F5F5F5F5F5F5F5F5F5F5F5F5F5F5F5F5F5F5F5F5F5F5F5F5F5F5F5F5F5F5F5F5F5F5F5F5F5E2F52828282828F5E2F5F5F5F528282828F5F528F52828F5F5282828F528F528F5F5F528F5F5F5F5F5E2F52828282828F5
310
E2F5282828282828F5E2F5C3E2F5F5F5E2E2F5F5E2C3F5F5F5F5F5F5F5F5F5F5F5F5F5F5F5F5F5F5F5F5F5F5F5F5F5F5F5F5F5F5F5F5F5F5F5F5F5F5F5F5F5F5F5F5F5F5F5F5F5F5F5F5F5F5F5F5F5F5F5F5F5F5F5F5F5F5F5F5F5F5F5F5F5F5F5F5F5F5F5F5F5F5F5F5F5F5F5F5F5F5F5F5F5F5F5F5F5F5F5F5F5F5F5F5F5
310
F5F5F5F5E2E2E2E2E2E2E2E2E2E2E2E2E2E2E2E2E2E2E2E2E2E2E2E2E2E2E2E2E2E2E2E2E2E2E2E2E2E2E2E2E2E2E2E2E2E2E2E2E2E2E2E2E2E2E2E2E2E2E2F5C3E2F5F5F5E2E2F5F5E2C3F5F5F5F5F5F5F5F5F5F5F5F5F5F5F5F5F5F5F5F5F5F5F5F5F5F5F5F5F5F5F5F5F5F5F5F5F5F5F5F5F5F5F5F5F5F5F5F5F5F5F5F5
310
F5F5F5F5F5F5F5F5F5F5F5F5F5F5F5F5F5F5F5F5F5F5F5F5F5F5F5F5F5F5F5F5F5F5F5F5F5F5F5F5F5F5F5F5F5F5F5F5F5F5F5F5F5F5F5F5F5E2F52828282828F5E2F528282828282828282828282828F5F528F5282828F5282828F5282828F5F5F5E2F528F5282828F5E2F5F5F5F5F5F5F5F5E2F5C3E2F5F5F5E2E2F5F5E2
310
C3F5F5F5F5F5F5F5F5F5F5F5F5F5F5F5F5F5F5F5F5F5F5F5F5F5F5F5F5F5F5F5F5F5F5F5F5F5F5F5F5F5F5F5F5F5F5F5F5F5F5F5F5F5F5F5F5F5F5F5F5F5F5F5F5F5F5F5F5F5F5F5F5F5F5F5F5F5F5F5F5F5F5F5F5F5F5F5F5F5F5F5F5F5F5F5F5F5F5F5F5F5F5F5F5F5F5F5F5F5E2F52828282828F5E2F528282828282828
310
282828282828F5F5F5282828282828282828282828F5F5F5E2F52828282828F5E2F5F5F5F5F5F5F5F5E2F5C3E2F5F5F5E2E2F5F5E2C3F5F5F5F5F5F5F5F5F5F5F5F5F5F5F5F5F5F5F5F5F5F5F5F5F5F5F5F5F5F5F5F5F5F5F5F5F5F5F5F5F5F5F5F5F5F5F5F5F5F5F5F5F5F5F5F5F5F5F5F5F5F5F5F5F5F5F5F5F5F5F5F5F5
310
F5F5F5F5F5F5F5F5F5F5F5F5F5F5F5F5F5F5F5F5F5F5F5F5F5F5F5F5F5F5F5F5F5F5F5F5E2F52828282828F5E2F528282828282828282828282828F5F528282828282828282828282828F5F5F5E2F52828282828F5E2F5282828282828F5E2F5C3E2F5F5F5E2E2F5F5E2C3F5F5F5F5F5F5F5F5F5F5F5F5F5F5F5F5F5F5F5F5
310
F5F5F5F5F5F5F5F5F5F5F5F5F5F5F5F5F5F5F5F5F5F5F5F5F5F5F5F5F5F5F5F5F5F5F5F5F5F5F5F5F5F5F5F5F5F5F5F5F5F5F5F5F5F5F5F5F5F5F5F5F5F5F5F5F5F5F5F5F5F5F5F5F5F5F5F5F5F5F5F5F5F5F5F5F5F5F5F5F5E2F528F5F528F5F5E2F528F5F5F52828F52828F5282828F5F5F52828F5F528F5282828F5F5F5
310
F5F5F5E2F5F5F5F528F5F5E2F5F5F5F5F5F5F5F5E2F5C3E2F5F5F5E2E2F5F5E2C3F5F5F5F5F5F5F5F5F5F5F5F5F5F5F5F5F5F5F5F5F5F5F5F5F5F5F5F5F5F5F5F5F5F5F5F5F5F5F5F5F5F5F5F5F5F5F5F5F5F5F5F5F5F5F5F5F5F5F5F5F5F5F5F5F5F5F5F5F5F5F5F5F5F5F5F5F5F5F5F5F5F5F5F5F5F5F5F5F5F5F5F5F5F5
310
F5F5F5F5F5F5F5F5F5F5F5F5F5F5F5E2E2E2E2E2E2E2E2E2E2E2E2E2E2E2E2E2E2E2E2E2E2E2E2E2E2E2E2E2E2E2E2E2E2E2E2E2E2E2E2E2E2E2E2E2E2E2E2E2E2E2E2E2E2E2E2E2E2E2F5C3E2F5F5F5E2E2F5F5E2C3F5F5F5F5F5F5F5F5F5F5F5F5F5F5F5F5F5F5F5F5F5F5F5F5F5F5F5F5F5F5F5F5F5F5F5F5F5F5F5F5F5
310
F5F5F5F5F5F5F5F5F5F5F5F5F5F5F5F5F5F5F5F5F5F5F5F5F5F5F5F5F5F5F5F5F5F5F5F5F5F5F5F5F5F5F5F5F5F5F5F5F5F5F5F5F5F5F5F5F5F5F5F5F5F5F5F5F5F5F5F5F5F5F5F5F5F5F5F5F5F5F5F5F5F5F5F5F5F5F5F5F5F5F5F5F5F5F5F5F5F5F5F5F5F5F5F5F5F5F5F5F5F5F5F5F5F5F5F5F5F5F5F5F5F5F5F5F5F5F5
310
F5C3E2F5F5F5E2E2F5F5E2C3F5F5F5F5F5F5F5F5F5F5F5F5F5F5F5F5F5F5F5F5F5F5F5F5F5F5F5F5F5F5F5F5F5F5F5F5F5F5F5F5F5F5F5F5F5F5F5F5F5F5F5F5F5F5F5F5F5F5F5F5F5F5F5F5F5F5F5F5F5F5F5F5F5F5F5F5F5F5F5F5F5F5F5F5F5F5F5F5F5F5F5F5F5F5F5F5F5F5F5F5F5F5F5F5F5F5F5F5F5F5F5F5F5F5F5
310
F5F5F5F5F5F5F5F5F5F5F5F5F5F5F5F5F5F5F5F5F5F5F5F5F5F5F5F5F5F5F5F5F5F5F5F5F5F5F5F5F5F5F5F5F5F5F5F5F5F5F5F5F5F5C3E2F5F5F5E2E2F5F5E2C3F5F5F5F5F5F5F5F5F5F5F5F5F5F5F5F5F5F5F5F5F5F5F5F5F5E2E2E2E2E2E2E2E2E2E2E2E2E2E2E2E2E2E2E2E2E2E2E2E2E2E2E2E2F5F5F5F5F5F5F5F5F5
310
F5F5F5F5F5F5F5F5F5F5F5F5F5F5F5F5F5F5F5F5F5F5F5F5F5F5F5F5F5F5F5F5F5F5F5F5F5F5F5F5F5F5F5F5F5F5F5F5F5F5F5F5F5F5F5F5F5F5F5F5F5F5F5F5F5F5F5F5F5F5F5F5F5F5F5F5F5F5F5F5F5F5F5F5F5F5F5F5F5F5F5F5F5F5F5F5F5F5F5F5F5F5F5F5F5F5F5C3E2F5F5F5E2E2F5F5E2C3F5F5F5F5F5F5F5F5F5
310
F5F5F5F5F5F5F5F5F5F5F5F5F5F5F5F5E2E2E2E2E2E2E2E2E2E2E2E2E2E2E2E2E2E2E2E2E2E2E2E2E2E2E2E2F5F5F5F5F5F5F5F5F5F5F5F5F5F5F5F5F5F5F5F5F5F5F5F5F5F5F5F5F5F5F5F5F5F5F5F5F5F5F5F5F5F5F5F5F5F5F5F5F5F5F5F5F5F5F5F5F5F5F5F5F5F5F5F5F5F5F5F5F5F5F5F5F5F5F5F5F5F5F5F5F5F5F5
310
F5F5F5F5F5F5F5F5F5F5F5F5F5F5F5F5F5F5F5F5F5F5F5F5F5F5F5F5F5F5F5F5F5C3E2F5F5F5E2E2F5F5E2C3F5F5F5F5F5F5F5F5F5F5F5F5F5F5F5F5F5F5F5F5F5F5F5F5E2E2E2F5F5F5E2E2E2E2E2F5F5F5F5F5F5F5F5E2E2E2E2E2F5F5F5E2E2F5F5F5F5F5F5F5F5F5F5F5F5F5F5F5F5F5F5F5F5F5F5F5F5F5F5F5F5F5F5
310
F5F5F5F5F5F5F5F5F5F5F5F5F5F5F5F5F5F5F5F5F5F5F5F5F5F5F5F5F5F5F5F5F5F5F5F5F5F5F5F5F5F5F5F5F5F5F5F5F5F5F5F5F5F5F5F5F5F5F5F5F5F5F5F5F5F5F5F5F5F5F5F5F5F5F5F5F5F5F5F5F5F5F5F5F5F5C3E2F5F5F5E2E2F5F5E2C3F5F5F5F5F5F5F5F5F5F5F5F5F5F5F5F5F5F5F5F5F5F5F5F5E2E2F5F5F5E2
310
E2E2E2E2E2E2F5F5F5F5F5F5E2E2E2E2E2E2E2F5F5F5E2E2F5F5F5F5F5F5F5F5F5F5F5F5F5F5F5F5F5F5F5F5F5F5F5F5F5F5F5F5F5F5F5F5F5F5F5F5F5F5F5F5F5F5F5F5F5F5F5F5F5F5F5F5F5F5F5F5F5F5F5F5F5F5F5F5F5F5F5F5F5F5F5F5F5F5F5F5F5F5F5F5F5F5F5F5F5F5F5F5F5F5F5F5F5F5F5F5F5F5F5F5F5F5F5
310
F5F5F5F5F5F5F5F5F5F5F5F5C3E2F5F5F5E2E2F5F5E2C3F5F5F5F5F5F5F5F5F5F5F5F5F5F5F5F5F5F5F5F5F5F5F5F5E2E2E2E2E2E2E2F5F5E2E2E2E2E2E2E2E2E2E2E2F5F5E2F5E2E2E2E2E2E2F5F5F5F5F5F5F5F5F5F5F5F5F5F5F5F5F5F5F5F5F5F5F5F5F5F5F5F5F5F5F5F5F5F5F5F5F5F5F5F5F5F5F5F5F5F5F5F5F5F5
310
F5F5F5F5F5F5F5F5F5F5F5F5F5F5F5F5F5F5F5F5F5F5F5F5F5F5F5F5F5F5F5F5F5F5F5F5F5F5F5F5F5F5F5F5F5F5F5F5F5F5F5F5F5F5F5F5F5F5F5F5F5F5F5F5F5C3E2F5F5F5E2E2F5F5E2C3F5F5F5F5F5F5F5F5F5F5F5F5F5F5F5F5F5F5F5F5F5F5F5F5E2F5F5F5F5E2E2E2F5E2E2E2F5F5F5F5F5F5E2E2E2F5E2F5E2F5F5
310
F5E2E2F5F5F5F5F5F5F5F5F5F5F5F5F5F5F5F5F5F5F5F5F5F5F5F5F5F5F5F5F5F5F5F5F5F5F5F5F5F5F5F5F5F5F5F5F5F5F5F5F5F5F5F5F5F5F5F5F5F5F5F5F5F5F5F5F5F5F5F5F5F5F5F5F5F5F5F5F5F5F5F5F5F5F5F5F5F5F5F5F5F5F5F5F5F5F5F5F5F5F5F5F5F5F5F5F5F5F5F5F5F5F5F5F5F5F5C3E2F5F5F5E2E2F5F5
310
F5C3F5F5F5F5F5F5F5F5F5F5F5F5F5F5F5F5F5F5F5F5F5F5F5F5E2E2F5F5F5E2E2E2E2E2E2F5F5F5F5F5F5F5E2E2E2E2E2E2F5F5F5F5E2E2F5F5F5F5F5F5F5F5F5F5F5F5F5F5F5F5F5F5F5F5F5F5F5F5F5F5F5F5F5F5F5F5F5F5F5F5F5F5F5F5F5F5F5F5F5F5F5F5F5F5F5F5F5F5F5F5F5F5F5F5F5F5F5F5F5F5F5F5F5F5F5
310
F5F5F5F5F5F5F5F5F5F5F5F5F5F5F5F5F5F5F5F5F5F5F5F5F5F5F5F5F5F5F5F5F5F5F5F5F5F5F5F5F5F5F5F5C3F5F5F5F5E2E2F5F5F5C3F5F5F5F5F5F5F5F5F5F5F5F5F5F5F5F5F5F5F5F5F5F5F5F5E2E2E2E2E2E2E2E2E2E2E2E2E2E2E2E2E2E2E2E2E2E2E2E2E2E2E2E2E2F5F5F5F5F5F5F5F5F5F5F5F5F5F5F5F5F5F5F5
310
F5F5F5F5F5F5F5F5F5F5F5F5F5F5F5F5F5F5F5F5F5F5F5F5F5F5F5F5F5F5F5F5F5F5F5F5F5F5F5F5F5F5F5F5F5F5F5F5F5F5F5F5F5F5F5F5F5F5F5F5F5F5F5F5F5F5F5F5F5F5F5F5F5F5F5F5F5F5F5F5F5F5F5F5F5F5F5F5F5F5F5F5F5F5F5F5F5C3F5F5F5F5E2E2F5F5F5C3F5F5F5F5F5F5F5F5F5F5F5F5F5F5F5F5F5F5F5
310
F5F5F5F5F5F5F5E2E2E2E2E2E2E2E2E2E2E2E2E2E2E2E2E2E2E2E2E2E2E2E2E2E2F5F5F5F5F5F5F5F5F5F5F5F5F5F5F5F5F5F5F5F5F5F5F5F5F5F5F5F5F5F5F5F5F5F5F5F5F5F5F5F5F5F5F5F5F5F5F5F5F5F5F5F5F5F5F5F5F5F5F5F5F5F5F5F5F5F5F5F5F5F5F5F5F5F5F5F5F5F5F5F5F5F5F5F5F5F5F5F5F5F5F5F5F5F5
310
F5F5F5F5F5F5F5F5F5F5F5F5F5F5F5F5F5F5F5F5F5F5F5C3F5F5F5F5E2E2F5F5F5C3F5F5F5F5F5F5F5F5F5F5F5F5F5F5F5F5F5F5F5F5F5F5F5F5F5F5F5F5F5F5F5F5F5F5F5F5F5F5F5F5F5F5F5F5F5F5F5F5F5F5F5F5F5F5F5F5F5F5F5F5F5F5F5F5F5F5F5F5F5F5F5F5F5F5F5F5F5F5F5F5F5F5F5F5F5F5F5F5F5F5F5F5F5
310
F5F5F5F5F5F5F5F5F5F5F5F5F5F5F5F5F5F5F5F5F5F5F5F5F5F5F5F5F5F5F5F5F5F5F5F5F5F5F5F5F5F5F5F5F5F5F5F5F5F5F5F5F5F5F5F5F5F5F5F5F5F5F5F5F5F5F5F5F5F5F5F5F5F5F5F5C3F5F5F5F5E2E2F5F5F5C3F5F5F5F5F5F5F5F5F5F5F5F5F5F5F5F5F5F5F5F5F5F5F5F5F5F5F5F5F5F5F5F5F5F5F5F5F5F5F5F5
310
F5F5F5F5F5F5F5F5F5F5F5F5F5F5F5F5F5F5F5F5F5F5F5F5F5F5F5F5F5F5F5F5F5F5F5F5F5F5F5F5F5F5F5F5F5F5F5F5F5F5F5F5F5F5F5F5F5F5F5F5F5F5F5F5F5F5F5F5F5F5F5F5F5F5F5F5F5F5F5F5F5F5F5F5F5F5F5F5F5F5F5F5F5F5F5F5F5F5F5F5F5F5F5F5F5F5F5F5F5F5F5F5F5F5F5F5F5F5F5F5F5F5F5F5F5F5F5
310
F5F5C3F5F5F5F5E2E2F5F5F5C3F5F5F5F5F5F5F5F5F5F5F5F5F5F5F5F5F5F5F5F5F5F5F5F5F5F5F5F5F5F5F5F5F5F5F5F5F5F5F5F5F5F5F5F5F5F5F5F5F5F5F5F5F5F5F5F5F5F5F5F5F5F5F5F5F5F5F5F5F5F5F5F5F5F5F5F5F5F5F5F5F5F5F5F5F5F5F5F5F5F5F5F5F5F5F5F5F5F5F5F5F5F5F5F5F5F5F5F5F5F5F5F5F5F5
310
F5F5F5F5F5F5F5F5F5F5F5F5F5F5F5F5F5F5F5F5F5F5F5F5F5F5F5F5F5F5F5F5F5F5F5F5F5F5F5F5F5F5F5F5F5F5F5F5F5F5F5F5F5F5F5C3F5F5F5F5E2E2F5F5F5C3F5F5F5F5F5F5F5F5F5F5F5F5F5F5F5F5F5F5F5F5F5F5F5F5F5F5F5F5F5F5F5F5F5F5F5F5F5F5F5F5F5F5F5F5F5F5F5F5F5F5F5F5F5F5F5F5F5F5F5F5F5
310
F5F5F5F5F5F5F5F5F5F5F5F5F5F5F5F5F5F5F5F5F5F5F5F5F5F5F5F5F5F5F5F5F5F5F5F5F5F5F5F5F5F5F5F5F5F5F5F5F5F5E2E2E2E2E2E2E2E2E2E2E2E2E2E2E2E2E2E2E2E2E2E2E2E2E2E2E2E2E2E2E2E2E2E2E2E2E2E2E2E2E2E2E2E2E2E2E2E2E2E2E2E2F5F5F5F5F5F5C3F5F5F5F5E2E2F5F5F5C3F5F5F5F5F5F5F5F5
310
F5F5F5F5F5F5F5F5F5F5F5F5F5F5F5F5F5F5F5F5F5F5F5F5F5F5F5F5F5F5F5F5F5F5F5F5F5F5F5F5F5F5F5F5F5F5F5F5F5F5F5F5F5F5F5F5F5F5F5F5F5F5F5F5F5F5F5F5F5F5F5F5F5F5F5F5F5F5F5F5F5F5F5F5F5F5F5F5F5F5F5F5F5F5F5F5F5F5F5F5F5F5F5E2DCDCDCDCDCDCDCF5F5DCF5F5DCDCDCDCDCDCDCDCDCDCDC
310
DCDCDCF5F5F5F5F5F5F5F5F5F5F5F5F5F5F5F5F5F5F5F5F5F5F5F5E2F5F5F5F5F5F5C3F5F5F5F5E2E2F5F5F5C3F5F5F5F5F5F5F5F5F5F5F5F5F5F5F5F5F5F5F5F5F5F5F5F5F5F5F5F5F5F5F5F5F5F5F5F5F5F5F5F5F5F5F5F5F5F5F5F5F5F5F5F5F5F5F5F5F5F5F5F5F5F5F5F5F5F5F5F5F5F5F5F5F5F5F5F5F5F5F5F5F5F5
310
F5F5F5F5F5F5F5F5F5F5F5F5F5F5F5F5F5F5F5F5F5F5F5F5F5F5F5F5F5E2E2E2E2E2E2E2E2E2E2E2E2E2E2E2E2E2E2E2E2E2E2E2E2E2E2E2E2E2E2E2E2E2E2E2E2E2E2E2E2E2E2E2E2E2E2E2E2E2E2E2E2F5F5F5F5F5F5C3F5F5F5F5E2E2F5F5E2C3F5F5F5F5F5F5F5F5F5F5F5F5F5F5F5F5F5F5F5F5F5F5F5F5F5F5F5F5F5
310
F5F5F5F5F5F5F5F5F5F5F5F5F5F5F5F5F5F5F5F5F5F5F5F5F5F5F5F5F5F5F5F5F5F5F5F5F5F5F5F5F5F5F5F5F5F5F5F5F5F5F5F5F5F5F5F5F5F5F5F5F5F5F5F5F5F5F5F5F5F5F5F5F5F5F5F5F5F5F5F5F5F5E2DCDCDCDCF5F5DCF5DCDCDCDCDCDCDCDCF5F5F5F5F5F5F5F5F5F5F5F5F5F5F5F5F5F5F5F5F5F5F5F5F5F5F5F5
310
F5F5F5F5F5F5E2F5F5F5F5F5F5C3E2F5F5F5E2E2F5F5E2C3F5F5F5F5F5F5F5F5F5F5F5F5F5F5F5F5F5F5F5F5F5F5F5F5F5F5F5F5F5F5F5F5F5F5F5F5F5F5F5F5F5F5F5F5F5F5F5F5F5F5F5F5F5F5F5F5F5F5F5F5F5F5F5F5F5F5F5F5F5F5F5F5F5F5F5F5F5F5F5F5F5F5F5F5F5F5F5F5F5F5F5F5F5F5F5F5F5F5F5F5F5F5F5
310
F5F5F5F5F5F5F5F5E2DCDCDCDCF5F5DCF5F5DCDCDCDCDCDCDCF5F5F5F5F5F5F5F5F5F5F5F5F5F5F5F5F5F5F5F5F5F5F5F5F5F5F5F5F5F5F5F5F5F5E2F5F5F5F5F5F5C3E2F5F5F5E2E2F5F5E2C3F5F5F5F5F5F5F5F5F5F5F5F5F5F5F5F5F5F5F5F5F5F5F5F5F5F5F5F5F5F5F5F5F5F5F5F5F5F5F5F5F5F5F5F5F5F5F5F5F5F5
310
F5F5F5F5F5F5F5F5F5F5F5F5F5F5F5F5F5F5F5F5F5F5F5F5F5F5F5F5F5F5F5F5F5F5F5F5F5F5F5F5F5F5F5F5F5F5F5F5F5F5F5F5F5F5F5F5F5F5F5F5F5E2E2E2E2E2E2E2E2E2E2E2E2E2E2E2E2E2E2E2E2E2E2E2E2E2E2E2E2E2E2E2E2E2E2E2E2E2E2E2E2E2E2E2E2E2E2E2E2E2E2E2E2F5F5F5F5F5F5C3E2F5F5F5E2E2F5
310
F5E2C3F5F5F5F5F5F5F5F5F5F5F5F5F5F5F5F5F5F5F5F5F5F5F5F5F5F5F5F5F5F5F5F5F5F5F5F5F5F5F5F5F5F5F5F5F5F5F5F5F5F5F5F5F5F5F5F5F5F5F5F5F5F5F5F5F5F5F5F5F5F5F5F5F5F5F5F5F5F5F5F5F5F5F5F5F5F5F5F5F5F5F5F5F5F5F5F5F5F5F5F5F5F5F5F5F5F5F5F5F5F5F5E2DCDCDCDCDCDCDCF5F5DCF5F5
310
F5DCDCDCDCDCDCDCDCDCDCDCDCDCDCF5DCDCDCDCDCF5DCDCDCDCDCDCDCF5F5F5F5F5F5F5F5F5E2F5F5F5F5F5F5C3E2F5F5F5E2E2F5F5E2C3F5F5F5F5F5F5F5F5F5F5F5F5F5F5F5F5F5F5F5F5F5F5F5F5F5F5F5F5F5F5F5F5F5F5F5F5F5F5F5F5F5F5F5F5F5F5F5F5F5F5F5F5F5F5F5F5F5F5F5F5F5F5F5F5F5F5F5F5F5F5F5
310
F5F5F5F5F5F5F5F5F5F5F5F5F5F5F5F5F5F5F5F5F5F5F5F5F5F5F5F5F5F5F5F5F5F5F5F5F5F5F5F5E2DCDCDCE2DCDCDCE2E2E2E2E2DCDCDCDCDCDCDCE2E2E2E2E2DCDCE2E2E2E2E2E2E2E2E2E2E2E2E2E2E2E2E2E2E2E2E2E2E2E2E2F5F5F5F5F5F5C3E2F5F5F5E2E2F5F5E2C3F5F5F5F5F5F5F5F52D2D2D2D2D2D2D2D2D2D
310
2D2D2D2DF5F5E2E2E2E2E2E2E2E2E2E2E2E2E2E2E2E2E2E2E2E2E2E2E2E2E2E2E2E2E2E2F5F5F5F5F5F5F5F5F5F5F5F5F5F5F5F5F5F5F5F5F5F5F5E2E2E2E2E2E2E2E2F5F5F5F5F5F5F5F5F5F5F5F5F5F5F5F5F5F5F5F5F5F5F5F5F5F5E2DCDCDCDCDCDCDCDCDCDCDCDCDCDCDCDCDCDCDCF5F5DCF5F5DCDCF5F5F5F5F5F5F5
310
F5F5F5F5F5F5F5F5F5F5F5F5F5F5F5F5F5E2F5F5F5F5F5F5C3E2F5F5F5E2E2F5F5E2C3F5F5F5F5F5F5F5F5F52DF5F5F5F5F5F5F5F5F5F5F5F5F5F5E2F5F5F5F5F5F5F5F5F5F5F5F5F5F5F5F5F5F5F5F5F5F5F5F5F5F5F5F5E2F5F5F5F5F5F5F5F5F5F5F5F5F5F5F5F5F5F5F5F5F5F5F5E2F5F5F5F5F528E2E2F5F5F5F5F5F5
310
F5F5F5F5F5F5F5F5F5F5F5F5F5F5F5F5F5F5F5E2DCDCDCDCDCDCDCDCDCE2E2DCDCDCDCDCDCDCDCE2E2E2E2E2DCDCE2E2E2E2E2E2E2E2E2E2E2E2E2E2E2E2E2E2E2E2E2E2E2E2E2F5F5F5F5F5F5C3E2F5F5F5E2E2F5F5E2C3F5F5F5F5F5F5F5F5F52DF5F5F5F5F5F5F5F5F5F5F5F5F5F5E2F5F5F5F5F5F5F5F5F5F5F5F5F5F5
310
F5F5F5F5F5F5F5F5F5F5F5F5F5F5E2F5F5F5F5F5F5F5F5F5F5F5F5F5F5F5F5F5F5F5F5F5F5F5E2F5F5F5F5F528F5E2F5F5F5F5F5F5F5F5F5F5F5F5F5F5F5F5F5F5F5F5F5F5F5F5F5E2DCDCDCDCDCDCDCDCDCDCDCDCDCDCF5F5DCF5F5DCDCF5F5F5F5F5F5F5F5F5F5F5F5F5F5F5F5F5F5F5F5F5F5F5F5F5F5F5F5F5E2F5F5F5
310
F5F5F5C3E2F5F5F5E2E2F5F5E2C3F5F5F5F5F5F5F5F5F52DF5F5F5F5F5F5F5F5F5F5F5F5F5F5E2F5F5F5F5F5F5F5F5F5F5F5F5F5F5F5F5F5F5F5F5F5F5F5F5F5F5F5F5E2F5F5F5F5F5F5F5F5F5F5F5F5F5F5F5F5F5F5F5F5F5F5F5E2F5F5F5F5F528F5E2F5F5F5F5F5F5F5F5F5F5F5F5F5F5F5F5F5F5F5F5F5F5F5F5F5E2DC
310
DCDCDCDCDCDCDCDCDCDCDCDCDCF5F5DCF5F5DCDCF5F5F5F5F5F5F5F5F5F5F5F5F5F5F5F5F5F5F5F5F5F5F5F5F5F5F5F5F5E2F5F5F5F5F5F5C3E2F5F5F5E2E2F5F5E2C3F5F5F5F5F5F5F5F5F52DF5F5F5F5F5F5F5F5F5F5F5F5F5F5E2F5F5F5F5F5F5F5F5F5F5F5F5F5F5F5F5F5F5F5F5F5F5F5F5F5F5F5F5E2F5F5F5F5F5F5
310
F5F5F5F5F5F5F5F5F5F5F5F5F5F5F5F5F5E2F5F5F5F5F528F5E2F5F5F5F5F5F5F5F5F5F5F5F5F5F5F5F5F5F5F5F5F5F5F5F5F5E2E2E2E2E2E2E2E2E2E2E2E2E2E2E2E2E2E2E2E2E2E2E2E2E2E2E2E2E2E2E2E2E2E2E2E2E2E2E2E2E2E2E2E2E2E2E2E2E2E2E2E2F5F5F5F5F5F5C3E2F5F5F5E2E2F5F5E2C3F5F5F5F5F5F5F5
310
F5F52DF5F5F5F5F5F5F5F5F5F5F5F5F5F5E2F5F5F5F5F5F5F5F5F5F5F5F5F5F5F5F5F5F5F5F5F5F5F5F5F5F5F5F5E2F5F5F5F5F5F5F5F5F5F5F5F5F5F5F5F5F5F5F5F5F5F5F5E2F5F5F5F5F528F5E2F5F5F5F5F5F5F5F5F5F5F5F5F5F5F5F5F5F5F5F5F5F5F5F5F5E2DCDCDCDCDCDCDCDCDCDCDCDCF5F5DCF5F5DCDCDCDCDC
310
DCDCDCDCDCDCDCDCDCDCDCDCDCDCDCDCDCDCF5F5F5F5F5F5F5F5F5F5E2F5F5F5F5F5F5C3E2F5F5F5E2E2F5F5E2C3F5F5F5F5F5F5F5F5F52DF5F5F5F5F5F5F5F5F5F5F5F5F5F5E2F5F5F5F5F5F5F5F5F5F5F5F5F5F5F5F5F5F5F5F5F5F5F5F5F5F5F5F5E2F5F5F5F5F5F5F5F5F5F5F5F5F5F5F5F5F5F5F5F5F5F5F5E2F5F5F5
310
F5F528F5E2F5F5F5F5F5F5F5F5F5F5F5F5F5F5F5F5F5F5F5F5F5F5F5F5F5E2E2E2E2E2E2E2E2E2E2E2E2E2E2E2E2E2E2E2E2E2E2E2E2E2E2E2E2E2E2E2E2E2E2E2E2E2E2E2E2E2E2E2E2E2E2E2E2E2E2E2E2F5F5F5F5F5F5C3E2F5F5F5E2E2F5F5E2C3F5F5F5F5F5F5F5F5F52DF5F5F5F5F5F5F5F5F5F5F5F5F5F5E2F5F5F5
310
F5F5F5F5F5F5F5F5F5F5F5F5F5F5F5F5F5F5F5F5F5F5F5F5F5E2F5F5F5F5F5F5F5F5F5F5F5F5F5F5F5F5F5F5F5F5F5F5F5E2F5F5F5F5F528F5E2F5F5F5F5F5F5F5F5F5F5F5F5F5F5F5F5F5F5F5F5F5F5F5F5F5E2DCDCDCDCDCDCDCDCDCDCDCDCDCDCDCDCF5DCDCF5DCDCF5DCDCDCDCDCDCDCDCDCDCDCDCDCDCDCDCDCDCDCDC
310
DCF5F5F5F5F5F5E2F5F5F5F5F5F5C3E2F5F5F5E2E2F5F5E2C3F5F5F5F5F5F5F5F5F52DF5F5F5F5F5F5F5F5F5F5F5F5F5F5E2F5F5F5F5F5F5F5F5F5F5F5F5F5F5F5F5F5F5F5F5F5F5F5F5F5F5F5F5E2F5F5F5F5F5F5F5F5F5F5F5F5F5F5F5F5F5F5F5F5F5F5F5E2F5F5F5F5F528F5E2F5F5F5F5F5F5F5F5F5F5F5F5F5F5F5F5
310
F5F5F5F5F5F5F5F5F5E2E2E2E2E2E2E2E2E2E2E2E2E2E2E2E2E2E2E2E2E2E2E2E2E2E2E2E2E2E2E2E2E2E2E2E2E2E2E2E2E2E2E2E2E2E2E2E2E2E2E2E2F5F5F5F5F5F5C3E2F5F5F5E2E2F5F5E2C3F5F5F5F5F5F5F5F5F52DF5F5F5F5F5F5F5F5F5F5F5F5F5F5E2F5F5F5F5F5F5F5F5F5F5F5F5F5F5F5F5F5F5F5F5F5F5F5F5
310
F5F5F5F5E2F5F5F5F5F5F5F5F5F5F5F5F5F5F5F5F5F5F5F5F5F5F5F5E2F5F5F5F5F528F5E2F5F5F5F5F5F5F5F5F5F5F5F5F5F5F5F5F5F5F5F5F5F5F5F5F5E2DCDCDCDCDCDCDCDCDCDCDCF5DCDCF5DCDCF5DCDCDCDCDCDCDCDCDCDCDCDCDCDCDCDCDCDCDCDCDCF5F5F5F5F5F5F5F5F5F5F5E2F5F5F5F5F5F5C3E2F5F5F5E2E2
310
F5F5F5C3F5F5F5F5F5F5F5F5F52DF5F5F5F5F5F5F5F5F5F5F5F5F5F5E2F5F5F5F5F5F5F5F5F5F5F5F5F5F5F5F5F5F5F5F5F5F5F5F5F5F5F5F5E2F5F5F5F5F5F5F5F5F5F5F5F5F5F5F5F5F5F5F5F5F5F5F5E2F5F5F5F5F528F5E2F5F5F5F5F5F5F5F5F5F5F5F5F5F5F5F5F5F5F5F5F5F5F5F5F5E2DCDCDCDCDCDCDCDCDCDCDC
310
F5DCDCF5DCDCDCDCDCDCDCDCDCDCDCDCDCDCDCDCDCDCDCDCDCDCDCDCF5F5F5F5F5F5F5F5F5F5F5E2F5F5F5F5F5F5C3F5F5F5F5E2E2F5F5F5C3F5F5F5F5F5F5F5F5F52DF5F5F5F5F5F5F5F5F5F5F5F5F5F5E2F5F5F5F5F5F5F5F5F5F5F5F5F5F5F5F5F5F5F5F5F5F5F5F5F5F5F5F5E2F5F5F5F5F5F5F5F5F5F5F5F5F5F5F5F5
310
F5F5F5F5F5F5F5E2F5F5F5F5F528F5E2F5F5F5F5F5F5F5F5F5F5F5F5F5F5F5F5F5F5F5F5F5F5F5F5F5E2E2E2E2E2E2E2E2E2E2E2E2E2E2E2E2E2E2E2E2E2E2E2E2E2E2E2E2E2E2E2E2E2E2E2E2E2E2E2E2E2E2E2E2E2E2E2E2E2E2E2E2F5F5F5F5F5F5C3F5F5F5F5E2E2F5F5F5C3F5F5F5F5F5F5F5F5F52DF5F5F5F5F5F5F5
310
F5F5F5F5F5F5F5E2F5F5F5F5F5F5F5F5F5F5F5F5F5F5F5F5F5F5F5F5F5F5F5F5F5F5F5F5E2F5F5F5F5F5F5F5F5F5F5F5F5F5F5F5F5F5F5F5F5F5F5F5E2F5F5F5F5F528F5E2F5F5F5F5F5F5F5F5F5F5F5F5F5F5F5F5F5F5F5F5F5F5F5F5F5E2DCDCDCDCDCDCDCDCDCDCDCF5DCDCF5DCDCDCF5F5F5F5F5F5F5F5F5F5F5F5F5F5
310
F5F5F5F5F5F5F5F5F5F5F5F5F5F5F5F5F5F5E2F5F5F5F5F5F5C3F5F5F5F5E2E2F5F5F5C3F5F5F5F5F5F5F5F5F52DF5F5F5F5F5F5F5F5F5F5F5F5F5F5E2F5F5F5F5F5F5F5F5F5F5F5F5F5F5F5F5F5F5F5F5F5F5F5F5F5F5F5F5E2F5F5F5F5F5F5F5F5F5F5F5F5F5F5F5F5F5F5F5F5F5F5F5E2F5F5F5F5F528F5E2F5F5F5F5F5
310
F5F5F5F5F5F5F5F5F5F5F5F5F5F5F5F5F5F5F5F5E2E2E2E2E2E2E2E2E2E2E2E2E2E2E2E2E2E2E2E2E2E2E2E2E2E2E2E2E2E2E2E2E2E2E2E2E2E2E2E2E2E2E2E2E2E2E2E2E2E2E2E2F5F5F5F5F5F5C3F5F5F5F5E2E2F5F5F5C3F5F5F5F5F5F5F5F5F52DF5F5F5F5F5F5F5F5F5F5F5F5F5F5E2F5F5F5F5F5F5F5F5F5F5F5F5F5
310
F5F5F5F5F5F5F5F5F5F5F5F5F5F5F5E2F5F5F5F5F5F5F5F5F5F5F5F5F5F5F5F5F5F5F5F5F5F5F5E2F5F5F5F5F528F5E2F5F5F5F5F5F5F5F5F5F5F5F5F5F5F5F5F5F5F5F5F5F5F5F5F5E2DCDCDCDCDCDCDCF5F5DCF5F5DCDCDCDCDCDCDCF5DCDCDCDCDCDCDCDCF5DCDCDCDCDCDCDCDCDCDCDCDCDCDCF5F5F5F5F5F5F5E2F5F5
310
F5F5F5F5C3F5F5F5F5E2E2F5F5F5C3F5F5F5F5F5F5F5F5F52DF5F5F5F5F5F5F5F5F5F5F5F5F5F5E2F5F5F5F5F5F5F5F5F5F5F5F5F5F5F5F5F5F5F5F5F5F5F5F5F5F5F5F5E2F5F5F5F5F5F5F5F5F5F5F5F5F5F5F5F5F5F5F5F5F5F5F5E2F5F5F5F5F528F5E2F5F5F5F5F5F5F5F5F5F5F5F5F5F5F5F5F5F5F5F5F5F5F5F5F5E2
310
E2E2E2E2E2E2E2E2E2E2E2E2E2E2E2E2E2E2E2E2E2E2E2E2E2E2E2E2E2E2E2E2E2E2E2E2E2E2E2E2E2E2E2E2E2E2E2E2E2E2E2F5F5F5F5F5F5C3F5F5F5F5E2E2F5F5F5C3F5F5F5F5F5F5F5F5F52DF5F5F5F5F5F5F5F5F5F5F5F5F5F5E2F5F5F5F5F5F5F5F5F5F5F5F5F5F5F5F5F5F5F5F5F5F5F5F5F5F5F5F5E2F5F5F5F5F5
310
F5F5F5F5F5F5F5F5F5F5F5F5F5F5F5F5F5F5E2F5F5F5F5F528F5E2F5F5F5F5F5F5F5F5F5F5F5F5F5F5F5F5F5F5F5F5F5F5F5F5F5E2DCDCDCDCDCDCDCF5F5DCF5F5DCDCDCDCDCDCDCDCF5F5F5F5F5F5F5F5F5F5F5F5F5F5F5F5F5F5F5F5F5F5F5F5F5F5F5F5F5F5E2F5F5F5F5F5F5C3F5F5F5F5E2E2F5F5F5C3F5F5F5F5F5F5
310
F5F5F52DF5F5F5F5F5F5F5F5F5F5F5F5F5F5E2F5F5F5F5F5F528282828282828282828282828282828F5F5F5F5F5F5E2F5F5F5F5F5F5F5F5F5F5F5F5F5F5F5F5F5F5F5F5F5F5F5E2F5F5F5F5F528F5E2F5F5F5F5F5F5F5F5F5F5F5F5F5F5F5F5F5F5F5F5F5F5F5F5F5E2DCDCDCDCDCDCDCF5F5DCF5F5DCDCDCDCDCDCDCDCF5
310
F5F5F5F5F5F5F5F5F5F5F5F5F5F5F5F5F5F5F5F5F5F5F5F5F5F5F5F5F5E2F5F5F5F5F5F5C3F5F5F5F5E2E2F5F5F5C3F5F5F5F5F5F5F5F5F52DF5F5F5F5F5F5F5F5F5F5F5F5F5F5E2F5F5F5F5F5F5F5F5F5F5F5F5F5F5F5F5F5F5F5F5F5F5F5F5F5F5F5F5E2F5F5F5F5F5F5F5F5F5F5F5F5F5F5F5F5F5F5F5F5F5F5F5E2F5F5
310
F5F5F528F5E2F5F5F5F5F5F5F5F5F5F5F5F5F5F5F5F5F5F5F5F5F5F5F5F5F5E2E2E2E2E2E2E2E2E2E2E2E2E2E2E2E2E2E2E2E2E2E2E2E2E2E2E2E2E2E2E2E2E2E2E2E2E2E2E2E2E2E2E2E2E2E2E2E2E2E2E2E2F5F5F5F5F5F5C3F5F5F5F5E2E2F5F5E2C3F5F5F5F5F5F5F52DF52DF5F5F5F5F5F5F5F5F5F5F5F5F5F5E2F5F5
310
F5F5F5F5F5F5F5F5F5F5F5F5F5F5F5F5F5F5F5F5F5F5F5F5F5F5E2F5F5F5F5F5F5F5F5F5F5F5F5F5F5F5F5F5F5F5F5F5F5E2E2F5F5F5F5F528F5E2F5F5F5F5F5F5F5F5F5F5F5F5F5F5F5F5F5F5F5F5F5F5F5F5F5E2F5DCDCDCDCDCDCDCDCDCF5F5F5F5F5F5F5F5F5DCDCDCF5F5DCDCDCDCDCDCDCDCDCF5F5F5F5F5F5F5F5F5
310
F5F5F5F5F5F5F5F5E2F5F5F5F5F5F5C3E2F5F5F5E2E2F5F5E2C3F5F5F5F5F5F5F52D2D2DF5F5F5F5F5F5F5F5F5F5F5F5F5F5E2F5F5F5F5F5F5F5F5E2E228282828E228282828F5F5F5F5F5F5F5F5F5E2F5F5F5F5F5F5F5F5F5F5F5F5F5F5F5F5F5F5F5F5F5F5E2E2F5F5F5F5F528F5E2F5F5F5F5F5F5F5F5F5F5F5F5F5F5F5
310
F5F5F5F5F5F5F5F5F5F5E2F5DCDCDCDCF5DCDCDCDCF5F5F5F5F5F5F5F5F5DCDCDCF5DCDCDCDCDCDCDCDCDCDCF5F5F5F5F5F5F5F5F5F5F5F5F5F5F5F5F5E2F5F5F5F5F5F5C3E2F5F5F5E2E2F5F5E2C3F5F5F5F5F5F5F52D2D2DF5F5F5F5F5F5F5F5F5F5F5F5F5F5E2F5F5F5F5F5F5F5F5E2E228282828E228282828F5F5F5F5
310
F5F5F5F5F5E2F5F5F5F5F5F5F5F5F5F5F5F5F5F5F5F5F5F5F5F5F5F5E2E2F5F5F5F5F528F5E2F5F5F5F5F5F5F5F5F5F5F5F5F5F5F5F5F5F5F5F5F5F5F5F5F5E2DCDCDCDCDCDCDCDCDCDCDCDCDCDCF5F5DCF5F5DCDCDCDCDCDCDCDCDCDCDCDCDCDCF5F5F5F5F5F5F5F5F5F5F5F5F5F5F5F5F5E2F5F5F5F5F5F5C3E2F5F5F5E2
310
E2F5F5E2C3F5F5F5F5F5F5F52D2D2DF5F5F5F5F5F5F5F5F5F5F5F5F5F5E2F5F5F5F5F5F5F5F5F5F5F5F5F5F5F5F5F5F5F5F5F5F5F5F5F5F5F5F5E2F5F5F5F5F5F5F5F5F5F5F5F5F5F5F5F5F5F5F5F5F5F5F5E2F5F5F5F5F528F5E2F5F5F5F5F5F5F5F5F5F5F5F5F5F5F5F5F5F5F5F5F5F5F5F5F5E2E2E2E2E2E2E2E2E2E2E2
310
E2E2E2E2E2E2E2E2E2E2E2E2E2E2E2E2E2E2E2E2E2E2E2E2E2E2E2E2E2E2E2E2E2E2E2E2E2E2E2E2E2F5F5F5F5F5F5C3E2F5F5F5E2E2F5F5E2C3F5F5F5F5F5F5F52D2D2DF5F5F5F5F5F5F5F5F5F5F5F5F5F5E2F5F5F5F5F5F5F5E2E2E2E2E2E2E2E2E2E2E2E2E22828F5F5F5F5F5F5E2F5F5F5F5F5F5F5F5F5F5F5F5F5F5F5
310
F5F5F5F5F5F5F5F5E2F5F5F5F5F528F5E2F5F5F5F5F5F5F5F5F5F5F5F5F5F5F5F5F5F5F5F5F5F5F5F5F5E2F5F5F5F5F5F5F5F5F5F5F5F5F5F5F5DCDCDCDCDCDCDCDCF5DCDCDCDCF5DCDCDCF5F5F5F5F5F5F5F5F5F5F5F5F5F5F5F5F5F5E2F5F5F5F5F5F5C3E2F5F5F5E2E2F5F5E2C3F5F5F5F5F5F5F5F5F52DF5F5F5F5F5F5
310
F5F5F5F5F5F5F5F5E2F5F5F5F5F5F5F5E2F5E2E2F5F5E2F5E2F5F5E2E2F5F5F5F5F5F5F5F5E2F5F5F5F5F5F5F5F5F5F5F5F5F5F5F5F5F5F5F5F5F5F5F5E2F5F5F5F5F528F5E2F5F5F5F5F5F5F5F5F5F5F5F5F5F5F5F5F5F5F5F5F5F5F5F5F5E2F5F5F5F5F5F5F5F5F5F5F5F5F5F5F5DCDCDCDCDCDCDCF5F5DCDCDCDCDCDCDC
310
DCF5F5F5F5F5F5F5F5F5F5F5F5F5F5F5F5F5F5E2F5F5F5F5F5F5C3E2F5F5F5E2E2F5F5E2C3F5F5F5F5F5F5F5F5F52DF5F5F5F5F5F5F5F5F5F5F5F5F5F5E2F5F5F5F5F5F5F5E2F5E2E2F5F5E2F5E2F5F5E2F5F5F5F5F5F5F5F5F5E2F5F5F5F5F5F5F5F5F5F5F5F5F5F5F5F5F5F5F5F5F5F5F5E2F5F5F5F5F528F5E2F5F5F5F5
310
F5F5F5F5F5F5F5F5F5F5F5F5F5F5F5F5F5F5F5F5F5E2DCDCDCDCDCDCDCDCDCDCDCF5DCDCF5DCDCDCDCDCDCDCDCF5DCDCDCF5F5DCDCDCF5F5F5F5F5F5F5F5F5F5F5F5F5F5F5F5F5F5E2F5F5F5F5F5F5C3E2F5F5F5E2E2F5F5E2C3F5F5F5F5F5F5F5F5F52DF5F5F5F5F5F5F5F5F5F5F5F5F5F5E2F5F5F5F5F5F5F5E2E2E2E2E2
310
E2E2E2E2E2E2E2E22828F5F5F5F5F5F5E2F5F5F5F5F5F5F5F5F5F5F5F5F5F5F5F5F5F5F5F5F5F5F5E2F5F5F5F5F528F5E2F5F5F5F5F5F5F5F5F5F5F5F5F5F5F5F5F5F5F5F5F5F5F5F5F5E2DCDCDCDCDCDCDCDCDCDCDCF5DCDCF5DCDCDCDCDCDCDCF5F5DCDCDCDCDCDCDCDCF5F5F5F5F5F5F5F5F5F5F5F5F5F5F5F5F5F5E2F5
310
F5F5F5F5F5C3E2F5F5F5E2E2F5F5E2C3F5F5F5F5F5F5F5F5F52DF5F5F5F5F5F5F5F5F5F5F5F5F5F5E2F5F5F5F5F5F5F5F5F5F5F5F5F5F5F5F5F5F5F5F5F5F5F5F5F5F5F5F5E2F5F5F5F5F5F5F5F5F5F5F5F5F5F5F5F5F5F5F5F5F5F5F5E2F5F5F5F5F528F5E2F5F5F5F5F5F5F5F5F5F5F5F5F5F5F5F5F5F5F5F5F5F5F5F5F5
310
E2E2E2E2E2E2E2E2E2E2E2E2E2E2E2E2E2E2E2E2E2E2E2E2E2E2E2E2E2E2E2E2E2E2E2E2E2E2E2E2E2E2E2E2E2E2E2E2E2E2E2E2F5F5F5F5F5F5C3E2F5F5F5E2E2F5F5E2C3F5F5F5F5F5F5F5F5F52DF5F5F5F5F5F5F5F5F5F5F5F5F5F5E2F5F5F5F5F5F5F5F5F528282828282828282828F5F5F5F5F5F5F5F5F5E2F5F5F5F5
310
F5F5F5F5F5F5F5F5F5F5F5F5F5F5F5F5F5F5F5E2F5F5F5F5F528F5E2F5F5F5F5F5F5F5F5F5F5F5F5F5F5F5F5F5F5F5F5F5F5F5F5F5E2DCDCDCDCDCDCDCF5F5DCF5F5DCDCDCDCDCDCDCDCDCDCDCDCDCDCDCDCDCF5DCDCDCDCDCDCDCDCF5F5F5F5F5F5F5F5F5F5F5F5E2F5F5F5F5F5F5C3E2F5F5F5E2E2F5F5E2C3F5F5F5F5F5
310
F5F5F5F52DF5F5F5F5F5F5F5F5F5F5F5F5F5F5E2F5F5F5F5F5F5F52828282828282828282828F5F5F5F5F5F5F5F5F5F5E2F5F5F5F5F5F5F5F5F5F5F5F5F5F5F5F5F5F5F5F5F5F5F5E2F5F5F5F5F528F5E2F5F5F5F5F5F5F5F5F5F5F5F5F5F5F5F5F5F5F5F5F5F5F5F5F5E2E2E2E2E2E2E2E2E2E2E2E2E2E2E2E2E2E2E2E2E2
310
E2E2E2E2E2E2E2E2E2E2E2E2E2E2E2E2E2E2E2E2E2E2E2E2E2E2E2E2E2E2E2F5F5F5F5F5F5C3E2F5F5F5E2E2F5F5E2C3F5F5F5F5F5F5F5F5F52DF5F5F5F5F5F5F5F5F5F5F5F5F5F5E2F5F5F5F5F5F5F52828282828282828282828F5F5F5F5F5F5F5F5F5F5E2F5F5F5F5F5F5F5F5F5F5F5F5F5F5F5F5F5F5F5F5F5F5F5E2F5
310
F5F5F5F528F5E2F5F5F5F5F5F5F5F5F5F5F5F5F5F5F5F5F5F5F5F5F5F5F5F5F5E2DCDCDCDCDCDCDCF5F5DCF5F5DCDCDCDCDCDCDCDCDCDCF5DCDCDCDCDCDCF5DCDCDCF5DCDCDCDCF5F5F5F5F5F5F5F5F5F5F5F5E2F5F5F5F5F5F5C3E2F5F5F5E2E2F5F5E2C3F5F5F5F5F5F5F5F5F52DF5F5F5F5F5F5F5F5F5F5F5F5F5F5E2F5
310
F5F5F5F5F5F5F5F5F5F5F5F5F5F5F5F5F5F5F5F5F5F5F5F5F5F5F5E2F5F5F5F5F5F5F5F5F5F5F5F5F5F5F5F5F5F5F5F5F5F5F5E2F5F5F5F5F528F5E2F5F5F5F5F5F5F5F5F5F5F5F5F5F5F5F5F5F5F5F5F5F5F5F5F5E2DCDCDCDCDCDCDCF5F5DCF5F5DCDCDCDCF5DCDCDCDCDCDCDCDCDCDCDCDCDCDCDCDCDCDCDCDCDCF5F5F5
310
F5F5F5F5F5F5F5F5F5E2F5F5F5F5F5F5C3E2F5F5F5E2E2F5F5E2C3F5F5F5F5F5F5F5F5F52DF5F5F5F5F5F5F5F5F5F5F5F5F5F5E2F5F5F5F5F5F5F5F5F5F5F5F5F5F5F5F5F5F5F5F5F5F5F5F5F5F5F5F5E2F5F5F5F5F5F5F5F5F5F5F5F5F5F5F5F5F5F5F5F5F5F5F5E2F5F5F5F5F528F5E2F5F5F5F5F5F5F5F5F5F5F5F5F5F5
310
F5F5F5F5F5F5F5F5F5F5F5E2E2E2E2E2E2E2E2E2E2E2E2E2E2E2E2E2E2E2E2E2E2E2E2E2E2E2E2E2E2E2E2E2E2E2E2E2E2E2E2E2E2E2E2E2E2E2E2E2E2E2E2F5F5F5F5F5F5C3E2F5F5F5E2E2F5F5E2C3F5F5F5F5F5F5F5F5F52DF5F5F5F5F5F5F5F5F5F5F5F5F5F5E2F5F5F5F5F5F5F5F5F5F5F5F5F5F5F5F5F5F5F5F5F5F5
310
F5F5F5F5F5F5E2F5F5F5F5F5F5F5F5F5F5F5F5F5F5F5F5F5F5F5F5F5F5F5E2F5F5F5F5F528F5E2F5F5F5F5F5F5F5F5F5F5F5F5F5F5F5F5F5F5F5F5F5F5F5F5F5E2DCDCDCDCDCDCDCDCDCDCDCDCF5F5DCF5F5DCDCDCDCDCDCDCDCDCDCF5F5F5F5F5F5F5F5F5F5F5F5F5F5F5F5F5F5F5F5F5F5F5E2F5F5F5F5F5F5C3E2F5F5F5
310
E2E2F5F5F5C3F5F5F5F5F5F5F5F5F52DF5F5F5F5F5F5F5F5F5F5F5F5F5F5E2F5F5F5F5F5F5F5F5F5F5F5F5F5F5F5F5F5F5F5F5F5F5F5F5F5F5F5F5E2F5F5F5F5F5F5F5F5F5F5F5F5F5F5F5F5F5F5F5F5F5F5F5E2F5F5F5F5F528F5E2F5F5F5F5F5F5F5F5F5F5F5F5F5F5F5F5F5F5F5F5F5F5F5F5F5E2E2E2E2E2E2E2E2E2E2
310
E2E2E2E2E2E2E2E2E2E2E2E2E2E2E2E2E2E2E2E2E2E2E2E2E2E2E2E2E2E2E2E2E2E2E2E2E2E2E2E2E2E2F5F5F5F5F5F5C3F5F5F5F5E2E2F5F5F5C3F5F5F5F5F5F5F5F5F52DF5F5F5F5F5F5F5F5F5F5F5F5F5F5E2F5F5F5F5F5F5F5F5F5F5F5F5F5F5F5F5F5F5F5F5F5F5F5F5F5F5F5F5E2F5F5F5F5F5F5F5F5F5F5F5F5F5F5
310
F5F5F5F5F5F5F5F5F5E2F5F5F5F5F528F5E2F5F5F5F5F5F5F5F5F5F5F5F5F5F5F5F5F5F5F5F5F5F5F5F5F5E2DCDCDCDCDCDCDCDCDCDCDCDCF5F5DCF5F5DCDCDCDCDCDCDCF5DCDCDCDCDCDCDCF5F5F5F5F5F5F5F5F5F5F5F5F5F5F5F5F5F5E2F5F5F5F5F5F5C3F5F5F5F5E2E2F5F5F5C3F5F5F5F5F5F5F5F5F52DF5F5F5F5F5
310
F5F5F5F5F5F5F5F5F5E2F5F5F5F5F5F5F5F5F5F5F5F5F5F5F5F5F5F5F5F5F5F5F5F5F5F5F5F5E2F5F5F5F5F5F5F5F5F5F5F5F5F5F5F5F5F5F5F5F5F5F5F5E2F5F5F5F5F528F5E2F5F5F5F5F5F5F5F5F5F5F5F5F5F5F5F5F5F5F5F5F5F5F5F5F5E2DCDCDCDCDCDCDCDCDCDCDCDCF5F5DCF5F5DCDCDCDCDCDCDCDCDCDCDCDCDC
310
DCDCF5F5F5F5F5F5F5F5F5F5F5F5F5F5F5F5F5F5E2F5F5F5F5F5F5C3F5F5F5F5E2E2F5F5F5C3F5F5F5F5F5F5F5F5F52DF5F5F5F5F5F5F5F5F5F5F5F5F5F5E2F5F5F5F5F5F5F5F5F5F5F5F5F5F5F5F5F5F5F5F5F5F5F5F5F5F5F5F5E2F5F5F5F5F5F5F5F5F5F5F5F5F5F5F5F5F5F5F5F5F5F5F5E2F5F5F5F5F528F5E2F5F5F5
310
F5F5F5F5F5F5F5F5F5F5F5F5F5F5F5F5F5F5F5F5F5F5E2E2E2E2E2E2E2E2E2E2E2E2E2E2E2E2E2E2E2E2E2E2E2E2E2E2E2E2E2E2E2E2E2E2E2E2E2E2E2E2E2E2E2E2E2E2E2E2E2E2E2E2F5F5F5F5F5F5C3F5F5F5F5E2E2F5F5F5C3F5F5F5F5F5F5F5F5F52DF5F5F5F5F5F5F5F5F5F5F5F5F5F5E2F5F5F5F5F5F5F5F5F5F5F5
310
F5F5F5F5F5F5F5F5F5F5F5F5F5F5F5F5F5E2F5F5F5F5F5F5F5F5F5F5F5F5F5F5F5F5F5F5F5F5F5F5F5E2F5F5F5F5F528F5E2F5F5F5F5F5F5F5F5F5F5F5F5F5F5F5F5F5F5F5F5F5F5F5F5F5E2DCDCDCDCDCDCF5DCF5F5DCDCDCDCDCDCDCDCDCDCF5F5F5F5F5F5F5F5F5F5F5F5F5F5F5F5F5F5F5F5F5F5F5F5F5F5F5F5F5F5E2
310
F5F5F5F5F5F5C3F5F5F5F5E2E2F5F5F5C3F5F5F5F5F5F5F5F5F52DF5F5F5F5F5F5F5F5F5F5F5F5F5F5E2F5F5F5F5F5F5F5F5F5F5F5F5F5F5F5F5F5F5F5F5F5F5F5F5F5F5F5F5E2F5F5F5F5F5F5F5F5F5F5F5F5F5F5F5F5F5F5F5F5F5F5F5E2F5F5F5F5F528F5E2F5F5F5F5F5F5F5F5F5F5F5F5F5F5F5F5F5F5F5F5F5F5F5F5
310
F5E2E2E2E2E2E2E2E2E2E2E2E2E2E2E2E2E2E2E2E2E2E2E2E2E2E2E2E2E2E2E2E2E2E2E2E2E2E2E2E2E2E2E2E2E2E2E2E2E2E2E2E2F5F5F5F5F5F5C3F5F5F5F5E2E2F5F5F5C3F5F5F5F5F5F5F5F5F52DF5F5F5F5F5F5F5F5F5F5F5F5F5F5E2F5F5F5F5F5F5F5F5F5F5F5F5F5F5F5F5F5F5F5F5F5F5F5F5F5F5F5F5E2F5F5F5
310
F5F5F5F5F5F5F5F5F5F5F5F5F5F5F5F5F5F5F5F5E2F5F5F5F5F528F5E2F5F5F5F5F5F5F5F5F5F5F5F5F5F5F5F5F5F5F5F5F5F5F5F5F5E2DCDCDCDCDCDCDCF5F5DCF5F5DCDCDCDCDCDCDCDCDCDCDCDCDCDCF5F5F5F5F5F5F5F5F5F5F5F5F5F5F5F5F5F5F5F5F5F5F5F5E2F5F5F5F5F5F5C3F5F5F5F5E2E2F5F5F5C3F5F5F5F5
310
F5F5F5F5F52DF5F5F5F5F5F5F5F5F5F5F5F5F5F5E2F5F5F5F5F5F5F5F5F5F5F5F5F5F5F5F5F5F5F5F5F5F5F5F5F5F5F5F5E2F5F5F5F5F5F5F5F5F5F5F5F5F5F5F5F5F5F5F5F5F5F5F5E2F5F5F5F5F528E2E2F5F5F5F5F5F5F5F5F5F5F5F5F5F5F5F5F5F5F5F5F5F5F5F5F5E2E2E2E2E2E2E2E2E2E2E2E2E2E2E2E2E2E2E2E2
310
E2E2E2E2E2E2E2E2E2E2E2E2E2E2E2E2E2E2E2E2E2E2E2E2E2E2E2E2E2E2E2E2F5F5F5F5F5F5C3F5F5F5F5E2E2F5F5F5C3F5F5F5F5F5F5F5F52D2D2D2D2D2D2D2D2D2D2D2D2D2DF5F5E2E2E2E2E2E2E2E2E2E2E2E2E2E2E2E2E2E2E2E2E2E2E2E2E2E2E2E2E2E2F5F5F5F5F5F5F5F5F5F5F5F5F5F5F5F5F5F5F5F5F5F5F5E2
310
E2E2E2E2E2E2E2F5F5F5F5F5F5F5F5F5F5F5F5F5F5F5F5F5F5F5F5F5F5F5F5F5F5E2DCDCDCDCDCDCDCDCDCDCDCF5DCDCF5F5DCF5F5F5F5F5F5F5F5F5F5F5F5F5F5F5F5F5F5F5F5F5F5F5F5F5F5F5F5F5F5F5F5F5E2F5F5F5F5F5F5C3F5F5F5F5E2E2F5F5E2C3F5F5F5F5F5F5F5F5F5F5F5F5F5F5F5F5F5F5F5F5F5F5F5F5F5
310
F5F5F5F5F5F5F5F5F5F5F5F5F5F5F5F5F5F5F5F5F5F5F5F5F5F5F5F5F5F5F5F5F5F5F5F5F5F5F5F5F5F5F5F5F5F5F5F5F5F5F5F5F5F5F5F5F5F5F5F52DF5F5F5F5F5F5F5F5F5F5F5F5F5F5F5F5F5F5F5F5F5F5F5F5F5E2DCDCDCDCDCDCDCDCDCDCDCF5DCDCF5F5DCF5F5F5F5F5F5F5F5F5F5F5F5F5F5F5F5F5F5F5F5F5F5F5
310
F5F5F5F5F5F5F5F5F5F5E2F5F5F5F5F5F5C3E2F5F5F5E2E2F5F5E2C3F5F5F5F5F5F5F5F5F5F5F5F5F5F5F5F5F5F5F5F5F5F5F5F52DF5F5F5F5F5F5F5F5F5F5F5F5F5F5F5F5F5F5F5F5F5F5F5F5F5F5F5F52DF5F5F5F5F5F5F5F5F5F5F5F5F5F5F5F5F5F5F5F5F5F5F52DF5F5F5F5F5F5F52DF5F5F5F5F5F5F5F5F5F5F5F5F5
310
F5F5F5F5F5F5F5F5F5F5F5F5E2E2E2E2E2E2E2E2E2E2E2E2E2E2E2E2E2E2E2E2E2E2E2E2E2E2E2E2E2E2E2E2E2E2E2E2E2E2E2E2E2E2E2E2E2E2E2E2E2E2E2E2F5F5F5F5F5F5C3E2F5F5F5E2E2F5F5E2C3F5F5F5F5F5F5F5F5F5F5F5F5F5F5F5F5F5F5F5F5F5F5F5F52DF5F5F5F5F5F5F5F5F5F5F5F5F5F5F5F5F5F5F5F5F5
310
F5F5F5F5F5F5F52DF5F5F5F5F5F5F5F5F5F5F5F5F5F5F5F5F5F5F5F5F5F5F52DF5F5F5F5F5F5F52DF5F5F5F5F5F5F5F5F5F5F5F5F5F5F5F5F5F5F5F5F5F5F5F5F5E2DCDCDCDCF5F5DCF5F5DCDCDCDCDCDCDCDCDCDCDCDCDCDCDCDCF5F5F5F5F5F5F5F5F5F5F5F5F5F5F5F5F5F5F5F5F5F5F5F5F5E2F5F5F5F5F5F5C3E2F5F5
310
F5E2E2F5F5E2C3F5F5F5F5F5F5F5F5F5F5F5F5F5F5F5F5F5F5F5F5F5F5F5F52DF5F5F5F5F5F5F5F5F5F5F5F5F5F5F5F5F5F5F5F5F5F5F5F5F5F5F5F52DF5F5F5F5F5F5F5F5F5F5F5F5F5F5F5F5F5F5F5F5F5F5F52DF5F5F5F5F5F5F52DF5F5F5F5F5F5F5F5F5F5F5F5F5F5F5F5F5F5F5F5F5F5F5F5F5E2E2E2E2E2E2E2E2E2
310
E2E2E2E2E2E2E2E2E2DCDCE2E2E2E2E2E2E2E2DCDCE2E2E2E2E2E2E2E2E2E2E2E2E2E2E2E2E2E2E2E2E2E2F5F5F5F5F5F5C3E2F5F5F5E2E2F5F5E2C3F5F5F5F5F5F5F5F5F5F5F5F5F5F5F5F5F5F5F5F5F5F5F5F52DF5F5F5F5F5F5F5F5F5F5F5F5F5F5F5F5F5F5F5F5F5F5F5F5F5F5F5F52DF5F5F5F5F5F5F5F5F5F5F5F5F5
310
F5F5F5F5F5F5F5F5F5F52DF5F5F5F5F5F5F52DF5F5F5F5F5F5F5F5F5F5F5F5F5F5F5F5F5F5F5F5F5F5F5F5F5E2F5F5F5F5F5F5F5F5F5F5F5F5F5F5F5F5DCDCDCF5F5F5F5F5F5F5DCDCDCF5F5F5F5F5F5F5F5F5F5F5F5F5F5F5F5F5F5F5F5F5E2F5F5F5F5F5F5C3E2F5F5F5E2E2F5F5E2C3F5F5F5F5F5F5F5F5F5F5F5F5F5F5
310
F5F5F5F5F5F5F5F5F5F52DF5F5F5F5F5F5F5F5F5F5F5F5F5F5F5F5F5F5F5F5F5F5F5F5F5F5F5F52DF5F5F5F5F5F5F5F5F5F5F5F5F5F5F5F5F5F5F5F5F5F5F52DF5F5F5F5F5F5F52DF5F5F5F5F5F5F5F5F5F5F5F5F5F5F5F5F5F5F5F5F5F5F5F5F5E2E2E2E2E2E2E2E2E2E2E2E2E2E2E2E2E2E2DCE2E2E2E2E2E2E2E2E2DCDC
310
E2E2E2E2E2E2E2E2E2E2E2E2E2E2E2E2E2E2E2E2E2E2F5F5F5F5F5F5C3E2F5F5F5E2E2F5F5E2C3F5F5F5F5F5F5F5F5F5F5F5F5F5F5F5F5F5F5F5F5F5F5F5F52DF5F5F5F5F5F5F5F5F5F5F5F5F5F5F5F5F5F5F5F5F5F5F5F5F5F5F5F52DF5F5F5F5F5F5F5F5F5F5F5F5F5F5F5F5F5F5F5F5F5F5F52DF5F5F5F5F5F5F52DF5F5
310
F5F5F5F5F5F5F5F5F5F5F5F5F5F5F5F5F5F5F5F5F5F5F5F5F5F5F5F5F5F5F5F5F5F5F5F5F5F5F5F5F5F5F5F5F5F5F5F5F5F5F5F5F5F5F5F5F5F5F5F5F5F5F5F5F5F5F5F5F5F5F5F5F5F5F5F5F5F5F5F5F5C3E2F5F5F5E2E2F5F5E2C3F5F5F5F5F5F5F5F5F5F5F5F5F5F5F5F5F5F5F5F5F5F5F5F52DF5F5F5F5F5F5F5F5F5F5
310
F5F5F5F5F5F5F5F5F5F5F5F5F5F5F5F5F5F52DF5F5F5F5F5F5F5F5F5F5F5F5F5F5F5F5F5F5F5F5F5F5F52DF5F5F5F5F5F5F52DF5F5F5F5F5F5F5F5F5F5F5F5F5F5F5F5F5F5F5F5F5F5F5F5F5F5F5F5F5F5F5F5F5F5F5F5F5F5F5F5F5F5F5F5F5F5F5F5F5F5F5F5F5F5F5F5F5F5F5F5F5F5F5F5F5F5F5F5F5F5F5F5F5F5F5F5
310
F5F5F5F5F5F5F5C3E2F5F5F5E2E2F5F5E2C3F5F5F5F5F5F5F5F5F5F5F5F5F5F5F5F5F5F5F5F5F5F5F5F52DF5F5F5F5F5F5F5F5F5F5F5F5F5F5F5F5F5F5F5F5F5F5F5F5F5F5F5F52DF5F5F5F5F5F5F5F5F5F5F5F5F5F5F5F5F5F5F5F5F5F5F52DF5F5F5F5F5F5F52DF5F5F5F5F5F5F5F5F5F5F5F5F5F5F5F5F5F5F5F5F5F5F5
310
F5F5F5F5F5F5F5F5F5F5F5F5F5F5F5F5F5F5F5F5F5F5F5F5F5F5F5F5F5F5F5F5F5F5F5F5F5F5F5F5F5F5F5F5F5F5F5F5F5F5F5F5F5F5F5F5F5F5F5F5C3E2F5F5F5E2E2F5F5E2C3F5F5F5F5F5F5F5F5F5F5F5F5F5F5F5F5F5F5F5F5F5F5F5F52DF5F5F5F5F5F5F5F5F5F5F5F5F5F5F5F5F5F5F5F5F5F5F5F5F5F5F5F52DF5F5
310
F5F5F5F5F5F5F5F5F5F5F5F5F5F5F5F5F5F5F5F5F52DF5F5F5F5F5F5F52DF5F5F5F5F5F5F5F5F5F5F5F5F5F5F5F5F5F5F5F5F5F5F5F5F5F5F5F5F5F5F5F5F5F5F5F5F5F5F5F5F5F5F5F5F5F5F5F5F5F5F5F5F5F5F5F5F5F5F5F5F5F5F5F5F5F5F5F5F5F5F5F5F5F5F5F5F5F5F5F5F5F5F5C3E2F5F5F5E2E2F5F5E2C3F5F5F5
310
F5F5F5F5F5F5F5F5F5F5F5F5F5F5F5F5F5F5F5F5F52DF5F5F5F5F5F5F5F5F5F5F5F5F5F5F5F5F5F5F5F5F5F5F5F5F5F5F5F52DF5F5F5F5F5F5F5F5F5F5F5F5F5F5F5F5F5F5F5F5F5F5F52DF5F5F5F5F5F5F52DF5F5F5F5F5F5F5F5F5F5F5F5F5F5F5F5F5F5F5F5F5F5F5F5F5F5F5F5F5F5F5F5F5F5F5F5F5F5F5F5F5F5F5F5
310
F5F5F5F5F5F5F5F5F5F5F5F5F5F5F5F5F5F5F5F5F5F5F5F5F5F5F5F5F5F5F5F5F5F5F5F5F5F5F5C3E2F5F5F5E2E2F5F5E2C3F5F5F5F5F5F5F5F5F5F5F5F5F5F5F5F5F5F5F5F5F5F5F5F52D2DF5F5F5F5F5F5F5F5F5F5F5F5F5F5F5F5F5F5F5F5F5F5F5F5F5F52D2DF5F5F5F5F5F5F5F5F5F5F5F5F5F5F5F5F5F5F5F5F5F5F5
310
2DF52DF5F5F5F52D2DF5F5F5F5F5F5F5F5F5F5F5F5F5F5F5F5F5F5F5F5F5F5F5F5F5F5F5F5F5F5F5F5F5F5F5F5F5F5F5F5F5F5F5F5F5F5F5F5F5F5F5F5F5F5F5F5F5F5F5F5F5F5F5F5F5F5F5F5F5F5F5F5F5F5F5F5F5F5F5F5F5F5F5C3E2F5F5F5E2E2F5F5E2C3F5F5F5F5F5F5F5F5F5F5F5F5F5F5F5F5F5F5F5F5F5F5F5F5
310
2D2D2D2D2D2D2D2D2D2D2D2D2D2D2D2D2D2D2D2D2D2D2D2D2D2D2D2D2D2DF5F5F5F5F5F5F5F5F5F5F5F5F5F5F5F5F5F5F5F5F5F5F52D2D2D2D2D2D2D2D2DF5F5F5F5F5F5F5F5F5F5F5F5F5F5F5F5F5F5F5F5F5F5F5F5F5F5F5F5F5F5F5F5F5F5F5F5F5F5F5F5F5F5F5F5F5F5F5F5F5F5F5F5F5F5F5F5F5F5F5F5F5F5F5F5F5
310
F5F5F5F5F5F5F5F5F5F5F5F5F5F5F5F5F5F5C3E2F5F5F5E2E2F5F5E2C3F5F5F5F5F5F5F5F5F5F5F5F5F5F5F5F5F5F5F5F5F5F5F5F52DF5F5F5F5F5F5F5F5F5F5F5F52D2D2D2DF5F5F5F5F5F5F5F5F5F5F5F52DF5F5F5F5F5F5F5F5F5F5F5F5F5F5F5F5F5F5F5F5F5F5F52DF5F5F52D2DF5F52DF5F5F5F5F5F5F5F5F5F5F5F5
310
F5F5F5F5F5F5F5F5F5F5F5F5F5F5F5F5F5F5F5F5F5F5F5F5F5F5F5F5F5F5F5F5F5F5F5F5F5F5F5F5F5F5F5F5F5F5F5F5F5F5F5F5F5F5F5F5F5F5F5F5F5F5F5F5F5F5F5F5F5F5F5C3E2F5F5F5E2E2F5F5E2C3F5F5F5F5F5F5F5F5F5F5F5F5F5F5F5F5F5F5F5F5F5F5F5F5F5F5F5F5F5F5F5F5F5F5F5F5F52D2D2D2DF5F5F5F5
310
F5F5F5F5F5F5F5F5F5F5F5F5F5F5F5F5F5F5F5F5F5F5F5F5F5F5F5F5F5F5F5F5F5F5F52D2D2DF5F5F5F5F5F5F5F5F5F5F5F5F5F5F5F5F5F5F5F5F5F5F5F5F5F5F5F5F5F5F5F5F5F5F5F5F5F5F5F5F5F5F5F5F5F5F5F5F5F5F5F5F5F5F5F5F5F5F5F5F5F5F5F5F5F5F5F5F5F5F5F5F5F5F5F5F5F5F5F5F5F5F5F5F5F5C3E2F5
310
F5F5E2E2F5F5F5C3F5F5F5F5F5F5F5F5F5F5F5F5F5F5F5F5F5F5F5F5F5F5F5F5F5F5F5F5F5F5F5F5F5F5F5F5F5F5F5F5F5F5F5F5F5F5F5F5F5F5F5F5F5F5F5F5F5F5F5F5F5F5F5F5F5F5F5F5F5F5F5F5F5F5F5F5F5F5F5F5F5F5F5F5F5F5F5F5F5F5F5F5F5F5F5F5F5F5F5F5F5F5F5F5F5F5F5F5F5F5F5F5F5F5F5F5F5F5F5
310
F5F5F5F5F5F5F5F5F5F5F5F5F5F5F5F5F5F5F5F5F5F5F5F5F5F5F5F5F5F5F5F5F5F5F5F5F5F5F5F5F5F5F5F5F5F5F5F5F5F5C3F5F5F5F5E2E2F5F5F5C3F5F5F5F5F5F5F5F5F5F5F5F5F5F5F5F5F5F5F5F5F5F5F5F5F5F5F5F5F5F5F5F5F5F5F5F5F5F5F5F5F5F5F5F5F5F5F5F5F5F5F5F5F5F5F5F5F5F5F5F5F5F5F5F5F5F5
310
F5F5F5F5F5F5F5F5F5F5F5F5F5F5F5F5F5F5F5F5F5F5F5F5F5F5F5F5F5F5F5F5F5F5F5F5F5F5F5F5F5F5F5F5F5F5F5F5F5F5F5F5F5F5F5F5F5F5F5F5F5F5F5F5F5F5F5F5F5F5F5F5F5F5F5F5F5F5F5F5F5F5F5F5F5F5F5F5F5F5F5F5F5F5F5F5F5F5F5F5F5F5F5C3F5F5F5F5E2E2F5F5F5C3F5F5F5F5F5F5F5F5F5F5F5F5F5
310
F5F5F5F5F5F5F5F5F5F5F5F5F5F5F5F5F5F5F5F5F5F5F5F5F5F5F5F5F5F5F5F5F5F5F5F5F5F5F5F5F5F5F5F5F5F5F5F5F5F5F5F5F5F5F5F5F5F5F5F5F5F5F5F5F5F5F5F5F5F5F5F5F5F5F5F5F5F5F5F5F5F5F5F5F5F5F5F5F5F5F5F5F5F5F5F5F5F5F5F5F5F5F5F5F5F5F5F5F5F5F5F5F5F5F5F5F5F5F5F5F5F5F5F5F5F5F5
310
F5F5F5F5F5F5F5F5F5F5F5F5F5F5F5F5F5F5F5F5F5F5F5F5F5F5F5F5F5C3F5F5F5F5E2E2F5F5F5C3F5F5F5F5F5F5F5F5F5F5F5F5F5F5F5F5F5F5F5F5F5F5F5F5F5F5F5F5F5F5F5F5F5F5F5F5F5F5F5F5F5F5F5F5F5F5F5F5F5F5F5F5F5F5F5F5F5F5F5F5F5F5F5F5F5F5F5F5F5F5F5F5F5F5F5F5F5F5F5F5F5F5F5F5F5F5F5
310
F5F5F5F5F5F5F5F5F5F5F5F5F5F5F5F5F5F5F5F5F5F5F5F5F5F5F5F5F5F5F5F5F5F5F5F5F5F5F5F5F5F5F5F5F5F5F5F5F5F5F5F5F5F5F5F5F5F5F5F5F5F5F5F5F5F5F5F5F5F5F5F5F5F5F5F5F5F5F5F5F5F5C3F5F5F5F5E2E2F5F5F5C3F5F5F5F5F5F5F5F5F5F5F5F5F5F5F5F5F5F5F5F5F5F5F5F5F5F5F5F5F5F5F5F5F5F5
310
F5F5F5F5F5F5F5F5F5F5F5F5F5F5F5F5F5F5F5F5F5F5F5F5F5F5F5F5F5F5F5F5F5F5F5F5F5F5F5F5F5F5F5F5F5F5F5F5F5F5F5F5F5F5F5F5F5F5F5F5F5F5F5F5F5F5F5F5F5F5F5F5F5F5F5F5F5F5F5F5F5F5F5F5F5F5F5F5F5F5F5F5F5F5F5F5F5F5F5F5F5F5F5F5F5F5F5F5F5F5F5F5F5F5F5F5F5F5F5F5F5F5F5F5F5F5F5
310
F5F5F5F5F5F5F5F5C3F5F5F5F5E2E2F5F5F5C3F5F5F5F5F5F5F5F5F5F5F5F5F5F5F5F5F5F5F5F5F5F5F5F5F5F5F5F5F5F5F5F5F5F5F5F5F5F5F5F5F5F5F5F5F5F5F5F5F5F5F5F5F5F5F5F5F5F5F5F5F5F5F5F5F5F5F5F5F5F5F5F5F5F5F5F5F5F5F5F5F5F5F5F5F5F5F5F5F5F5F5F5F5F5F5F5F5F5F5F5F5F5F5F5F5F5F5F5
310
F5F5F5F5F5F5F5F5F5F5F5F5F5F5F5F5F5F5F5F5F5F5F5F5F5F5F5F5F5F5F5F5F5F5F5F5F5F5F5F5F5F5F5F5F5F5F5F5F5F5F5F5F5F5F5F5F5F5F5F5F5C3F5F5F5F5E2E2F5F5F5C3F5F5F5F5F5F5F5F5F5F5F5F5F5F5F5F5F5F5F5F5F5F5F5F5F5F5F5F5F5F5F5F5F5F5F5F5F5F5F5F5F5F5F5F5F5F5F5F5F5F5F5F5F5F5F5
310
F5F5F5F5F5F5F5F5F5F5F5F5F5F5F5F5F5F5F5F5F5F5F5F5F5F5F5F5F5F5F5F5F5F5F5F5F5F5F5F5F5F5F5F5F5F5F5F5F5F5F5F5F5F5F5F5F5F5F5F5F5F5F5F5F5F5F5F5F5F5F5F5F5F5F5F5F5F5F5F5F5F5F5F5F5F5F5F5F5F5F5F5F5F5F5F5F5F5F5F5F5F5F5F5F5F5F5F5F5F5F5F5F5F5C3F5F5F5F5E2E2F5F5F5C3F5F5
310
F5F5F5F5F5F5F5F5F5F5F5F5F5F5F5F5F5F5F5F5F5F5F5F5F5F5F5F5F5F5F5F5F5F5F5F5F5F5F5F5F5F5F5F5F5F5F5F5F5F5F5F5F5F5F5F5F5F5F5F5F5F5F5F5F5F5F5F5F5F5F5F5F5F5F5F5F5F5F5F5F5F5F5F5F5F5F5F5F5F5F5F5F5F5F5F5F5F5F5F5F5F5F5F5F5F5F5F5F5F5F5F5F5F5F5F5F5F5F5F5F5F5F5F5F5F5F5
310
F5F5F5F5F5F5F5F5F5F5F5F5F5F5F5F5F5F5F5F5F5F5F5F5F5F5F5F5F5F5F5F5F5F5F5F5F5F5F5F5C3F5F5F5F5E2E2F5F5F5C3F5F5F5F5F5F5F5F5F5F5F5F5F5F5F5F5F5F5F5F5F5F5F5F5F5F5F5F5F5F5F5F5F5F5F5F5F5F5F5F5F5F5F5F5F5F5F5F5F5F5F5F5F5F5F5F5F5F5F5F5F5F5F5F5F5F5F5F5F5F5F5F5F5F5F5F5
310
F5F5F5F5F5F5F5F5F5F5F5F5F5F5F5F5F5F5F5F5F5F5F5F5F5F5F5F5F5F5F5F5F5F5F5F5F5F5F5F5F5F5F5F5F5F5F5F5F5F5F5F5F5F5F5F5F5F5F5F5F5F5F5F5F5F5F5F5F5F5F5F5F5F5F5F5F5F5F5F5F5F5F5F5F5F5F5F5F5F5F5F5F5C3F5F5F5F5E2E2F5F5E2C3F5F5F5F5F5F5F5F5F5F5F5F5F5F5F5F5F5F5F5F5F5F5F5
310
F5F5F5F5F5F5F5F5F5F5F5F5F5F5F5F5F5F5F5F5F5F5F5F5F5F5F5F5F5F5F5F5F5F5F5F5F5F5F5F5F5F5F5F5F5F5F5F5F5F5F5F5F5F5F5F5F5F5F5F5F5F5F5F5F5F5F5F5F5F5F5F5F5F5F5F5F5F5F5F5F5F5F5F5F5F5F5F5F5F5F5F5F5F5F5F5F5F5F5F5F5F5F5F5F5F5F5F5F5F5F5F5F5F5F5F5F5F5F5F5F5F5F5F5F5F5F5
310
F5F5F5F5F5F5F5F5F5F5F5F5F5F5F5F5F5F5F5C3E2F5F5F5E2E2F5F5E2C3F5F5F5F5F5F5F5F5F5F5F5F5F5F5F5F5F5F5F5F5F5F5F5F5F5F5F5F5F5F5F5F5F5F5F5F5F5F5F5F5F5F5F5F5F5F5F5F5F5F5F5F5F5F5F5F5F5F5F5F5F5F5F5F5F5F5F5F5F5F5F5F5F5F5F5F5F5F5F5F5F5F5F5F5F5F5F5F5F5F5F5F5F5F5F5F5F5
310
F5F5F5F5F5F5F5F5F5F5F5F5F5F5F5F5F5F5F5F5F5F5F5F5F5F5F5F5F5F5F5F5F5F5F5F5F5F5F5F5F5F5F5F5F5F5F5F5F5F5F5F5F5F5F5F5F5F5F5F5F5F5F5F5F5F5F5F5F5F5F5F5C3E2F5F5F5E2E2F5F5E2C3F5F5F5F5F5F5F5F5F5F5F5F5F5F5F5F5F5F5F5F5F5F5F5F5F5F5F5F5F5F5F5F5F5F5F5F5F5F5F5F5F5F5F5F5
310
F5F5F5F5F5F5F5F5F5F5F5F5F5F5F5F5F5F5F5F5F5F5F5F5F5F5F5F5F5F5F5F5F5F5F5F5F5F5F5F5F5F5F5F5F5F5F5F5F5F5F5F5F5F5F5F5F5F5F5F5F5F5F5F5F5F5F5F5F5F5F5F5F5F5F5F5F5F5F5F5F5F5F5F5F5F5F5F5F5F5F5F5F5F5F5F5F5F5F5F5F5F5F5F5F5F5F5F5F5F5F5F5F5F5F5F5F5F5F5F5F5F5F5F5F5C3E2
310
F5F5F5E2E2F5F5E2C3F5F5F5F5F5F5F5F5F5F5F5F5F5F5F5F5F5F5F5F5F5F5F5F5F5F5F5F5F5F5F5F5F5F5F5F5F5F5F5F5F5F5F5F5F5F5F5F5F5F5F5F5F5F5F5F5F5F5F5F5F5F5F5F5F5F5F5F5F5F5F5F5F5F5F5F5F5F5F5F5F5F5F5F5F5F5F5F5F5F5F5F5F5F5F5F5F5F5F5F5F5F5F5F5F5F5F5F5F5F5F5F5F5F5F5F5F5F5
310
F5F5F5F5F5F5F5F5F5F5F5F5F5F5F5F5F5F5F5F5F5F5F5F5F5F5F5F5F5F5F5F5F5F5F5F5F5F5F5F5F5F5F5F5F5F5F5F5F5F5F5C3E2F5F5F5E2E2F5F5E2C3F5F5F5F5F5F5F5F5F5F5F5F5F5F5F5F5F5F5F5F5F5F5F5F5F5F5F5F5F5F5F5F5F5F5F5F5F5F5F5F5F5F5F5F5F5F5F5F5F5F5F5F5F5F5F5F5F5F5F5F5F5F5F5F5F5
310
F5F5F5F5F5F5F5F5F5F5F5F5F5F5F5F5F5F5F5F5F5F5F5F5F5F5F5F5F5F5F5F5F5F5F5F5F5F5F5F5F5F5F5F5F5F5F5F5F5F5F5F5F5F5F5F5F5F5F5F5F5F5F5F5F5F5F5F5F5F5F5F5F5F5F5F5F5F5F5F5F5F5F5F5F5F5F5F5F5F5F5F5F5F5F5F5F5F5F5F5F5F5F5F5C3E2F5F5F5E2E2F5F5E2C3C3C3C3C3C3C3C3C3C3C3C3C3
310
C3C3C3C3C3C3C3C3C3C3C3C3C3C3C3C3C3C3C3C3C3C3C3C3C3C3C3C3C3C3C3C3C3C3C3C3C3C3C3C3C3C3C3C3C3C3C3C3C3C3C3C3C3C3C3C3C3C3C3C3C3C3C3C3C3C3C3C3C3C3C3C3C3C3C3C3C3C3C3C3C3C3C3C3C3C3C3C3C3C3C3C3C3C3C3C3C3C3C3C3C3C3C3C3C3C3C3C3C3C3C3C3C3C3C3C3C3C3C3C3C3C3C3C3C3C3C3
310
C3C3C3C3C3C3C3C3C3C3C3C3C3C3C3C3C3C3C3C3C3C3C3C3C3C3C3C3C3C3C3E2F5F5F5E2E2F5F5E2F5F5F5F5F5F5F5F5F5F5F5F5F5F5F5F5F5F5F5F5F5F5F5F5F5F5F5F5F5F5F5F5F5F5F5F5F5F5F5F5F5F5F5F5F5F5F5F5F5F5F5F5F5F5F5F5F5F5F5F5F5F5F5F5F5F5F5F5F5F5F5F5F5F5F5F5F5F5F5F5F5F5F5F5F5F5F5
310
F5F5F5F5F5F5F5F5F5F5F5F5F5F5F5F5F5F5F5F5F5F5F5F5F5F5F5F5F5F5F5F5F5F5F5F5F5F5F5F5F5F5F5F5F5F5F5F5F5F5F5F5F5F5F5F5F5F5F5F5F5F5F5F5F5F5F5F5F5F5F5F5F5F5F5F5F5F5F5F5F5F5F5F5E2F5F5F5E2E2F5F5E2E2E2E2E2E2E2E2F5F5F5F5F5F5F5F5F5E2E2E2E2E2E2E2E2E2E2E2E2E2E2E2E2F5F5
310
F5F5F5F5F5F5F5E2E2E2E2E2E2E2E2E2E2E2E2E2E2E2E2F5F5F5F5F5F5F5F5E2E2E2E2E2E2E2E2E2E2E2E2E2E2E2E2F5F5F5F5F5F5F5F5F5E2E2E2E2E2E2E2E2E2E2E2E2E2E2E2E2F5F5F5F5F5F5F5F5E2E2E2E2E2E2E2E2E2E2E2E2E2E2E2E2F5F5F5F5F5F5F5F5F5E2E2E2E2E2E2E2E2E2E2E2E2E2E2E2E2F5F5F5F5F5F5
310
F5F5F5E2E2E2E2E2E2E2E2F5F5F5E2E2F5F5F5F5F5F5F5F5F5F5F5F5F5F5F5F5F5F5F5F5F5F5F5F5F5F5F5F5F5F5F5F5F5F5F5F5F5F5F5F5F5F5F5F5F5F5F5F5F5F5F5F5F5F5F5F5F5F5F5F5F5F5F5F5F5F5F5F5F5F5F5F5F5F5F5F5F5F5F5F5F5F5F5F5F5F5F5F5F5F5F5F5F5F5F5F5F5F5F5F5F5F5F5F5F5F5F5F5F5F5F5
310
F5F5F5F5F5F5F5F5F5F5F5F5F5F5F5F5F5F5F5F5F5F5F5F5F5F5F5F5F5F5F5F5F5F5F5F5F5F5F5F5F5F5F5F5F5F5F5F5F5F5F5F5F5F5F5F5F5F5F5F5F5F5F5F5F5F5F5E2E2F5F5F5F5F5F5F5F5F5F5F5F5F5F5F5F5F5F5F5F5F5F5F5F5F5F5F5F5F5F5F5F5F5F5F5F5F5F5F5F5F5F5F5F5F5F5F5F5F5F5F5F5F5F5F5F5F5F5
310
F5F5F5F5F5F5F5F5F5F5F5F5F5F5F5F5F5F5F5F5F5F5F5F5F5F5F5F5F5F5F5F5F5F5F5F5F5F5F5F5F5F5F5F5F5F5F5F5F5F5F5F5F5F5F5F5F5F5F5F5F5F5F5F5F5F5F5F5F5F5F5F5F5F5F5F5F5F5F5F5F5F5F5F5F5F5F5F5F5F5F5F5F5F5F5F5F5F5F5F5F5F5F5F5F5F5F5F5F5F5F5F5F5F5F5F5F5F5F5F5E2EFE2E2E2E2E2
310
E2E2E2E2E2E2E2E2E2E2E2E2E2E2E2E2E2E2E2E2E2E2E2E2E2E2E2E2E2E2E2E2E2E2E2E2E2E2E2E2E2E2E2E2E2E2E2E2E2E2E2E2E2E2E2E2E2E2E2E2E2E2E2E2E2E2E2E2E2E2E2E2E2E2E2E2E2E2E2E2E2E2E2E2E2E2E2E2E2E2E2E2E2E2E2E2E2E2E2E2E2E2E2E2E2E2E2E2E2E2E2E2E2E2E2E2E2E2E2E2E2E2E2E2E2E2E2
310
E2E2E2E2E2E2E2E2E2E2E2E2E2E2E2E2E2E2E2E2E2E2E2E2E2E2E2E2E2E2E2E2E2E2E2E2E2E2E2E2E2E2E2E2E2E2E2EF
  0
XRECORD
  5
1EDB
102
{ACAD_REACTORS
330
1E60
102
}
330
1E60
100
AcDbXrecord
280
     1
102
MATERIAL
148
0.0
149
0.0
149
0.0
 93
        0
 94
      127
282
     0
 72
     0
 77
     0
171
     0
175
     0
179
     0
273
     0
  0
XRECORD
  5
1E62
102
{ACAD_REACTORS
330
1E60
102
}
330
1E60
100
AcDbXrecord
280
     1
270
     1
271
     1
  0
XRECORD
  5
1E61
102
{ACAD_REACTORS
330
1E60
102
}
330
1E60
100
AcDbXrecord
280
     1
270
     1
271
     1
  0
XRECORD
  5
1E65
102
{ACAD_REACTORS
330
1E60
102
}
330
1E60
100
AcDbXrecord
280
     1
270
     1
271
     1
  0
XRECORD
  5
1E64
102
{ACAD_REACTORS
330
1E60
102
}
330
1E60
100
AcDbXrecord
280
     1
270
     1
271
     1
  0
XRECORD
  5
1E66
102
{ACAD_REACTORS
330
1E60
102
}
330
1E60
100
AcDbXrecord
280
     1
270
     1
271
     1
  0
XRECORD
  5
1E63
102
{ACAD_REACTORS
330
1E60
102
}
330
1E60
100
AcDbXrecord
280
     1
270
     1
271
     1
  0
XRECORD
  5
1EDA
102
{ACAD_REACTORS
330
1E58
102
}
330
1E58
100
AcDbXrecord
280
     1
102
MATERIAL
148
0.0
149
0.0
149
0.0
 93
        0
 94
      127
282
     0
 72
     0
 77
     0
171
     0
175
     0
179
     0
273
     0
  0
XRECORD
  5
1E5A
102
{ACAD_REACTORS
330
1E58
102
}
330
1E58
100
AcDbXrecord
280
     1
270
     1
271
     1
  0
XRECORD
  5
1E59
102
{ACAD_REACTORS
330
1E58
102
}
330
1E58
100
AcDbXrecord
280
     1
270
     1
271
     1
  0
XRECORD
  5
1E5D
102
{ACAD_REACTORS
330
1E58
102
}
330
1E58
100
AcDbXrecord
280
     1
270
     1
271
     1
  0
XRECORD
  5
1E5C
102
{ACAD_REACTORS
330
1E58
102
}
330
1E58
100
AcDbXrecord
280
     1
270
     1
271
     1
  0
XRECORD
  5
1E5E
102
{ACAD_REACTORS
330
1E58
102
}
330
1E58
100
AcDbXrecord
280
     1
270
     1
271
     1
  0
XRECORD
  5
1E5B
102
{ACAD_REACTORS
330
1E58
102
}
330
1E58
100
AcDbXrecord
280
     1
270
     1
271
     1
  0
XRECORD
  5
1ED9
102
{ACAD_REACTORS
330
56
102
}
330
56
100
AcDbXrecord
280
     1
102
MATERIAL
148
0.0
149
0.0
149
0.0
 93
        0
 94
       63
282
     0
 72
     1
 77
     1
171
     1
175
     1
179
     1
273
     0
  0
XRECORD
  5
58
102
{ACAD_REACTORS
330
56
102
}
330
56
100
AcDbXrecord
280
     1
270
     1
271
     1
  0
XRECORD
  5
59
102
{ACAD_REACTORS
330
56
102
}
330
56
100
AcDbXrecord
280
     1
270
     1
271
     1
  0
XRECORD
  5
5A
102
{ACAD_REACTORS
330
56
102
}
330
56
100
AcDbXrecord
280
     1
270
     1
271
     1
  0
XRECORD
  5
5B
102
{ACAD_REACTORS
330
56
102
}
330
56
100
AcDbXrecord
280
     1
270
     1
271
     1
  0
CELLSTYLEMAP
  5
1ED7
102
{ACAD_REACTORS
330
1ED6
102
}
330
1ED6
100
AcDbCellStyleMap
 90
        3
300
CELLSTYLE
  1
TABLEFORMAT_BEGIN
 90
        5
170
     1
 91
        0
 92
    32768
 62
   257
 93
        1
300
CONTENTFORMAT
  1
CONTENTFORMAT_BEGIN
 90
        0
 91
        0
 92
      512
 93
        0
300

 40
0.0
140
1.0
 94
        5
 62
     0
340
11
144
6.0
309
CONTENTFORMAT_END
171
     1
301
MARGIN
  1
CELLMARGIN_BEGIN
 40
1.5
 40
1.5
 40
1.5
 40
1.5
 40
4.5
 40
4.5
309
CELLMARGIN_END
 94
        6
 95
        1
302
GRIDFORMAT
  1
GRIDFORMAT_BEGIN
 90
        0
 91
        1
 62
     0
 92
       -2
340
0
 93
        0
 40
1.125
309
GRIDFORMAT_END
 95
        2
302
GRIDFORMAT
  1
GRIDFORMAT_BEGIN
 90
        0
 91
        1
 62
     0
 92
       -2
340
0
 93
        0
 40
1.125
309
GRIDFORMAT_END
 95
        4
302
GRIDFORMAT
  1
GRIDFORMAT_BEGIN
 90
        0
 91
        1
 62
     0
 92
       -2
340
0
 93
        0
 40
1.125
309
GRIDFORMAT_END
 95
        8
302
GRIDFORMAT
  1
GRIDFORMAT_BEGIN
 90
        0
 91
        1
 62
     0
 92
       -2
340
0
 93
        0
 40
1.125
309
GRIDFORMAT_END
 95
       16
302
GRIDFORMAT
  1
GRIDFORMAT_BEGIN
 90
        0
 91
        1
 62
     0
 92
       -2
340
0
 93
        0
 40
1.125
309
GRIDFORMAT_END
 95
       32
302
GRIDFORMAT
  1
GRIDFORMAT_BEGIN
 90
        0
 91
        1
 62
     0
 92
       -2
340
0
 93
        0
 40
1.125
309
GRIDFORMAT_END
309
TABLEFORMAT_END
  1
CELLSTYLE_BEGIN
 90
        1
 91
        1
300
_TITLE
309
CELLSTYLE_END
300
CELLSTYLE
  1
TABLEFORMAT_BEGIN
 90
        5
170
     1
 91
        0
 92
        0
 62
   257
 93
        1
300
CONTENTFORMAT
  1
CONTENTFORMAT_BEGIN
 90
        0
 91
        0
 92
      512
 93
        0
300

 40
0.0
140
1.0
 94
        5
 62
     0
340
11
144
4.5
309
CONTENTFORMAT_END
171
     1
301
MARGIN
  1
CELLMARGIN_BEGIN
 40
1.5
 40
1.5
 40
1.5
 40
1.5
 40
4.5
 40
4.5
309
CELLMARGIN_END
 94
        6
 95
        1
302
GRIDFORMAT
  1
GRIDFORMAT_BEGIN
 90
        0
 91
        1
 62
     0
 92
       -2
340
0
 93
        0
 40
1.125
309
GRIDFORMAT_END
 95
        2
302
GRIDFORMAT
  1
GRIDFORMAT_BEGIN
 90
        0
 91
        1
 62
     0
 92
       -2
340
0
 93
        0
 40
1.125
309
GRIDFORMAT_END
 95
        4
302
GRIDFORMAT
  1
GRIDFORMAT_BEGIN
 90
        0
 91
        1
 62
     0
 92
       -2
340
0
 93
        0
 40
1.125
309
GRIDFORMAT_END
 95
        8
302
GRIDFORMAT
  1
GRIDFORMAT_BEGIN
 90
        0
 91
        1
 62
     0
 92
       -2
340
0
 93
        0
 40
1.125
309
GRIDFORMAT_END
 95
       16
302
GRIDFORMAT
  1
GRIDFORMAT_BEGIN
 90
        0
 91
        1
 62
     0
 92
       -2
340
0
 93
        0
 40
1.125
309
GRIDFORMAT_END
 95
       32
302
GRIDFORMAT
  1
GRIDFORMAT_BEGIN
 90
        0
 91
        1
 62
     0
 92
       -2
340
0
 93
        0
 40
1.125
309
GRIDFORMAT_END
309
TABLEFORMAT_END
  1
CELLSTYLE_BEGIN
 90
        2
 91
        1
300
_HEADER
309
CELLSTYLE_END
300
CELLSTYLE
  1
TABLEFORMAT_BEGIN
 90
        5
170
     1
 91
        0
 92
        0
 62
   257
 93
        1
300
CONTENTFORMAT
  1
CONTENTFORMAT_BEGIN
 90
        0
 91
        0
 92
      512
 93
        0
300

 40
0.0
140
1.0
 94
        2
 62
     0
340
11
144
4.5
309
CONTENTFORMAT_END
171
     1
301
MARGIN
  1
CELLMARGIN_BEGIN
 40
1.5
 40
1.5
 40
1.5
 40
1.5
 40
4.5
 40
4.5
309
CELLMARGIN_END
 94
        6
 95
        1
302
GRIDFORMAT
  1
GRIDFORMAT_BEGIN
 90
        0
 91
        1
 62
     0
 92
       -2
340
0
 93
        0
 40
1.125
309
GRIDFORMAT_END
 95
        2
302
GRIDFORMAT
  1
GRIDFORMAT_BEGIN
 90
        0
 91
        1
 62
     0
 92
       -2
340
0
 93
        0
 40
1.125
309
GRIDFORMAT_END
 95
        4
302
GRIDFORMAT
  1
GRIDFORMAT_BEGIN
 90
        0
 91
        1
 62
     0
 92
       -2
340
0
 93
        0
 40
1.125
309
GRIDFORMAT_END
 95
        8
302
GRIDFORMAT
  1
GRIDFORMAT_BEGIN
 90
        0
 91
        1
 62
     0
 92
       -2
340
0
 93
        0
 40
1.125
309
GRIDFORMAT_END
 95
       16
302
GRIDFORMAT
  1
GRIDFORMAT_BEGIN
 90
        0
 91
        1
 62
     0
 92
       -2
340
0
 93
        0
 40
1.125
309
GRIDFORMAT_END
 95
       32
302
GRIDFORMAT
  1
GRIDFORMAT_BEGIN
 90
        0
 91
        1
 62
     0
 92
       -2
340
0
 93
        0
 40
1.125
309
GRIDFORMAT_END
309
TABLEFORMAT_END
  1
CELLSTYLE_BEGIN
 90
        3
 91
        2
300
_DATA
309
CELLSTYLE_END
  0
XRECORD
  5
1EDC
102
{ACAD_REACTORS
330
1ED6
102
}
330
1ED6
100
AcDbXrecord
280
     1
102
ACAD_ROUNDTRIP_PRE2007_TABLESTYLE
 90
      512
 91
        0
  1

 92
      512
 93
        0
  2

 94
      512
 95
        0
  3

  0
ENDSEC
  0
EOF
