  0
SECTION
  2
HEADER
  9
$ACADVER
  1
AC1018
  9
$ACADMAINTVER
 70
   104
  9
$DWGCODEPAGE
  3
ANSI_932
  9
$LASTSAVEDBY
  1
t-hayashi
  9
$INSBASE
 10
0.0
 20
0.0
 30
0.0
  9
$EXTMIN
 10
34.44895737991139
 20
-18.82736511231155
 30
0.0
  9
$EXTMAX
 10
366.1916771288431
 20
173.0251833539267
 30
0.0
  9
$LIMMIN
 10
0.0
 20
0.0
  9
$LIMMAX
 10
297.0
 20
210.0
  9
$ORTHOMODE
 70
     1
  9
$REGENMODE
 70
     1
  9
$FILLMODE
 70
     1
  9
$QTEXTMODE
 70
     0
  9
$MIRRTEXT
 70
     0
  9
$LTSCALE
 40
1.0
  9
$ATTMODE
 70
     1
  9
$TEXTSIZE
 40
9.0
  9
$TRACEWID
 40
1.0
  9
$TEXTSTYLE
  7
Standard
  9
$CLAYER
  8
hojo
  9
$CELTYPE
  6
ByLayer
  9
$CECOLOR
 62
   256
  9
$CELTSCALE
 40
1.0
  9
$DISPSILH
 70
     0
  9
$DIMSCALE
 40
1.0
  9
$DIMASZ
 40
3.0
  9
$DIMEXO
 40
5.0
  9
$DIMDLI
 40
6.0
  9
$DIMRND
 40
0.0
  9
$DIMDLE
 40
0.0
  9
$DIMEXE
 40
2.0
  9
$DIMTP
 40
0.0
  9
$DIMTM
 40
0.0
  9
$DIMTXT
 40
3.0
  9
$DIMCEN
 40
2.5
  9
$DIMTSZ
 40
0.0
  9
$DIMTOL
 70
     0
  9
$DIMLIM
 70
     0
  9
$DIMTIH
 70
     0
  9
$DIMTOH
 70
     0
  9
$DIMSE1
 70
     0
  9
$DIMSE2
 70
     0
  9
$DIMTAD
 70
     1
  9
$DIMZIN
 70
     8
  9
$DIMBLK
  1
Open30
  9
$DIMASO
 70
     1
  9
$DIMSHO
 70
     1
  9
$DIMPOST
  1

  9
$DIMAPOST
  1

  9
$DIMALT
 70
     0
  9
$DIMALTD
 70
     3
  9
$DIMALTF
 40
0.03937007874016
  9
$DIMLFAC
 40
1.0
  9
$DIMTOFL
 70
     1
  9
$DIMTVP
 40
0.0
  9
$DIMTIX
 70
     0
  9
$DIMSOXD
 70
     0
  9
$DIMSAH
 70
     0
  9
$DIMBLK1
  1

  9
$DIMBLK2
  1

  9
$DIMSTYLE
  2
ISO-25
  9
$DIMCLRD
 70
     4
  9
$DIMCLRE
 70
     4
  9
$DIMCLRT
 70
     4
  9
$DIMTFAC
 40
1.0
  9
$DIMGAP
 40
1.0
  9
$DIMJUST
 70
     0
  9
$DIMSD1
 70
     0
  9
$DIMSD2
 70
     0
  9
$DIMTOLJ
 70
     0
  9
$DIMTZIN
 70
     8
  9
$DIMALTZ
 70
     0
  9
$DIMALTTZ
 70
     0
  9
$DIMUPT
 70
     0
  9
$DIMDEC
 70
     2
  9
$DIMTDEC
 70
     2
  9
$DIMALTU
 70
     2
  9
$DIMALTTD
 70
     3
  9
$DIMTXSTY
  7
Standard
  9
$DIMAUNIT
 70
     0
  9
$DIMADEC
 70
     0
  9
$DIMALTRND
 40
0.0
  9
$DIMAZIN
 70
     0
  9
$DIMDSEP
 70
    46
  9
$DIMATFIT
 70
     3
  9
$DIMFRAC
 70
     0
  9
$DIMLDRBLK
  1
Open30
  9
$DIMLUNIT
 70
     2
  9
$DIMLWD
 70
    -2
  9
$DIMLWE
 70
    -2
  9
$DIMTMOVE
 70
     0
  9
$LUNITS
 70
     2
  9
$LUPREC
 70
     4
  9
$SKETCHINC
 40
1.0
  9
$FILLETRAD
 40
1.0
  9
$AUNITS
 70
     0
  9
$AUPREC
 70
     0
  9
$MENU
  1
.
  9
$ELEVATION
 40
0.0
  9
$PELEVATION
 40
0.0
  9
$THICKNESS
 40
0.0
  9
$LIMCHECK
 70
     0
  9
$CHAMFERA
 40
0.0
  9
$CHAMFERB
 40
0.0
  9
$CHAMFERC
 40
0.0
  9
$CHAMFERD
 40
0.0
  9
$SKPOLY
 70
     0
  9
$TDCREATE
 40
2455497.994904688
  9
$TDUCREATE
 40
2455497.619904688
  9
$TDUPDATE
 40
2455618.783611470
  9
$TDUUPDATE
 40
2455618.408611470
  9
$TDINDWG
 40
0.9172849190
  9
$TDUSRTIMER
 40
0.9172849190
  9
$USRTIMER
 70
     1
  9
$ANGBASE
 50
0.0
  9
$ANGDIR
 70
     0
  9
$PDMODE
 70
     0
  9
$PDSIZE
 40
0.0
  9
$PLINEWID
 40
0.0
  9
$SPLFRAME
 70
     0
  9
$SPLINETYPE
 70
     6
  9
$SPLINESEGS
 70
     8
  9
$HANDSEED
  5
1DCE
  9
$SURFTAB1
 70
     6
  9
$SURFTAB2
 70
     6
  9
$SURFTYPE
 70
     6
  9
$SURFU
 70
     6
  9
$SURFV
 70
     6
  9
$UCSBASE
  2

  9
$UCSNAME
  2

  9
$UCSORG
 10
0.0
 20
0.0
 30
0.0
  9
$UCSXDIR
 10
1.0
 20
0.0
 30
0.0
  9
$UCSYDIR
 10
0.0
 20
1.0
 30
0.0
  9
$UCSORTHOREF
  2

  9
$UCSORTHOVIEW
 70
     0
  9
$UCSORGTOP
 10
0.0
 20
0.0
 30
0.0
  9
$UCSORGBOTTOM
 10
0.0
 20
0.0
 30
0.0
  9
$UCSORGLEFT
 10
0.0
 20
0.0
 30
0.0
  9
$UCSORGRIGHT
 10
0.0
 20
0.0
 30
0.0
  9
$UCSORGFRONT
 10
0.0
 20
0.0
 30
0.0
  9
$UCSORGBACK
 10
0.0
 20
0.0
 30
0.0
  9
$PUCSBASE
  2

  9
$PUCSNAME
  2

  9
$PUCSORG
 10
0.0
 20
0.0
 30
0.0
  9
$PUCSXDIR
 10
1.0
 20
0.0
 30
0.0
  9
$PUCSYDIR
 10
0.0
 20
1.0
 30
0.0
  9
$PUCSORTHOREF
  2

  9
$PUCSORTHOVIEW
 70
     0
  9
$PUCSORGTOP
 10
0.0
 20
0.0
 30
0.0
  9
$PUCSORGBOTTOM
 10
0.0
 20
0.0
 30
0.0
  9
$PUCSORGLEFT
 10
0.0
 20
0.0
 30
0.0
  9
$PUCSORGRIGHT
 10
0.0
 20
0.0
 30
0.0
  9
$PUCSORGFRONT
 10
0.0
 20
0.0
 30
0.0
  9
$PUCSORGBACK
 10
0.0
 20
0.0
 30
0.0
  9
$USERI1
 70
     0
  9
$USERI2
 70
     0
  9
$USERI3
 70
     0
  9
$USERI4
 70
     0
  9
$USERI5
 70
     0
  9
$USERR1
 40
0.0
  9
$USERR2
 40
0.0
  9
$USERR3
 40
0.0
  9
$USERR4
 40
0.0
  9
$USERR5
 40
0.0
  9
$WORLDVIEW
 70
     1
  9
$SHADEDGE
 70
     3
  9
$SHADEDIF
 70
    70
  9
$TILEMODE
 70
     1
  9
$MAXACTVP
 70
    64
  9
$PINSBASE
 10
0.0
 20
0.0
 30
0.0
  9
$PLIMCHECK
 70
     0
  9
$PEXTMIN
 10
3.070773833669022
 20
5.873386204737187
 30
0.0
  9
$PEXTMAX
 10
285.4943319513993
 20
198.4049299931636
 30
0.0
  9
$PLIMMIN
 10
-3.757080078125
 20
-4.180416584014892
  9
$PLIMMAX
 10
293.2112426757813
 20
205.7929110527039
  9
$UNITMODE
 70
     0
  9
$VISRETAIN
 70
     1
  9
$PLINEGEN
 70
     0
  9
$PSLTSCALE
 70
     1
  9
$TREEDEPTH
 70
  3020
  9
$CMLSTYLE
  2
Standard
  9
$CMLJUST
 70
     0
  9
$CMLSCALE
 40
20.0
  9
$PROXYGRAPHICS
 70
     1
  9
$MEASUREMENT
 70
     1
  9
$CELWEIGHT
370
    -1
  9
$ENDCAPS
280
     0
  9
$JOINSTYLE
280
     0
  9
$LWDISPLAY
290
     0
  9
$INSUNITS
 70
     4
  9
$HYPERLINKBASE
  1

  9
$STYLESHEET
  1

  9
$XEDIT
290
     1
  9
$CEPSNTYPE
380
     0
  9
$PSTYLEMODE
290
     1
  9
$FINGERPRINTGUID
  2
{03A8F9F0-C856-470B-BDF9-D9C40928B69F}
  9
$VERSIONGUID
  2
{875CFC08-2462-425D-8C36-6D8863A81073}
  9
$EXTNAMES
290
     1
  9
$PSVPSCALE
 40
0.0
  9
$OLESTARTUP
290
     0
  9
$SORTENTS
280
   127
  9
$INDEXCTL
280
     0
  9
$HIDETEXT
280
     1
  9
$XCLIPFRAME
290
     0
  9
$HALOGAP
280
     0
  9
$OBSCOLOR
 70
   257
  9
$OBSLTYPE
280
     0
  9
$INTERSECTIONDISPLAY
280
     0
  9
$INTERSECTIONCOLOR
 70
   257
  9
$DIMASSOC
280
     2
  9
$PROJECTNAME
  1

  0
ENDSEC
  0
SECTION
  2
CLASSES
  0
CLASS
  1
ACDBDICTIONARYWDFLT
  2
AcDbDictionaryWithDefault
  3
ObjectDBX Classes
 90
        0
 91
        1
280
     0
281
     0
  0
CLASS
  1
MATERIAL
  2
AcDbMaterial
  3
ObjectDBX Classes
 90
     1153
 91
        3
280
     0
281
     0
  0
CLASS
  1
DIMASSOC
  2
AcDbDimAssoc
  3
"AcDbDimAssoc|Product Desc:     AcDim ARX App For Dimension|Company:          Autodesk, Inc.|WEB Address:      www.autodesk.com"
 90
        0
 91
        6
280
     0
281
     0
  0
CLASS
  1
VISUALSTYLE
  2
AcDbVisualStyle
  3
ObjectDBX Classes
 90
     4095
 91
       16
280
     0
281
     0
  0
CLASS
  1
TABLESTYLE
  2
AcDbTableStyle
  3
ObjectDBX Classes
 90
     4095
 91
        1
280
     0
281
     0
  0
CLASS
  1
SCALE
  2
AcDbScale
  3
ObjectDBX Classes
 90
     1153
 91
       33
280
     0
281
     0
  0
CLASS
  1
MLEADERSTYLE
  2
AcDbMLeaderStyle
  3
ACDB_MLEADERSTYLE_CLASS
 90
     4095
 91
        1
280
     0
281
     0
  0
CLASS
  1
DICTIONARYVAR
  2
AcDbDictionaryVar
  3
ObjectDBX Classes
 90
        0
 91
        3
280
     0
281
     0
  0
CLASS
  1
CELLSTYLEMAP
  2
AcDbCellStyleMap
  3
ObjectDBX Classes
 90
     1152
 91
        3
280
     0
281
     0
  0
ENDSEC
  0
SECTION
  2
TABLES
  0
TABLE
  2
VPORT
  5
8
330
0
100
AcDbSymbolTable
 70
     1
  0
VPORT
  5
1D39
330
8
100
AcDbSymbolTableRecord
100
AcDbViewportTableRecord
  2
*Active
 70
     0
 10
0.0
 20
0.0
 11
1.0
 21
1.0
 12
247.9287921876452
 22
78.34102656160613
 13
0.0
 23
0.0
 14
10.0
 24
10.0
 15
10.0
 25
10.0
 16
0.0
 26
0.0
 36
1.0
 17
0.0
 27
0.0
 37
0.0
 40
202.51117704148
 41
2.304913294797688
 42
50.0
 43
0.0
 44
0.0
 50
0.0
 51
0.0
 71
     0
 72
  1000
 73
     1
 74
     3
 75
     0
 76
     0
 77
     0
 78
     0
281
     0
 65
     1
110
0.0
120
0.0
130
0.0
111
1.0
121
0.0
131
0.0
112
0.0
122
1.0
132
0.0
 79
     0
146
0.0
  0
ENDTAB
  0
TABLE
  2
LTYPE
  5
5
330
0
100
AcDbSymbolTable
 70
     2
  0
LTYPE
  5
14
330
5
100
AcDbSymbolTableRecord
100
AcDbLinetypeTableRecord
  2
ByBlock
 70
     0
  3

 72
    65
 73
     0
 40
0.0
  0
LTYPE
  5
15
330
5
100
AcDbSymbolTableRecord
100
AcDbLinetypeTableRecord
  2
ByLayer
 70
     0
  3

 72
    65
 73
     0
 40
0.0
  0
LTYPE
  5
16
330
5
100
AcDbSymbolTableRecord
100
AcDbLinetypeTableRecord
  2
Continuous
 70
     0
  3
Solid line
 72
    65
 73
     0
 40
0.0
  0
ENDTAB
  0
TABLE
  2
LAYER
  5
2
102
{ACAD_XDICTIONARY
360
5C
102
}
330
0
100
AcDbSymbolTable
 70
    10
  0
LAYER
  5
10
102
{ACAD_XDICTIONARY
360
1D95
102
}
330
2
100
AcDbSymbolTableRecord
100
AcDbLayerTableRecord
  2
0
 70
     0
 62
     7
  6
Continuous
370
    -3
390
F
  0
LAYER
  5
2D
102
{ACAD_XDICTIONARY
360
1D97
102
}
330
2
100
AcDbSymbolTableRecord
100
AcDbLayerTableRecord
  2
gaikei
 70
     0
 62
     7
  6
Continuous
370
    -3
390
F
  0
LAYER
  5
2E
102
{ACAD_XDICTIONARY
360
1D99
102
}
330
2
100
AcDbSymbolTableRecord
100
AcDbLayerTableRecord
  2
sumpo
 70
     0
 62
     4
  6
Continuous
370
    -3
390
F
  0
LAYER
  5
2F
102
{ACAD_XDICTIONARY
360
1D9B
102
}
330
2
100
AcDbSymbolTableRecord
100
AcDbLayerTableRecord
  2
fuzoku
 70
     0
 62
     3
  6
Continuous
370
    -3
390
F
  0
LAYER
  5
30
102
{ACAD_XDICTIONARY
360
1D9D
102
}
330
2
100
AcDbSymbolTableRecord
100
AcDbLayerTableRecord
  2
moji
 70
     0
 62
     2
  6
Continuous
370
    -3
390
F
  0
LAYER
  5
48
102
{ACAD_XDICTIONARY
360
1D9F
102
}
330
2
100
AcDbSymbolTableRecord
100
AcDbLayerTableRecord
  2
hojo
 70
     0
 62
     6
  6
Continuous
370
    -3
390
F
  0
LAYER
  5
8F4
330
2
100
AcDbSymbolTableRecord
100
AcDbLayerTableRecord
  2
Defpoints
 70
     0
 62
     7
  6
Continuous
290
     0
370
    -3
390
F
  0
LAYER
  5
B26
102
{ACAD_XDICTIONARY
360
1DA1
102
}
330
2
100
AcDbSymbolTableRecord
100
AcDbLayerTableRecord
  2
shiyouwaku
 70
     0
 62
     7
  6
Continuous
370
    -3
390
F
  0
LAYER
  5
B29
102
{ACAD_XDICTIONARY
360
1DA3
102
}
330
2
100
AcDbSymbolTableRecord
100
AcDbLayerTableRecord
  2
zubanwaku
 70
     0
 62
     7
  6
Continuous
370
    -3
390
F
  0
LAYER
  5
B2A
102
{ACAD_XDICTIONARY
360
1DA5
102
}
330
2
100
AcDbSymbolTableRecord
100
AcDbLayerTableRecord
  2
zubanmoji
 70
     0
 62
     3
  6
Continuous
370
    -3
390
F
  0
ENDTAB
  0
TABLE
  2
STYLE
  5
3
330
0
100
AcDbSymbolTable
 70
     2
  0
STYLE
  5
11
330
3
100
AcDbSymbolTableRecord
100
AcDbTextStyleTableRecord
  2
Standard
 70
     0
 40
0.0
 41
1.0
 50
0.0
 71
     0
 42
9.0
  3
romans.shx
  4
extfont.shx
  0
STYLE
  5
425
330
3
100
AcDbSymbolTableRecord
100
AcDbTextStyleTableRecord
  2
KKZ-Y
 70
     0
 40
0.0
 41
1.0
 50
0.0
 71
     0
 42
300.0
  3
TXT
  4
EXTFONT
  0
ENDTAB
  0
TABLE
  2
VIEW
  5
6
330
0
100
AcDbSymbolTable
 70
     2
  0
ENDTAB
  0
TABLE
  2
UCS
  5
7
330
0
100
AcDbSymbolTable
 70
     0
  0
ENDTAB
  0
TABLE
  2
APPID
  5
9
330
0
100
AcDbSymbolTable
 70
     6
  0
APPID
  5
12
330
9
100
AcDbSymbolTableRecord
100
AcDbRegAppTableRecord
  2
ACAD
 70
     0
  0
APPID
  5
51
330
9
100
AcDbSymbolTableRecord
100
AcDbRegAppTableRecord
  2
AcadAnnotative
 70
     0
  0
APPID
  5
52
330
9
100
AcDbSymbolTableRecord
100
AcDbRegAppTableRecord
  2
ACAD_DSTYLE_DIMJAG
 70
     0
  0
APPID
  5
53
330
9
100
AcDbSymbolTableRecord
100
AcDbRegAppTableRecord
  2
ACAD_DSTYLE_DIMTALN
 70
     0
  0
APPID
  5
54
330
9
100
AcDbSymbolTableRecord
100
AcDbRegAppTableRecord
  2
ACAD_PSEXT
 70
     0
  0
APPID
  5
1D82
330
9
100
AcDbSymbolTableRecord
100
AcDbRegAppTableRecord
  2
ACAD_MLEADERVER
 70
     0
  0
ENDTAB
  0
TABLE
  2
DIMSTYLE
  5
A
330
0
100
AcDbSymbolTable
 70
     4
100
AcDbDimStyleTable
 71
     3
340
29
340
4F
340
50
  0
DIMSTYLE
105
29
102
{ACAD_REACTORS
330
1C16
330
1C19
330
1C1C
102
}
330
A
100
AcDbSymbolTableRecord
100
AcDbDimStyleTableRecord
  2
ISO-25
 70
     0
 41
3.0
 42
5.0
 43
6.0
 44
2.0
 73
     0
 74
     0
 77
     1
 78
     8
140
3.0
141
2.5
143
0.03937007874016
147
1.0
171
     3
172
     1
176
     4
177
     4
178
     4
271
     2
272
     2
274
     3
283
     0
284
     8
340
11
341
8EC
342
8EC
  0
DIMSTYLE
105
4F
330
A
100
AcDbSymbolTableRecord
100
AcDbDimStyleTableRecord
  2
Standard
 70
     0
340
11
  0
DIMSTYLE
105
50
330
A
100
AcDbSymbolTableRecord
100
AcDbDimStyleTableRecord
  2
Annotative
 70
     0
 40
0.0
340
11
1001
AcadAnnotative
1000
AnnotativeData
1002
{
1070
     1
1070
     1
1002
}
1001
ACAD_DSTYLE_DIMJAG
1070
   388
1040
1.5
1001
ACAD_DSTYLE_DIMTALN
1070
   392
1070
     0
  0
ENDTAB
  0
TABLE
  2
BLOCK_RECORD
  5
1
330
0
100
AcDbSymbolTable
 70
     9
  0
BLOCK_RECORD
  5
21
330
1
100
AcDbSymbolTableRecord
100
AcDbBlockTableRecord
  2
*Model_Space
340
24
  0
BLOCK_RECORD
  5
187F
330
1
100
AcDbSymbolTableRecord
100
AcDbBlockTableRecord
  2
*Paper_Space
340
1880
  0
BLOCK_RECORD
  5
8EC
330
1
100
AcDbSymbolTableRecord
100
AcDbBlockTableRecord
  2
_Open30
340
0
102
{BLKREFS
331
1B8E
331
1B8F
331
1B82
331
1B83
331
1B76
331
1B77
331
1CEE
331
1CEF
331
1CF7
331
1CF8
331
1D00
331
1D01
102
}
  0
BLOCK_RECORD
  5
1B71
330
1
100
AcDbSymbolTableRecord
100
AcDbBlockTableRecord
  2
*D1
340
0
  0
BLOCK_RECORD
  5
1B7D
330
1
100
AcDbSymbolTableRecord
100
AcDbBlockTableRecord
  2
*D2
340
0
  0
BLOCK_RECORD
  5
1B89
330
1
100
AcDbSymbolTableRecord
100
AcDbBlockTableRecord
  2
*D3
340
0
  0
BLOCK_RECORD
  5
1B95
330
1
100
AcDbSymbolTableRecord
100
AcDbBlockTableRecord
  2
A$C21285C17
340
0
  0
BLOCK_RECORD
  5
1C91
330
1
100
AcDbSymbolTableRecord
100
AcDbBlockTableRecord
  2
*D5
340
0
  0
BLOCK_RECORD
  5
1C9D
330
1
100
AcDbSymbolTableRecord
100
AcDbBlockTableRecord
  2
*D6
340
0
  0
BLOCK_RECORD
  5
1CA9
330
1
100
AcDbSymbolTableRecord
100
AcDbBlockTableRecord
  2
*D7
340
0
  0
ENDTAB
  0
ENDSEC
  0
SECTION
  2
BLOCKS
  0
BLOCK
  5
22
330
21
100
AcDbEntity
  8
0
100
AcDbBlockBegin
  2
*Model_Space
 70
     0
 10
0.0
 20
0.0
 30
0.0
  3
*Model_Space
  1

  0
ENDBLK
  5
23
330
21
100
AcDbEntity
  8
0
100
AcDbBlockEnd
  0
BLOCK
  5
1881
330
187F
100
AcDbEntity
 67
     1
  8
0
100
AcDbBlockBegin
  2
*Paper_Space
 70
     0
 10
0.0
 20
0.0
 30
0.0
  3
*Paper_Space
  1

  0
ENDBLK
  5
1882
330
187F
100
AcDbEntity
 67
     1
  8
0
100
AcDbBlockEnd
  0
BLOCK
  5
8F0
330
8EC
100
AcDbEntity
  8
0
100
AcDbBlockBegin
  2
_Open30
 70
     0
 10
0.0
 20
0.0
 30
0.0
  3
_Open30
  1

  0
LINE
  5
8ED
330
8EC
100
AcDbEntity
  8
0
  6
ByBlock
 62
     0
370
    -2
100
AcDbLine
 10
-1.0
 20
0.26794919
 30
0.0
 11
0.0
 21
0.0
 31
0.0
  0
LINE
  5
8EE
330
8EC
100
AcDbEntity
  8
0
  6
ByBlock
 62
     0
370
    -2
100
AcDbLine
 10
0.0
 20
0.0
 30
0.0
 11
-1.0
 21
-0.26794919
 31
0.0
  0
LINE
  5
8EF
330
8EC
100
AcDbEntity
  8
0
  6
ByBlock
 62
     0
370
    -2
100
AcDbLine
 10
0.0
 20
0.0
 30
0.0
 11
-1.0
 21
0.0
 31
0.0
  0
ENDBLK
  5
8F1
330
8EC
100
AcDbEntity
  8
0
100
AcDbBlockEnd
  0
BLOCK
  5
1B72
330
1B71
100
AcDbEntity
  8
0
100
AcDbBlockBegin
  2
*D1
 70
     1
 10
0.0
 20
0.0
 30
0.0
  3
*D1
  1

  0
LINE
  5
1B73
330
1B71
100
AcDbEntity
  8
sumpo
370
    -2
100
AcDbLine
 10
164.1240907677513
 20
613.815151086591
 30
0.0
 11
164.1240907677513
 21
651.1177267056457
 31
0.0
  0
LINE
  5
1B74
330
1B71
100
AcDbEntity
  8
sumpo
370
    -2
100
AcDbLine
 10
270.1240907677513
 20
613.815151086591
 30
0.0
 11
270.1240907677513
 21
651.1177267056457
 31
0.0
  0
LINE
  5
1B75
330
1B71
100
AcDbEntity
  8
sumpo
370
    -2
100
AcDbLine
 10
172.1240907677513
 20
641.1177267056457
 30
0.0
 11
262.1240907677513
 21
641.1177267056457
 31
0.0
  0
INSERT
  5
1B76
330
1B71
100
AcDbEntity
  8
sumpo
370
    -2
100
AcDbBlockReference
  2
_Open30
 10
164.1240907677513
 20
641.1177267056457
 30
0.0
 41
8.0
 42
8.0
 43
8.0
 50
180.0
  0
INSERT
  5
1B77
330
1B71
100
AcDbEntity
  8
sumpo
370
    -2
100
AcDbBlockReference
  2
_Open30
 10
270.1240907677513
 20
641.1177267056457
 30
0.0
 41
8.0
 42
8.0
 43
8.0
  0
MTEXT
  5
1B78
330
1B71
100
AcDbEntity
  8
sumpo
 62
     4
100
AcDbMText
 10
217.1240907677513
 20
649.1177267056457
 30
0.0
 40
8.0
 41
0.0
 71
     5
 72
     1
  1
106
 73
     1
 44
1.0
  0
POINT
  5
1B79
330
1B71
100
AcDbEntity
  8
Defpoints
 62
     0
100
AcDbPoint
 10
164.1240907677513
 20
603.8151510865909
 30
0.0
  0
POINT
  5
1B7A
330
1B71
100
AcDbEntity
  8
Defpoints
 62
     0
100
AcDbPoint
 10
270.1240907677513
 20
603.8151510865909
 30
0.0
  0
POINT
  5
1B7B
330
1B71
100
AcDbEntity
  8
Defpoints
 62
     0
100
AcDbPoint
 10
270.1240907677513
 20
641.1177267056457
 30
0.0
  0
ENDBLK
  5
1B7C
330
1B71
100
AcDbEntity
  8
0
100
AcDbBlockEnd
  0
BLOCK
  5
1B7E
330
1B7D
100
AcDbEntity
  8
0
100
AcDbBlockBegin
  2
*D2
 70
     1
 10
0.0
 20
0.0
 30
0.0
  3
*D2
  1

  0
LINE
  5
1B7F
330
1B7D
100
AcDbEntity
  8
sumpo
370
    -2
100
AcDbLine
 10
154.1240907677513
 20
603.8151510865909
 30
0.0
 11
115.0271829087005
 21
603.8151510865909
 31
0.0
  0
LINE
  5
1B80
330
1B7D
100
AcDbEntity
  8
sumpo
370
    -2
100
AcDbLine
 10
202.1240907677513
 20
508.8151510865909
 30
0.0
 11
115.0271829087005
 21
508.8151510865909
 31
0.0
  0
LINE
  5
1B81
330
1B7D
100
AcDbEntity
  8
sumpo
370
    -2
100
AcDbLine
 10
125.0271829087005
 20
595.8151510865909
 30
0.0
 11
125.0271829087005
 21
516.8151510865909
 31
0.0
  0
INSERT
  5
1B82
330
1B7D
100
AcDbEntity
  8
sumpo
370
    -2
100
AcDbBlockReference
  2
_Open30
 10
125.0271829087005
 20
603.8151510865909
 30
0.0
 41
8.0
 42
8.0
 43
8.0
 50
90.0
  0
INSERT
  5
1B83
330
1B7D
100
AcDbEntity
  8
sumpo
370
    -2
100
AcDbBlockReference
  2
_Open30
 10
125.0271829087005
 20
508.8151510865909
 30
0.0
 41
8.0
 42
8.0
 43
8.0
 50
270.0
  0
MTEXT
  5
1B84
330
1B7D
100
AcDbEntity
  8
sumpo
 62
     4
100
AcDbMText
 10
117.0271829087004
 20
556.3151510865909
 30
0.0
 40
8.0
 41
0.0
 71
     5
 72
     1
  1
95
 11
0.0000000000000001
 21
1.0
 31
0.0
 73
     1
 44
1.0
  0
POINT
  5
1B85
330
1B7D
100
AcDbEntity
  8
Defpoints
 62
     0
100
AcDbPoint
 10
164.1240907677513
 20
603.8151510865909
 30
0.0
  0
POINT
  5
1B86
330
1B7D
100
AcDbEntity
  8
Defpoints
 62
     0
100
AcDbPoint
 10
212.1240907677513
 20
508.8151510865909
 30
0.0
  0
POINT
  5
1B87
330
1B7D
100
AcDbEntity
  8
Defpoints
 62
     0
100
AcDbPoint
 10
125.0271829087005
 20
508.8151510865909
 30
0.0
  0
ENDBLK
  5
1B88
330
1B7D
100
AcDbEntity
  8
0
100
AcDbBlockEnd
  0
BLOCK
  5
1B8A
330
1B89
100
AcDbEntity
  8
0
100
AcDbBlockBegin
  2
*D3
 70
     1
 10
0.0
 20
0.0
 30
0.0
  3
*D3
  1

  0
LINE
  5
1B8B
330
1B89
100
AcDbEntity
  8
sumpo
370
    -2
100
AcDbLine
 10
414.5717239156756
 20
613.815151086591
 30
0.0
 11
414.5717239156756
 21
651.1177267056457
 31
0.0
  0
LINE
  5
1B8C
330
1B89
100
AcDbEntity
  8
sumpo
370
    -2
100
AcDbLine
 10
353.5717239156757
 20
564.315151086591
 30
0.0
 11
353.5717239156757
 21
651.1177267056457
 31
0.0
  0
LINE
  5
1B8D
330
1B89
100
AcDbEntity
  8
sumpo
370
    -2
100
AcDbLine
 10
406.5717239156756
 20
641.1177267056457
 30
0.0
 11
361.5717239156757
 21
641.1177267056457
 31
0.0
  0
INSERT
  5
1B8E
330
1B89
100
AcDbEntity
  8
sumpo
370
    -2
100
AcDbBlockReference
  2
_Open30
 10
414.5717239156756
 20
641.1177267056457
 30
0.0
 41
8.0
 42
8.0
 43
8.0
  0
INSERT
  5
1B8F
330
1B89
100
AcDbEntity
  8
sumpo
370
    -2
100
AcDbBlockReference
  2
_Open30
 10
353.5717239156757
 20
641.1177267056457
 30
0.0
 41
8.0
 42
8.0
 43
8.0
 50
180.0
  0
MTEXT
  5
1B90
330
1B89
100
AcDbEntity
  8
sumpo
 62
     4
100
AcDbMText
 10
384.0717239156757
 20
649.1177267056457
 30
0.0
 40
8.0
 41
0.0
 71
     5
 72
     1
  1
61
 73
     1
 44
1.0
  0
POINT
  5
1B91
330
1B89
100
AcDbEntity
  8
Defpoints
 62
     0
100
AcDbPoint
 10
414.5717239156756
 20
603.8151510865909
 30
0.0
  0
POINT
  5
1B92
330
1B89
100
AcDbEntity
  8
Defpoints
 62
     0
100
AcDbPoint
 10
353.5717239156757
 20
554.3151510865909
 30
0.0
  0
POINT
  5
1B93
330
1B89
100
AcDbEntity
  8
Defpoints
 62
     0
100
AcDbPoint
 10
353.5717239156757
 20
641.1177267056457
 30
0.0
  0
ENDBLK
  5
1B94
330
1B89
100
AcDbEntity
  8
0
100
AcDbBlockEnd
  0
BLOCK
  5
1C12
330
1B95
100
AcDbEntity
  8
0
100
AcDbBlockBegin
  2
A$C21285C17
 70
     0
 10
0.0
 20
0.0
 30
0.0
  3
A$C21285C17
  1

  0
TEXT
  5
1B96
330
1B95
100
AcDbEntity
  8
zubanmoji
100
AcDbText
 10
113.7263531870003
 20
-164.7077796684366
 30
0.0
 40
2.0
  1
TATSUTA ELECTRIC WIRE & CABLE CO., LTD. 
 72
     1
 11
145.9739722346193
 21
-163.7077796684366
 31
0.0
100
AcDbText
 73
     2
  0
DIMENSION
  5
1B97
102
{ACAD_XDICTIONARY
360
1B98
102
}
102
{ACAD_REACTORS
330
1B99
102
}
330
1B95
100
AcDbEntity
  8
sumpo
100
AcDbDimension
  2
*D3
 10
281.2373536581558
 20
-62.14868905903222
 30
0.0
 11
311.7373536581558
 21
-54.14868905903222
 31
0.0
 12
-72.33437025751982
 22
-703.2664157646779
 32
0.0
 71
     5
 42
61.00000000000005
  3
ISO-25
100
AcDbAlignedDimension
 13
342.2373536581559
 23
-99.451264678087
 33
0.0
 14
281.2373536581558
 24
-148.951264678087
 34
0.0
100
AcDbRotatedDimension
  0
DIMENSION
  5
1B9A
102
{ACAD_XDICTIONARY
360
1B9B
102
}
102
{ACAD_REACTORS
330
1B9C
102
}
330
1B95
100
AcDbEntity
  8
sumpo
100
AcDbDimension
  2
*D2
 10
52.6928126511807
 20
-194.451264678087
 30
0.0
 11
44.69281265118062
 21
-146.951264678087
 31
0.0
 12
-72.33437025751982
 22
-703.2664157646779
 32
0.0
 71
     5
 42
95.0
  3
ISO-25
100
AcDbAlignedDimension
 13
91.78972051023146
 23
-99.451264678087
 33
0.0
 14
139.7897205102314
 24
-194.451264678087
 34
0.0
 50
90.0
100
AcDbRotatedDimension
  0
DIMENSION
  5
1B9D
102
{ACAD_XDICTIONARY
360
1B9E
102
}
102
{ACAD_REACTORS
330
1B9F
102
}
330
1B95
100
AcDbEntity
  8
sumpo
100
AcDbDimension
  2
*D1
 10
197.7897205102314
 20
-62.14868905903222
 30
0.0
 11
144.7897205102314
 21
-54.14868905903222
 31
0.0
 12
-72.33437025751982
 22
-703.2664157646779
 32
0.0
 71
     5
 42
106.0
  3
ISO-25
100
AcDbAlignedDimension
 13
91.78972051023146
 23
-99.451264678087
 33
0.0
 14
197.7897205102314
 24
-99.451264678087
 34
0.0
100
AcDbRotatedDimension
  0
LINE
  5
1BA0
330
1B95
100
AcDbEntity
  8
gaikei
100
AcDbLine
 10
194.7897205102314
 20
-294.3044366714199
 30
0.0
 11
197.7897205102315
 21
-294.30443667142
 31
0.0
  0
LINE
  5
1BA1
330
1B95
100
AcDbEntity
  8
gaikei
100
AcDbLine
 10
184.7897205102316
 20
-259.6044366714199
 30
0.0
 11
190.7897205102315
 21
-259.6044366714199
 31
0.0
  0
LINE
  5
1BA2
330
1B95
100
AcDbEntity
  8
gaikei
100
AcDbLine
 10
170.7897205102316
 20
-259.60443667142
 30
0.0
 11
176.7897205102315
 21
-259.6044366714199
 31
0.0
  0
LINE
  5
1BA3
330
1B95
100
AcDbEntity
  8
gaikei
100
AcDbLine
 10
190.7897205102315
 20
-259.6044366714199
 30
0.0
 11
190.7897205102315
 21
-262.6044366714199
 31
0.0
  0
LINE
  5
1BA4
330
1B95
100
AcDbEntity
  8
gaikei
100
AcDbLine
 10
184.7897205102316
 20
-259.6044366714199
 30
0.0
 11
184.7897205102316
 21
-262.6044366714199
 31
0.0
  0
LINE
  5
1BA5
330
1B95
100
AcDbEntity
  8
gaikei
100
AcDbLine
 10
176.7897205102315
 20
-259.6044366714199
 30
0.0
 11
176.7897205102315
 21
-262.6044366714199
 31
0.0
  0
LINE
  5
1BA6
330
1B95
100
AcDbEntity
  8
gaikei
100
AcDbLine
 10
170.7897205102316
 20
-259.60443667142
 30
0.0
 11
170.7897205102316
 21
-262.6044366714199
 31
0.0
  0
LINE
  5
1BA7
330
1B95
100
AcDbEntity
  8
gaikei
100
AcDbLine
 10
139.7897205102315
 20
-318.10443667142
 30
0.0
 11
149.7897205102315
 21
-318.10443667142
 31
0.0
  0
LINE
  5
1BA8
330
1B95
100
AcDbEntity
  8
gaikei
100
AcDbLine
 10
139.7897205102315
 20
-314.60443667142
 30
0.0
 11
149.7897205102315
 21
-314.60443667142
 31
0.0
  0
LINE
  5
1BA9
330
1B95
100
AcDbEntity
  8
gaikei
100
AcDbLine
 10
149.7897205102315
 20
-314.60443667142
 30
0.0
 11
149.7897205102315
 21
-320.60443667142
 31
0.0
  0
LINE
  5
1BAA
330
1B95
100
AcDbEntity
  8
gaikei
100
AcDbLine
 10
139.7897205102315
 20
-314.60443667142
 30
0.0
 11
139.7897205102315
 21
-320.60443667142
 31
0.0
  0
LINE
  5
1BAB
330
1B95
100
AcDbEntity
  8
gaikei
100
AcDbLine
 10
94.78972051023148
 20
-307.60443667142
 30
0.0
 11
194.7897205102314
 21
-307.60443667142
 31
0.0
  0
LINE
  5
1BAC
330
1B95
100
AcDbEntity
  8
gaikei
100
AcDbLine
 10
91.7897205102315
 20
-313.60443667142
 30
0.0
 11
197.7897205102315
 21
-313.60443667142
 31
0.0
  0
LINE
  5
1BAD
330
1B95
100
AcDbEntity
  8
gaikei
100
AcDbLine
 10
94.78972051023154
 20
-289.6044366714201
 30
0.0
 11
94.78972051023148
 21
-307.60443667142
 31
0.0
  0
LINE
  5
1BAE
330
1B95
100
AcDbEntity
  8
gaikei
100
AcDbLine
 10
194.7897205102314
 20
-289.6044366714201
 30
0.0
 11
194.7897205102314
 21
-307.60443667142
 31
0.0
  0
ARC
  5
1BAF
330
1B95
100
AcDbEntity
  8
gaikei
100
AcDbCircle
 10
96.7897205102315
 20
-289.6044366714201
 30
0.0
 40
2.0
100
AcDbArc
 50
90.0
 51
180.0
  0
ARC
  5
1BB0
330
1B95
100
AcDbEntity
  8
gaikei
100
AcDbCircle
 10
192.7897205102314
 20
-289.6044366714201
 30
0.0
 40
2.0
100
AcDbArc
 50
0.0
 51
90.0
  0
LINE
  5
1BB1
330
1B95
100
AcDbEntity
  8
gaikei
100
AcDbLine
 10
96.7897205102315
 20
-287.60443667142
 30
0.0
 11
192.7897205102314
 21
-287.60443667142
 31
0.0
  0
LINE
  5
1BB2
330
1B95
100
AcDbEntity
  8
gaikei
100
AcDbLine
 10
91.7897205102315
 20
-294.30443667142
 30
0.0
 11
94.78972051023148
 21
-294.3044366714199
 31
0.0
  0
LINE
  5
1BB3
330
1B95
100
AcDbEntity
  8
gaikei
100
AcDbLine
 10
91.7897205102315
 20
-272.60443667142
 30
0.0
 11
197.7897205102315
 21
-272.60443667142
 31
0.0
  0
LINE
  5
1BB4
330
1B95
100
AcDbEntity
  8
gaikei
100
AcDbLine
 10
197.7897205102314
 20
-262.6044366714199
 30
0.0
 11
197.7897205102315
 21
-320.60443667142
 31
0.0
  0
LINE
  5
1BB5
330
1B95
100
AcDbEntity
  8
gaikei
100
AcDbLine
 10
91.78972051023155
 20
-262.60443667142
 30
0.0
 11
197.7897205102314
 21
-262.6044366714199
 31
0.0
  0
MTEXT
  5
1BB6
330
1B95
100
AcDbEntity
  8
fuzoku
100
AcDbMText
 10
109.3487106192694
 20
-134.915516929693
 30
0.0
 40
1.5
 41
4.228860106140018
 71
     1
 72
     5
  1
1\P2\P3\P4\P5\P6\P7\P8
 73
     1
 44
1.0
  0
LINE
  5
1BB7
330
1B95
100
AcDbEntity
  8
fuzoku
100
AcDbLine
 10
148.0260722754835
 20
-133.2224589050081
 30
0.0
 11
171.2752691168895
 21
-133.2224589050081
 31
0.0
  0
LINE
  5
1BB8
330
1B95
100
AcDbEntity
  8
fuzoku
100
AcDbLine
 10
122.3669023179847
 20
-129.3967806048845
 30
0.0
 11
156.3901131062763
 21
-129.3967806048845
 31
0.0
  0
TEXT
  5
1BB9
330
1B95
100
AcDbEntity
  8
fuzoku
100
AcDbText
 10
133.4244444228094
 20
-132.513999214053
 30
0.0
 40
2.5
  1
　　　　　AD-AS-1LM
100
AcDbText
  0
TEXT
  5
1BBA
330
1B95
100
AcDbEntity
  8
fuzoku
100
AcDbText
 10
123.2174808912966
 20
-128.6883209139293
 30
0.0
 40
4.0
  1
漏水位置検知器
100
AcDbText
  0
TEXT
  5
1BBB
330
1B95
100
AcDbEntity
  8
fuzoku
100
AcDbText
 10
183.2563871768982
 20
-159.4435912882818
 30
0.0
 40
2.0
  1
警報解除
 72
     4
 11
187.7897205102316
 21
-158.4435912882818
 31
0.0
100
AcDbText
  0
TEXT
  5
1BBC
330
1B95
100
AcDbEntity
  8
fuzoku
100
AcDbText
 10
167.9230538435648
 20
-159.4435912882818
 30
0.0
 40
2.0
  1
ブザー停止
 72
     4
 11
173.7897205102315
 21
-158.4435912882818
 31
0.0
100
AcDbText
  0
TEXT
  5
1BBD
330
1B95
100
AcDbEntity
  8
fuzoku
100
AcDbText
 10
185.6563871768982
 20
-143.9910322821363
 30
0.0
 40
2.0
  1
警報
 72
     4
 11
187.7897205102316
 21
-142.9910322821363
 31
0.0
100
AcDbText
  0
TEXT
  5
1BBE
330
1B95
100
AcDbEntity
  8
fuzoku
100
AcDbText
 10
185.6563871768982
 20
-133.6475332537506
 30
0.0
 40
2.0
  1
電源
 72
     4
 11
187.7897205102316
 21
-132.6475332537507
 31
0.0
100
AcDbText
  0
LINE
  5
1BBF
330
1B95
100
AcDbEntity
  8
gaikei
100
AcDbLine
 10
108.2897205102314
 20
-155.4512646780869
 30
0.0
 11
101.7897205102314
 21
-155.4512646780868
 31
0.0
  0
LINE
  5
1BC0
330
1B95
100
AcDbEntity
  8
gaikei
100
AcDbLine
 10
108.2897205102314
 20
-133.4512646780867
 30
0.0
 11
101.7897205102314
 21
-133.4512646780867
 31
0.0
  0
LINE
  5
1BC1
330
1B95
100
AcDbEntity
  8
gaikei
100
AcDbLine
 10
108.2897205102314
 20
-133.4512646780867
 30
0.0
 11
108.2897205102314
 21
-155.4512646780869
 31
0.0
  0
LINE
  5
1BC2
330
1B95
100
AcDbEntity
  8
gaikei
100
AcDbLine
 10
101.7897205102314
 20
-133.4512646780867
 30
0.0
 11
101.7897205102314
 21
-155.4512646780868
 31
0.0
  0
LINE
  5
1BC3
330
1B95
100
AcDbEntity
  8
fuzoku
100
AcDbLine
 10
159.7897205102314
 20
-137.9512646780868
 30
0.0
 11
159.7897205102314
 21
-149.4512646780869
 31
0.0
  0
LINE
  5
1BC4
330
1B95
100
AcDbEntity
  8
fuzoku
100
AcDbLine
 10
152.2897205102314
 20
-137.9512646780866
 30
0.0
 11
152.2897205102314
 21
-149.4512646780868
 31
0.0
  0
LINE
  5
1BC5
330
1B95
100
AcDbEntity
  8
fuzoku
100
AcDbLine
 10
144.7897205102314
 20
-137.9512646780866
 30
0.0
 11
144.7897205102314
 21
-149.4512646780868
 31
0.0
  0
LINE
  5
1BC6
330
1B95
100
AcDbEntity
  8
fuzoku
100
AcDbLine
 10
133.2897205102314
 20
-149.4512646780868
 30
0.0
 11
125.2897205102314
 21
-149.4512646780868
 31
0.0
  0
LINE
  5
1BC7
330
1B95
100
AcDbEntity
  8
fuzoku
100
AcDbLine
 10
133.2897205102314
 20
-137.9512646780868
 30
0.0
 11
125.2897205102314
 21
-137.9512646780868
 31
0.0
  0
LINE
  5
1BC8
330
1B95
100
AcDbEntity
  8
fuzoku
100
AcDbLine
 10
159.7897205102314
 20
-149.4512646780869
 30
0.0
 11
137.2897205102314
 21
-149.4512646780868
 31
0.0
  0
LINE
  5
1BC9
330
1B95
100
AcDbEntity
  8
fuzoku
100
AcDbLine
 10
159.7897205102314
 20
-137.9512646780868
 30
0.0
 11
137.2897205102314
 21
-137.9512646780866
 31
0.0
  0
LINE
  5
1BCA
330
1B95
100
AcDbEntity
  8
fuzoku
100
AcDbLine
 10
137.2897205102314
 20
-137.9512646780866
 30
0.0
 11
137.2897205102314
 21
-149.4512646780868
 31
0.0
  0
LINE
  5
1BCB
330
1B95
100
AcDbEntity
  8
fuzoku
100
AcDbLine
 10
133.2897205102314
 20
-137.9512646780868
 30
0.0
 11
133.2897205102314
 21
-149.4512646780868
 31
0.0
  0
LINE
  5
1BCC
330
1B95
100
AcDbEntity
  8
fuzoku
100
AcDbLine
 10
125.2897205102314
 20
-137.9512646780868
 30
0.0
 11
125.2897205102314
 21
-149.4512646780868
 31
0.0
  0
CIRCLE
  5
1BCD
330
1B95
100
AcDbEntity
  8
gaikei
100
AcDbCircle
 10
187.7897205102314
 20
-151.951264678087
 30
0.0
 40
2.999999999999943
  0
CIRCLE
  5
1BCE
330
1B95
100
AcDbEntity
  8
gaikei
100
AcDbCircle
 10
173.7897205102314
 20
-151.9512646780869
 30
0.0
 40
2.999999999999943
  0
CIRCLE
  5
1BCF
330
1B95
100
AcDbEntity
  8
fuzoku
100
AcDbCircle
 10
187.7897205102316
 20
-128.9512646780867
 30
0.0
 40
2.0
  0
CIRCLE
  5
1BD0
330
1B95
100
AcDbEntity
  8
fuzoku
100
AcDbCircle
 10
187.7897205102315
 20
-138.9512646780868
 30
0.0
 40
2.0
  0
LINE
  5
1BD1
330
1B95
100
AcDbEntity
  8
gaikei
100
AcDbLine
 10
149.7897205102314
 20
-189.451264678087
 30
0.0
 11
149.7897205102314
 21
-194.451264678087
 31
0.0
  0
LINE
  5
1BD2
102
{ACAD_REACTORS
330
1B9C
102
}
330
1B95
100
AcDbEntity
  8
gaikei
100
AcDbLine
 10
139.7897205102314
 20
-189.451264678087
 30
0.0
 11
139.7897205102314
 21
-194.451264678087
 31
0.0
  0
LINE
  5
1BD3
330
1B95
100
AcDbEntity
  8
gaikei
100
AcDbLine
 10
197.7897205102314
 20
-175.451264678087
 30
0.0
 11
91.78972051023146
 21
-175.451264678087
 31
0.0
  0
LINE
  5
1BD4
330
1B95
100
AcDbEntity
  8
gaikei
100
AcDbLine
 10
197.7897205102314
 20
-166.951264678087
 30
0.0
 11
91.78972051023146
 21
-166.951264678087
 31
0.0
  0
LINE
  5
1BD5
330
1B95
100
AcDbEntity
  8
gaikei
100
AcDbLine
 10
197.7897205102314
 20
-121.9512646780867
 30
0.0
 11
91.78972051023146
 21
-121.9512646780867
 31
0.0
  0
LINE
  5
1BD6
330
1B95
100
AcDbEntity
  8
gaikei
100
AcDbLine
 10
197.7897205102314
 20
-113.4512646780869
 30
0.0
 11
91.78972051023146
 21
-113.4512646780869
 31
0.0
  0
LINE
  5
1BD7
330
1B95
100
AcDbEntity
  8
gaikei
100
AcDbLine
 10
96.78972051023146
 20
-111.951264678087
 30
0.0
 11
91.78972051023146
 21
-111.951264678087
 31
0.0
  0
LINE
  5
1BD8
330
1B95
100
AcDbEntity
  8
gaikei
100
AcDbLine
 10
96.78972051023146
 20
-105.451264678087
 30
0.0
 11
91.78972051023146
 21
-105.451264678087
 31
0.0
  0
LINE
  5
1BD9
330
1B95
100
AcDbEntity
  8
gaikei
100
AcDbLine
 10
96.78972051023146
 20
-105.451264678087
 30
0.0
 11
96.78972051023146
 21
-111.951264678087
 31
0.0
  0
LINE
  5
1BDA
330
1B95
100
AcDbEntity
  8
gaikei
100
AcDbLine
 10
192.7897205102315
 20
-111.951264678087
 30
0.0
 11
192.7897205102315
 21
-105.4512646780867
 31
0.0
  0
LINE
  5
1BDB
330
1B95
100
AcDbEntity
  8
gaikei
100
AcDbLine
 10
336.2373536581566
 20
-194.4512646780869
 30
0.0
 11
339.7373536581566
 21
-194.451264678087
 31
0.0
  0
LINE
  5
1BDC
330
1B95
100
AcDbEntity
  8
gaikei
100
AcDbLine
 10
197.7897205102314
 20
-111.951264678087
 30
0.0
 11
192.7897205102315
 21
-111.951264678087
 31
0.0
  0
LINE
  5
1BDD
330
1B95
100
AcDbEntity
  8
gaikei
100
AcDbLine
 10
197.7897205102314
 20
-105.4512646780867
 30
0.0
 11
192.7897205102315
 21
-105.4512646780867
 31
0.0
  0
LINE
  5
1BDE
330
1B95
100
AcDbEntity
  8
gaikei
100
AcDbLine
 10
339.7373536581566
 20
-189.4512646780869
 30
0.0
 11
339.7373536581566
 21
-194.451264678087
 31
0.0
  0
LINE
  5
1BDF
330
1B95
100
AcDbEntity
  8
gaikei
100
AcDbLine
 10
336.2373536581566
 20
-189.4512646780867
 30
0.0
 11
336.2373536581566
 21
-194.4512646780869
 31
0.0
  0
LINE
  5
1BE0
330
1B95
100
AcDbEntity
  8
gaikei
100
AcDbLine
 10
338.7373536581559
 20
-126.451264678087
 30
0.0
 11
340.2373536581559
 21
-129.451264678087
 31
0.0
  0
LINE
  5
1BE1
330
1B95
100
AcDbEntity
  8
gaikei
100
AcDbLine
 10
340.2373536581559
 20
-129.451264678087
 30
0.0
 11
342.2373536581559
 21
-129.451264678087
 31
0.0
  0
LINE
  5
1BE2
330
1B95
100
AcDbEntity
  8
gaikei
100
AcDbLine
 10
337.2373536581559
 20
-126.451264678087
 30
0.0
 11
337.2373536581559
 21
-162.7369789638012
 31
0.0
  0
LINE
  5
1BE3
330
1B95
100
AcDbEntity
  8
gaikei
100
AcDbLine
 10
337.2373536581559
 20
-162.7369789638012
 30
0.0
 11
342.2373536581559
 21
-163.451264678087
 31
0.0
  0
LINE
  5
1BE4
102
{ACAD_REACTORS
330
1B99
102
}
330
1B95
100
AcDbEntity
  8
gaikei
100
AcDbLine
 10
342.2373536581559
 20
-129.451264678087
 30
0.0
 11
342.2373536581559
 21
-99.451264678087
 31
0.0
  0
LINE
  5
1BE5
330
1B95
100
AcDbEntity
  8
gaikei
100
AcDbLine
 10
337.2373536581559
 20
-126.451264678087
 30
0.0
 11
342.2373536581559
 21
-126.451264678087
 31
0.0
  0
LINE
  5
1BE6
330
1B95
100
AcDbEntity
  8
gaikei
100
AcDbLine
 10
341.2373536581565
 20
-177.4512646780872
 30
0.0
 11
341.2373536581565
 21
-182.9512646780872
 31
0.0
  0
LINE
  5
1BE7
330
1B95
100
AcDbEntity
  8
gaikei
100
AcDbLine
 10
335.2373536581565
 20
-183.451264678087
 30
0.0
 11
341.2373536581565
 21
-182.9512646780872
 31
0.0
  0
LINE
  5
1BE8
330
1B95
100
AcDbEntity
  8
gaikei
100
AcDbLine
 10
335.2373536581565
 20
-176.951264678087
 30
0.0
 11
341.2373536581565
 21
-177.4512646780872
 31
0.0
  0
LINE
  5
1BE9
330
1B95
100
AcDbEntity
  8
gaikei
100
AcDbLine
 10
335.2373536581566
 20
-183.4512646780872
 30
0.0
 11
335.2373536581566
 21
-189.451264678087
 31
0.0
  0
LINE
  5
1BEA
330
1B95
100
AcDbEntity
  8
gaikei
100
AcDbLine
 10
335.2373536581566
 20
-183.451264678087
 30
0.0
 11
342.2373536581565
 21
-183.451264678087
 31
0.0
  0
LINE
  5
1BEB
330
1B95
100
AcDbEntity
  8
gaikei
100
AcDbLine
 10
335.2373536581565
 20
-176.951264678087
 30
0.0
 11
342.2373536581564
 21
-176.951264678087
 31
0.0
  0
LINE
  5
1BEC
330
1B95
100
AcDbEntity
  8
gaikei
100
AcDbLine
 10
342.2373536581564
 20
-176.951264678087
 30
0.0
 11
342.2373536581564
 21
-176.951264678087
 31
0.0
  0
LINE
  5
1BED
330
1B95
100
AcDbEntity
  8
gaikei
100
AcDbLine
 10
284.2373536581558
 20
-154.951264678087
 30
0.0
 11
281.2373536581559
 21
-154.9512646780869
 31
0.0
  0
LINE
  5
1BEE
102
{ACAD_REACTORS
330
1B99
102
}
330
1B95
100
AcDbEntity
  8
gaikei
100
AcDbLine
 10
284.2373536581559
 20
-148.9512646780869
 30
0.0
 11
281.2373536581558
 21
-148.951264678087
 31
0.0
  0
LINE
  5
1BEF
330
1B95
100
AcDbEntity
  8
gaikei
100
AcDbLine
 10
281.2373536581559
 20
-154.9512646780869
 30
0.0
 11
281.2373536581558
 21
-148.951264678087
 31
0.0
  0
LINE
  5
1BF0
330
1B95
100
AcDbEntity
  8
gaikei
100
AcDbLine
 10
342.2373536581559
 20
-111.951264678087
 30
0.0
 11
342.2373536581559
 21
-111.951264678087
 31
0.0
  0
LINE
  5
1BF1
330
1B95
100
AcDbEntity
  8
gaikei
100
AcDbLine
 10
335.2373536581559
 20
-111.951264678087
 30
0.0
 11
342.2373536581559
 21
-111.951264678087
 31
0.0
  0
LINE
  5
1BF2
330
1B95
100
AcDbEntity
  8
gaikei
100
AcDbLine
 10
335.237353658156
 20
-105.451264678087
 30
0.0
 11
342.2373536581559
 21
-105.451264678087
 31
0.0
  0
LINE
  5
1BF3
330
1B95
100
AcDbEntity
  8
gaikei
100
AcDbLine
 10
335.237353658156
 20
-105.4512646780867
 30
0.0
 11
335.2373536581559
 21
-99.451264678087
 31
0.0
  0
LINE
  5
1BF4
330
1B95
100
AcDbEntity
  8
gaikei
100
AcDbLine
 10
335.2373536581559
 20
-111.951264678087
 30
0.0
 11
341.2373536581559
 21
-111.4512646780867
 31
0.0
  0
LINE
  5
1BF5
330
1B95
100
AcDbEntity
  8
gaikei
100
AcDbLine
 10
335.2373536581559
 20
-105.451264678087
 30
0.0
 11
341.2373536581559
 21
-105.9512646780867
 31
0.0
  0
LINE
  5
1BF6
330
1B95
100
AcDbEntity
  8
gaikei
100
AcDbLine
 10
341.2373536581559
 20
-111.4512646780867
 30
0.0
 11
341.2373536581559
 21
-105.9512646780867
 31
0.0
  0
LINE
  5
1BF7
330
1B95
100
AcDbEntity
  8
gaikei
100
AcDbLine
 10
330.7373536581559
 20
-105.451264678087
 30
0.0
 11
315.9373536581559
 21
-105.4512646780869
 31
0.0
  0
LINE
  5
1BF8
330
1B95
100
AcDbEntity
  8
gaikei
100
AcDbLine
 10
330.7373536581559
 20
-111.951264678087
 30
0.0
 11
315.9373536581559
 21
-111.951264678087
 31
0.0
  0
LINE
  5
1BF9
330
1B95
100
AcDbEntity
  8
gaikei
100
AcDbLine
 10
330.7373536581559
 20
-111.951264678087
 30
0.0
 11
330.7373536581559
 21
-105.451264678087
 31
0.0
  0
LINE
  5
1BFA
330
1B95
100
AcDbEntity
  8
gaikei
100
AcDbLine
 10
294.2373536581559
 20
-121.9512646780869
 30
0.0
 11
294.2373536581559
 21
-113.4512646780869
 31
0.0
  0
LINE
  5
1BFB
330
1B95
100
AcDbEntity
  8
gaikei
100
AcDbLine
 10
294.2373536581558
 20
-166.951264678087
 30
0.0
 11
284.2373536581558
 21
-166.951264678087
 31
0.0
  0
LINE
  5
1BFC
330
1B95
100
AcDbEntity
  8
gaikei
100
AcDbLine
 10
294.2373536581559
 20
-121.9512646780869
 30
0.0
 11
284.2373536581558
 21
-121.9512646780867
 31
0.0
  0
LINE
  5
1BFD
330
1B95
100
AcDbEntity
  8
gaikei
100
AcDbLine
 10
315.9373536581558
 20
-113.451264678087
 30
0.0
 11
315.9373536581558
 21
-99.95126467808711
 31
0.0
  0
LINE
  5
1BFE
330
1B95
100
AcDbEntity
  8
gaikei
100
AcDbLine
 10
315.9373536581559
 20
-175.451264678087
 30
0.0
 11
294.2373536581558
 21
-175.451264678087
 31
0.0
  0
LINE
  5
1BFF
330
1B95
100
AcDbEntity
  8
gaikei
100
AcDbLine
 10
315.9373536581558
 20
-113.451264678087
 30
0.0
 11
294.2373536581559
 21
-113.4512646780869
 31
0.0
  0
LINE
  5
1C00
330
1B95
100
AcDbEntity
  8
gaikei
100
AcDbLine
 10
294.2373536581558
 20
-175.451264678087
 30
0.0
 11
294.2373536581558
 21
-166.951264678087
 31
0.0
  0
LINE
  5
1C01
330
1B95
100
AcDbEntity
  8
gaikei
100
AcDbLine
 10
315.9373536581559
 20
-188.9512646780869
 30
0.0
 11
335.2373536581558
 21
-189.451264678087
 31
0.0
  0
LINE
  5
1C02
330
1B95
100
AcDbEntity
  8
gaikei
100
AcDbLine
 10
315.9373536581558
 20
-99.95126467808711
 30
0.0
 11
335.2373536581559
 21
-99.451264678087
 31
0.0
  0
LINE
  5
1C03
330
1B95
100
AcDbEntity
  8
gaikei
100
AcDbLine
 10
335.2373536581558
 20
-189.451264678087
 30
0.0
 11
335.2373536581559
 21
-111.9512646780869
 31
0.0
  0
LINE
  5
1C04
330
1B95
100
AcDbEntity
  8
gaikei
100
AcDbLine
 10
315.9373536581559
 20
-188.9512646780869
 30
0.0
 11
315.9373536581559
 21
-175.451264678087
 31
0.0
  0
LINE
  5
1C05
330
1B95
100
AcDbEntity
  8
gaikei
100
AcDbLine
 10
197.7897205102314
 20
-189.451264678087
 30
0.0
 11
91.78972051023146
 21
-189.451264678087
 31
0.0
  0
LINE
  5
1C06
102
{ACAD_REACTORS
330
1B9F
330
1B9C
102
}
330
1B95
100
AcDbEntity
  8
gaikei
100
AcDbLine
 10
91.78972051023146
 20
-99.451264678087
 30
0.0
 11
91.78972051023146
 21
-189.451264678087
 31
0.0
  0
LINE
  5
1C07
102
{ACAD_REACTORS
330
1B9F
102
}
330
1B95
100
AcDbEntity
  8
gaikei
100
AcDbLine
 10
197.7897205102314
 20
-99.451264678087
 30
0.0
 11
91.78972051023146
 21
-99.451264678087
 31
0.0
  0
LINE
  5
1C08
330
1B95
100
AcDbEntity
  8
gaikei
100
AcDbLine
 10
197.7897205102314
 20
-189.451264678087
 30
0.0
 11
197.7897205102314
 21
-99.451264678087
 31
0.0
  0
LINE
  5
1C09
330
1B95
100
AcDbEntity
  8
gaikei
100
AcDbLine
 10
139.7897205102314
 20
-194.451264678087
 30
0.0
 11
149.7897205102314
 21
-194.451264678087
 31
0.0
  0
LINE
  5
1C0A
330
1B95
100
AcDbEntity
  8
gaikei
100
AcDbLine
 10
197.7897205102314
 20
-146.951264678087
 30
0.0
 11
197.7897205102314
 21
-146.951264678087
 31
0.0
  0
LINE
  5
1C0B
330
1B95
100
AcDbEntity
  8
gaikei
100
AcDbLine
 10
335.2373536581559
 20
-99.451264678087
 30
0.0
 11
342.2373536581559
 21
-99.451264678087
 31
0.0
  0
LINE
  5
1C0C
330
1B95
100
AcDbEntity
  8
gaikei
100
AcDbLine
 10
284.2373536581558
 20
-166.951264678087
 30
0.0
 11
284.2373536581558
 21
-121.9512646780867
 31
0.0
  0
LINE
  5
1C0D
330
1B95
100
AcDbEntity
  8
gaikei
100
AcDbLine
 10
91.7897205102315
 20
-320.60443667142
 30
0.0
 11
197.7897205102315
 21
-320.60443667142
 31
0.0
  0
LINE
  5
1C0E
330
1B95
100
AcDbEntity
  8
gaikei
100
AcDbLine
 10
91.78972051023155
 20
-262.60443667142
 30
0.0
 11
91.7897205102315
 21
-320.60443667142
 31
0.0
  0
LINE
  5
1C0F
330
1B95
100
AcDbEntity
  8
gaikei
100
AcDbLine
 10
342.2373536581558
 20
-189.451264678087
 30
0.0
 11
342.2373536581559
 21
-163.451264678087
 31
0.0
  0
LINE
  5
1C10
330
1B95
100
AcDbEntity
  8
gaikei
100
AcDbLine
 10
342.2373536581558
 20
-189.451264678087
 30
0.0
 11
342.2373536581558
 21
-189.451264678087
 31
0.0
  0
LINE
  5
1C11
330
1B95
100
AcDbEntity
  8
gaikei
100
AcDbLine
 10
335.2373536581558
 20
-189.4512646780869
 30
0.0
 11
342.2373536581558
 21
-189.451264678087
 31
0.0
  0
ENDBLK
  5
1C13
330
1B95
100
AcDbEntity
  8
0
100
AcDbBlockEnd
  0
BLOCK
  5
1C9B
330
1C91
100
AcDbEntity
  8
0
100
AcDbBlockBegin
  2
*D5
 70
     1
 10
0.0
 20
0.0
 30
0.0
  3
*D5
  1

  0
LINE
  5
1CFD
330
1C91
100
AcDbEntity
  8
sumpo
 62
     4
370
    -2
100
AcDbLine
 10
183.221227883399
 20
146.1556915682001
 30
0.0
 11
183.221227883399
 21
161.8069793777275
 31
0.0
  0
LINE
  5
1CFE
330
1C91
100
AcDbEntity
  8
sumpo
 62
     4
370
    -2
100
AcDbLine
 10
152.7212278833989
 20
121.4056915682001
 30
0.0
 11
152.7212278833989
 21
161.8069793777275
 31
0.0
  0
LINE
  5
1CFF
330
1C91
100
AcDbEntity
  8
sumpo
 62
     4
370
    -2
100
AcDbLine
 10
180.221227883399
 20
159.8069793777275
 30
0.0
 11
155.7212278833989
 21
159.8069793777275
 31
0.0
  0
INSERT
  5
1D00
330
1C91
100
AcDbEntity
  8
sumpo
 62
     4
370
    -2
100
AcDbBlockReference
  2
_Open30
 10
183.221227883399
 20
159.8069793777275
 30
0.0
 41
3.0
 42
3.0
 43
3.0
  0
INSERT
  5
1D01
330
1C91
100
AcDbEntity
  8
sumpo
 62
     4
370
    -2
100
AcDbBlockReference
  2
_Open30
 10
152.7212278833989
 20
159.8069793777275
 30
0.0
 41
3.0
 42
3.0
 43
3.0
 50
180.0
  0
MTEXT
  5
1D02
330
1C91
100
AcDbEntity
  8
sumpo
 62
     4
100
AcDbMText
 10
167.9712278833989
 20
162.3069793777275
 30
0.0
 40
3.0
 41
0.0
 71
     5
 72
     1
  1
61
 73
     1
 44
1.0
  0
POINT
  5
1D03
330
1C91
100
AcDbEntity
  8
Defpoints
 62
     0
100
AcDbPoint
 10
183.221227883399
 20
141.1556915682001
 30
0.0
  0
POINT
  5
1D04
330
1C91
100
AcDbEntity
  8
Defpoints
 62
     0
100
AcDbPoint
 10
152.7212278833989
 20
116.4056915682001
 30
0.0
  0
POINT
  5
1D05
330
1C91
100
AcDbEntity
  8
Defpoints
 62
     0
100
AcDbPoint
 10
152.7212278833989
 20
159.8069793777275
 30
0.0
  0
ENDBLK
  5
1C9C
330
1C91
100
AcDbEntity
  8
0
100
AcDbBlockEnd
  0
BLOCK
  5
1CA7
330
1C9D
100
AcDbEntity
  8
0
100
AcDbBlockBegin
  2
*D6
 70
     1
 10
0.0
 20
0.0
 30
0.0
  3
*D6
  1

  0
LINE
  5
1CF4
330
1C9D
100
AcDbEntity
  8
sumpo
 62
     4
370
    -2
100
AcDbLine
 10
52.99741130943679
 20
141.1556915682001
 30
0.0
 11
36.44895737991141
 21
141.1556915682001
 31
0.0
  0
LINE
  5
1CF5
330
1C9D
100
AcDbEntity
  8
sumpo
 62
     4
370
    -2
100
AcDbLine
 10
76.99741130943678
 20
93.65569156820006
 30
0.0
 11
36.44895737991141
 21
93.65569156820006
 31
0.0
  0
LINE
  5
1CF6
330
1C9D
100
AcDbEntity
  8
sumpo
 62
     4
370
    -2
100
AcDbLine
 10
38.44895737991141
 20
138.1556915682001
 30
0.0
 11
38.44895737991141
 21
96.65569156820007
 31
0.0
  0
INSERT
  5
1CF7
330
1C9D
100
AcDbEntity
  8
sumpo
 62
     4
370
    -2
100
AcDbBlockReference
  2
_Open30
 10
38.44895737991141
 20
141.1556915682001
 30
0.0
 41
3.0
 42
3.0
 43
3.0
 50
90.0
  0
INSERT
  5
1CF8
330
1C9D
100
AcDbEntity
  8
sumpo
 62
     4
370
    -2
100
AcDbBlockReference
  2
_Open30
 10
38.44895737991141
 20
93.65569156820006
 30
0.0
 41
3.0
 42
3.0
 43
3.0
 50
270.0
  0
MTEXT
  5
1CF9
330
1C9D
100
AcDbEntity
  8
sumpo
 62
     4
100
AcDbMText
 10
35.94895737991139
 20
117.4056915682001
 30
0.0
 40
3.0
 41
0.0
 71
     5
 72
     1
  1
95
 11
0.0000000000000001
 21
1.0
 31
0.0
 73
     1
 44
1.0
  0
POINT
  5
1CFA
330
1C9D
100
AcDbEntity
  8
Defpoints
 62
     0
100
AcDbPoint
 10
57.99741130943679
 20
141.1556915682001
 30
0.0
  0
POINT
  5
1CFB
330
1C9D
100
AcDbEntity
  8
Defpoints
 62
     0
100
AcDbPoint
 10
81.99741130943678
 20
93.65569156820006
 30
0.0
  0
POINT
  5
1CFC
330
1C9D
100
AcDbEntity
  8
Defpoints
 62
     0
100
AcDbPoint
 10
38.44895737991141
 20
93.65569156820006
 30
0.0
  0
ENDBLK
  5
1CA8
330
1C9D
100
AcDbEntity
  8
0
100
AcDbBlockEnd
  0
BLOCK
  5
1CB3
330
1CA9
100
AcDbEntity
  8
0
100
AcDbBlockBegin
  2
*D7
 70
     1
 10
0.0
 20
0.0
 30
0.0
  3
*D7
  1

  0
LINE
  5
1CEB
330
1CA9
100
AcDbEntity
  8
sumpo
 62
     4
370
    -2
100
AcDbLine
 10
57.99741130943679
 20
146.1556915682001
 30
0.0
 11
57.99741130943679
 21
161.8069793777275
 31
0.0
  0
LINE
  5
1CEC
330
1CA9
100
AcDbEntity
  8
sumpo
 62
     4
370
    -2
100
AcDbLine
 10
110.9974113094368
 20
146.1556915682001
 30
0.0
 11
110.9974113094368
 21
161.8069793777275
 31
0.0
  0
LINE
  5
1CED
330
1CA9
100
AcDbEntity
  8
sumpo
 62
     4
370
    -2
100
AcDbLine
 10
60.99741130943678
 20
159.8069793777275
 30
0.0
 11
107.9974113094368
 21
159.8069793777275
 31
0.0
  0
INSERT
  5
1CEE
330
1CA9
100
AcDbEntity
  8
sumpo
 62
     4
370
    -2
100
AcDbBlockReference
  2
_Open30
 10
57.99741130943679
 20
159.8069793777275
 30
0.0
 41
3.0
 42
3.0
 43
3.0
 50
180.0
  0
INSERT
  5
1CEF
330
1CA9
100
AcDbEntity
  8
sumpo
 62
     4
370
    -2
100
AcDbBlockReference
  2
_Open30
 10
110.9974113094368
 20
159.8069793777275
 30
0.0
 41
3.0
 42
3.0
 43
3.0
  0
MTEXT
  5
1CF0
330
1CA9
100
AcDbEntity
  8
sumpo
 62
     4
100
AcDbMText
 10
84.49741130943678
 20
162.3069793777275
 30
0.0
 40
3.0
 41
0.0
 71
     5
 72
     1
  1
106
 73
     1
 44
1.0
  0
POINT
  5
1CF1
330
1CA9
100
AcDbEntity
  8
Defpoints
 62
     0
100
AcDbPoint
 10
57.99741130943679
 20
141.1556915682001
 30
0.0
  0
POINT
  5
1CF2
330
1CA9
100
AcDbEntity
  8
Defpoints
 62
     0
100
AcDbPoint
 10
110.9974113094368
 20
141.1556915682001
 30
0.0
  0
POINT
  5
1CF3
330
1CA9
100
AcDbEntity
  8
Defpoints
 62
     0
100
AcDbPoint
 10
110.9974113094368
 20
159.8069793777275
 30
0.0
  0
ENDBLK
  5
1CB4
330
1CA9
100
AcDbEntity
  8
0
100
AcDbBlockEnd
  0
ENDSEC
  0
SECTION
  2
ENTITIES
  0
LINE
  5
B2B
330
21
100
AcDbEntity
  8
zubanwaku
100
AcDbLine
 10
241.691677128843
 20
17.17263488768844
 30
0.0
 11
241.6916771288431
 21
-18.82736511231155
 31
0.0
  0
LINE
  5
B2E
330
21
100
AcDbEntity
  8
zubanwaku
100
AcDbLine
 10
241.691677128843
 20
17.17263488768844
 30
0.0
 11
366.1916771288431
 21
17.17263488768845
 31
0.0
  0
LINE
  5
B33
330
21
100
AcDbEntity
  8
zubanwaku
100
AcDbLine
 10
241.691677128843
 20
8.172634887688445
 30
0.0
 11
366.1916771288431
 21
8.172634887688452
 31
0.0
  0
LINE
  5
B34
330
21
100
AcDbEntity
  8
zubanwaku
100
AcDbLine
 10
241.691677128843
 20
-0.8273651123115541
 30
0.0
 11
366.1916771288431
 21
-0.827365112311547
 31
0.0
  0
LINE
  5
B35
330
21
100
AcDbEntity
  8
zubanwaku
100
AcDbLine
 10
241.691677128843
 20
-9.827365112311554
 30
0.0
 11
366.1916771288431
 21
-9.827365112311554
 31
0.0
  0
LINE
  5
B36
330
21
100
AcDbEntity
  8
zubanwaku
100
AcDbLine
 10
241.691677128843
 20
-18.82736511231155
 30
0.0
 11
366.1916771288431
 21
-18.82736511231155
 31
0.0
  0
LINE
  5
B3D
330
21
100
AcDbEntity
  8
zubanwaku
100
AcDbLine
 10
259.691677128843
 20
17.17263488768844
 30
0.0
 11
259.6916771288431
 21
-9.827365112311554
 31
0.0
  0
LINE
  5
B3E
330
21
100
AcDbEntity
  8
zubanwaku
100
AcDbLine
 10
328.6916771288431
 20
17.17263488768844
 30
0.0
 11
328.6916771288431
 21
-0.827365112311547
 31
0.0
  0
LINE
  5
B3F
330
21
100
AcDbEntity
  8
zubanwaku
100
AcDbLine
 10
346.6916771288431
 20
17.17263488768844
 30
0.0
 11
346.6916771288431
 21
-0.827365112311547
 31
0.0
  0
LINE
  5
B40
330
21
100
AcDbEntity
  8
zubanwaku
100
AcDbLine
 10
366.1916771288431
 20
17.17263488768844
 30
0.0
 11
366.1916771288431
 21
-18.82736511231155
 31
0.0
  0
TEXT
  5
B45
330
21
100
AcDbEntity
  8
zubanmoji
100
AcDbText
 10
245.891677128843
 20
10.42263488768844
 30
0.0
 40
4.5
  1
名称
 72
     1
 11
250.691677128843
 21
12.67263488768844
 31
0.0
100
AcDbText
 73
     2
  0
TEXT
  5
B47
330
21
100
AcDbEntity
  8
zubanmoji
100
AcDbText
 10
263.741677128843
 20
10.42263488768844
 30
0.0
 40
4.5
  1
漏水検知器　外形寸法図
 72
     1
 11
292.691677128843
 21
12.67263488768844
 31
0.0
100
AcDbText
 73
     2
  0
TEXT
  5
B48
330
21
100
AcDbEntity
  8
zubanmoji
100
AcDbText
 10
332.8916771288431
 20
10.42263488768844
 30
0.0
 40
4.5
  1
尺度
 72
     1
 11
337.6916771288431
 21
12.67263488768844
 31
0.0
100
AcDbText
 73
     2
  0
TEXT
  5
B4B
330
21
100
AcDbEntity
  8
zubanmoji
100
AcDbText
 10
245.891677128843
 20
1.422634887688445
 30
0.0
 40
4.5
  1
型式
 72
     1
 11
250.691677128843
 21
3.672634887688445
 31
0.0
100
AcDbText
 73
     2
  0
TEXT
  5
B4C
330
21
100
AcDbEntity
  8
zubanmoji
100
AcDbText
 10
270.4059628431287
 20
1.422634887688445
 30
0.0
 40
4.5
  1
AD-AS-1LCM
 72
     1
 11
292.691677128843
 21
3.672634887688445
 31
0.0
100
AcDbText
 73
     2
  0
TEXT
  5
B4D
330
21
100
AcDbEntity
  8
zubanmoji
100
AcDbText
 10
332.8916771288431
 20
1.422634887688445
 30
0.0
 40
4.5
  1
単位
 72
     1
 11
337.6916771288431
 21
3.672634887688445
 31
0.0
100
AcDbText
 73
     2
  0
TEXT
  5
B4E
330
21
100
AcDbEntity
  8
zubanmoji
100
AcDbText
 10
349.2631057002717
 20
1.422634887688445
 30
0.0
 40
4.5
  1
mm
 72
     1
 11
355.6916771288431
 21
3.672634887688445
 31
0.0
100
AcDbText
 73
     2
  0
TEXT
  5
B4F
330
21
100
AcDbEntity
  8
zubanmoji
100
AcDbText
 10
245.7416771288431
 20
-7.577365112311554
 30
0.0
 40
4.5
  1
図番
 72
     1
 11
250.691677128843
 21
-5.327365112311554
 31
0.0
100
AcDbText
 73
     2
  0
TEXT
  5
B50
330
21
100
AcDbEntity
  8
zubanmoji
100
AcDbText
 10
265.4077697922783
 20
-7.577365112311554
 30
0.0
 40
4.5
  1
TTS-KS-W3210-2
 72
     1
 11
296.8006269351354
 21
-5.327365112311554
 31
0.0
100
AcDbText
 73
     2
  0
TEXT
  5
B51
330
21
100
AcDbEntity
  8
zubanmoji
100
AcDbText
 10
257.6175006067728
 20
-15.84570805426224
 30
0.0
 40
3.0
  1
TATSUTA ELECTRIC WIRE & CABLE CO., LTD. 
 72
     1
 11
305.9889291782014
 21
-14.34570805426224
 31
0.0
100
AcDbText
 73
     2
  0
TEXT
  5
125F
330
21
100
AcDbEntity
  8
moji
100
AcDbText
 10
1414.276227074711
 20
343.7095352342497
 30
0.0
 40
9.0
  1

 11
1414.276227074711
 21
348.2095352342497
 31
0.0
100
AcDbText
 73
     2
  0
LINE
  5
1646
330
21
100
AcDbEntity
  8
shiyouwaku
100
AcDbLine
 10
359.1203565607819
 20
173.0251833539267
 30
0.0
 11
359.1203565607819
 21
48.02518335392678
 31
0.0
  0
TEXT
  5
1647
330
21
100
AcDbEntity
  8
moji
100
AcDbText
 10
242.1203565607819
 20
49.02518335392677
 30
0.0
 40
3.0
  1
材質・色　：　ABS樹脂・グレー
 11
242.1203565607819
 21
50.52518335392678
 31
0.0
100
AcDbText
 73
     2
  0
TEXT
  5
1648
330
21
100
AcDbEntity
  8
moji
100
AcDbText
 10
242.1203565607819
 20
54.02518335392677
 30
0.0
 40
3.0
  1
重量　：　約200g
 11
242.1203565607819
 21
55.52518335392678
 31
0.0
100
AcDbText
 73
     2
  0
TEXT
  5
1649
330
21
100
AcDbEntity
  8
moji
100
AcDbText
 10
242.1203565607819
 20
59.02518335392677
 30
0.0
 40
3.0
  1
外形寸法　：　（W）106×（H）95×（D）61
 11
242.1203565607819
 21
60.52518335392677
 31
0.0
100
AcDbText
 73
     2
  0
TEXT
  5
164A
330
21
100
AcDbEntity
  8
moji
100
AcDbText
 10
242.1203565607819
 20
64.02518335392676
 30
0.0
 40
3.0
  1
取付方法　：　DINレールに取付可能
 11
242.1203565607819
 21
65.52518335392676
 31
0.0
100
AcDbText
 73
     2
  0
TEXT
  5
164B
330
21
100
AcDbEntity
  8
moji
100
AcDbText
 10
242.1203565607819
 20
74.02518335392676
 30
0.0
 40
3.0
  1
漏水位置表示機能　：　有
 11
242.1203565607819
 21
75.52518335392676
 31
0.0
100
AcDbText
 73
     2
  0
TEXT
  5
164C
330
21
100
AcDbEntity
  8
moji
100
AcDbText
 10
242.1203565607819
 20
119.0251833539267
 30
0.0
 40
3.0
  1
　　　　　　　　　断線接点　1a×1点
 11
242.1203565607819
 21
120.5251833539267
 31
0.0
100
AcDbText
 73
     2
  0
TEXT
  5
164D
330
21
100
AcDbEntity
  8
moji
100
AcDbText
 10
242.1203565607819
 20
79.02518335392676
 30
0.0
 40
3.0
  1
ブザー設定機能　：　有（スイッチで有無設定可能）
 11
242.1203565607819
 21
80.52518335392676
 31
0.0
100
AcDbText
 73
     2
  0
TEXT
  5
164E
330
21
100
AcDbEntity
  8
moji
100
AcDbText
 10
242.1203565607819
 20
84.02518335392676
 30
0.0
 40
3.0
  1
フェールセーフ機能　：　有（スイッチで有無設定可能）
 11
242.1203565607819
 21
85.52518335392676
 31
0.0
100
AcDbText
 73
     2
  0
TEXT
  5
164F
330
21
100
AcDbEntity
  8
moji
100
AcDbText
 10
242.1203565607819
 20
89.02518335392676
 30
0.0
 40
3.0
  1
警報保持機能　：　有（スイッチで有無設定可能）
 11
242.1203565607819
 21
90.52518335392676
 31
0.0
100
AcDbText
 73
     2
  0
TEXT
  5
1650
330
21
100
AcDbEntity
  8
moji
100
AcDbText
 10
242.1203565607819
 20
94.02518335392676
 30
0.0
 40
3.0
  1
断線検知機能　：　有
 11
242.1203565607819
 21
95.52518335392676
 31
0.0
100
AcDbText
 73
     2
  0
TEXT
  5
1651
330
21
100
AcDbEntity
  8
moji
100
AcDbText
 10
242.1203565607819
 20
99.02518335392677
 30
0.0
 40
3.0
  1
感度調整　：　有（10、25、50、100kΩ設定可能）
 11
242.1203565607819
 21
100.5251833539267
 31
0.0
100
AcDbText
 73
     2
  0
TEXT
  5
1652
330
21
100
AcDbEntity
  8
moji
100
AcDbText
 10
242.1203565607819
 20
109.0251833539267
 30
0.0
 40
3.0
  1
（抵抗負荷）　　　　　DC　30V 2.0A
 11
242.1203565607819
 21
110.5251833539267
 31
0.0
100
AcDbText
 73
     2
  0
TEXT
  5
1653
330
21
100
AcDbEntity
  8
moji
100
AcDbText
 10
242.1203565607819
 20
114.0251833539267
 30
0.0
 40
3.0
  1
制御出力接点負荷　：　AC125V 0.4A
 11
242.1203565607819
 21
115.5251833539267
 31
0.0
100
AcDbText
 73
     2
  0
TEXT
  5
1654
330
21
100
AcDbEntity
  8
moji
100
AcDbText
 10
242.1203565607819
 20
124.0251833539267
 30
0.0
 40
3.0
  1
制御接点構成　：　漏水接点　1a×1点
 11
242.1203565607819
 21
125.5251833539267
 31
0.0
100
AcDbText
 73
     2
  0
TEXT
  5
1655
330
21
100
AcDbEntity
  8
moji
100
AcDbText
 10
242.1203565607819
 20
129.0251833539267
 30
0.0
 40
3.0
  1
断線警報　：　赤色LEDランプ点灯・ブザー嗚動
 11
242.1203565607819
 21
130.5251833539267
 31
0.0
100
AcDbText
 73
     2
  0
TEXT
  5
1656
330
21
100
AcDbEntity
  8
moji
100
AcDbText
 10
242.1203565607819
 20
134.0251833539267
 30
0.0
 40
3.0
  1
漏水警報　：　赤色LEDランプ点滅・ブザー嗚動
 11
242.1203565607819
 21
135.5251833539267
 31
0.0
100
AcDbText
 73
     2
  0
TEXT
  5
1657
330
21
100
AcDbEntity
  8
moji
100
AcDbText
 10
242.1203565607819
 20
139.0251833539267
 30
0.0
 40
3.0
  1
センサ短絡電流　：　0.3mA以下
 11
242.1203565607819
 21
140.5251833539267
 31
0.0
100
AcDbText
 73
     2
  0
TEXT
  5
1658
330
21
100
AcDbEntity
  8
moji
100
AcDbText
 10
242.1203565607819
 20
144.0251833539267
 30
0.0
 40
3.0
  1
センサ印加電圧　：　AC5.5V（最大値）
 11
242.1203565607819
 21
145.5251833539267
 31
0.0
100
AcDbText
 73
     2
  0
TEXT
  5
1659
330
21
100
AcDbEntity
  8
moji
100
AcDbText
 10
242.1203565607819
 20
149.0251833539267
 30
0.0
 40
3.0
  1
周波数　：　50/60Hz
 11
242.1203565607819
 21
150.5251833539267
 31
0.0
100
AcDbText
 73
     2
  0
TEXT
  5
165A
330
21
100
AcDbEntity
  8
moji
100
AcDbText
 10
242.1203565607819
 20
154.0251833539267
 30
0.0
 40
3.0
  1
電源電圧　：　DC24V（DC20～DC28V）
 11
242.1203565607819
 21
155.5251833539267
 31
0.0
100
AcDbText
 73
     2
  0
TEXT
  5
165B
330
21
100
AcDbEntity
  8
moji
100
AcDbText
 10
242.1203565607819
 20
159.0251833539267
 30
0.0
 40
3.0
  1
センサ回路数　：　1
 11
242.1203565607819
 21
160.5251833539267
 31
0.0
100
AcDbText
 73
     2
  0
TEXT
  5
165C
330
21
100
AcDbEntity
  8
moji
100
AcDbText
 10
242.1203565607819
 20
164.0251833539267
 30
0.0
 40
3.0
  1
型番　：　AD-AS-1LCM
 11
242.1203565607819
 21
165.5251833539267
 31
0.0
100
AcDbText
 73
     2
  0
LINE
  5
165D
330
21
100
AcDbEntity
  8
zubanwaku
100
AcDbLine
 10
239.120356560782
 20
48.02518335392678
 30
0.0
 11
359.1203565607819
 21
48.02518335392678
 31
0.0
  0
LINE
  5
165E
330
21
100
AcDbEntity
  8
zubanwaku
100
AcDbLine
 10
239.120356560782
 20
108.0251833539267
 30
0.0
 11
359.1203565607819
 21
108.0251833539267
 31
0.0
  0
LINE
  5
165F
330
21
100
AcDbEntity
  8
zubanwaku
100
AcDbLine
 10
239.120356560782
 20
98.02518335392676
 30
0.0
 11
359.1203565607819
 21
98.02518335392676
 31
0.0
  0
LINE
  5
1660
330
21
100
AcDbEntity
  8
zubanwaku
100
AcDbLine
 10
239.120356560782
 20
93.02518335392676
 30
0.0
 11
359.1203565607819
 21
93.02518335392676
 31
0.0
  0
LINE
  5
1661
330
21
100
AcDbEntity
  8
zubanwaku
100
AcDbLine
 10
239.120356560782
 20
88.02518335392676
 30
0.0
 11
359.1203565607819
 21
88.02518335392676
 31
0.0
  0
LINE
  5
1662
330
21
100
AcDbEntity
  8
zubanwaku
100
AcDbLine
 10
239.120356560782
 20
83.02518335392676
 30
0.0
 11
359.1203565607819
 21
83.02518335392676
 31
0.0
  0
LINE
  5
1663
330
21
100
AcDbEntity
  8
zubanwaku
100
AcDbLine
 10
239.120356560782
 20
78.02518335392676
 30
0.0
 11
359.1203565607819
 21
78.02518335392676
 31
0.0
  0
LINE
  5
1664
330
21
100
AcDbEntity
  8
zubanwaku
100
AcDbLine
 10
239.120356560782
 20
73.02518335392676
 30
0.0
 11
359.1203565607819
 21
73.02518335392676
 31
0.0
  0
LINE
  5
1665
330
21
100
AcDbEntity
  8
zubanwaku
100
AcDbLine
 10
239.120356560782
 20
63.02518335392677
 30
0.0
 11
359.1203565607819
 21
63.02518335392677
 31
0.0
  0
LINE
  5
1666
330
21
100
AcDbEntity
  8
zubanwaku
100
AcDbLine
 10
239.120356560782
 20
58.02518335392677
 30
0.0
 11
359.1203565607819
 21
58.02518335392677
 31
0.0
  0
LINE
  5
1667
330
21
100
AcDbEntity
  8
zubanwaku
100
AcDbLine
 10
239.120356560782
 20
53.02518335392678
 30
0.0
 11
359.1203565607819
 21
53.02518335392678
 31
0.0
  0
LINE
  5
1668
330
21
100
AcDbEntity
  8
zubanwaku
100
AcDbLine
 10
239.120356560782
 20
118.0251833539267
 30
0.0
 11
359.1203565607819
 21
118.0251833539267
 31
0.0
  0
LINE
  5
1669
330
21
100
AcDbEntity
  8
zubanwaku
100
AcDbLine
 10
239.120356560782
 20
128.0251833539267
 30
0.0
 11
359.1203565607819
 21
128.0251833539267
 31
0.0
  0
LINE
  5
166A
330
21
100
AcDbEntity
  8
zubanwaku
100
AcDbLine
 10
239.120356560782
 20
133.0251833539267
 30
0.0
 11
359.1203565607819
 21
133.0251833539267
 31
0.0
  0
LINE
  5
166B
330
21
100
AcDbEntity
  8
zubanwaku
100
AcDbLine
 10
239.120356560782
 20
138.0251833539267
 30
0.0
 11
359.1203565607819
 21
138.0251833539267
 31
0.0
  0
LINE
  5
166C
330
21
100
AcDbEntity
  8
zubanwaku
100
AcDbLine
 10
239.120356560782
 20
143.0251833539267
 30
0.0
 11
359.1203565607819
 21
143.0251833539267
 31
0.0
  0
LINE
  5
166D
330
21
100
AcDbEntity
  8
zubanwaku
100
AcDbLine
 10
239.120356560782
 20
148.0251833539267
 30
0.0
 11
359.1203565607819
 21
148.0251833539267
 31
0.0
  0
LINE
  5
166E
330
21
100
AcDbEntity
  8
zubanwaku
100
AcDbLine
 10
239.120356560782
 20
153.0251833539267
 30
0.0
 11
359.1203565607819
 21
153.0251833539267
 31
0.0
  0
LINE
  5
166F
330
21
100
AcDbEntity
  8
zubanwaku
100
AcDbLine
 10
239.120356560782
 20
158.0251833539267
 30
0.0
 11
359.1203565607819
 21
158.0251833539267
 31
0.0
  0
LINE
  5
1670
330
21
100
AcDbEntity
  8
zubanwaku
100
AcDbLine
 10
239.120356560782
 20
163.0251833539267
 30
0.0
 11
359.1203565607819
 21
163.0251833539267
 31
0.0
  0
LINE
  5
1671
330
21
100
AcDbEntity
  8
zubanwaku
100
AcDbLine
 10
239.120356560782
 20
168.0251833539267
 30
0.0
 11
359.1203565607819
 21
168.0251833539267
 31
0.0
  0
LINE
  5
1672
330
21
100
AcDbEntity
  8
shiyouwaku
100
AcDbLine
 10
239.120356560782
 20
173.0251833539267
 30
0.0
 11
239.120356560782
 21
48.02518335392678
 31
0.0
  0
LINE
  5
1673
330
21
100
AcDbEntity
  8
zubanwaku
100
AcDbLine
 10
239.120356560782
 20
173.0251833539267
 30
0.0
 11
359.1203565607819
 21
173.0251833539267
 31
0.0
  0
TEXT
  5
1674
330
21
100
AcDbEntity
  8
moji
100
AcDbText
 10
276.920356560782
 20
169.0251833539267
 30
0.0
 40
3.0
  1
仕　　　　　様
 72
     1
 11
289.120356560782
 21
170.5251833539267
 31
0.0
100
AcDbText
 73
     2
  0
LINE
  5
196E
330
21
100
AcDbEntity
  8
zubanwaku
100
AcDbLine
 10
239.120356560782
 20
103.0251833539267
 30
0.0
 11
359.1203565607819
 21
103.0251833539267
 31
0.0
  0
TEXT
  5
196F
330
21
100
AcDbEntity
  8
moji
100
AcDbText
 10
242.1203565607819
 20
104.0251833539267
 30
0.0
 40
3.0
  1
消費電力　：　最大 5W
 11
242.1203565607819
 21
105.5251833539267
 31
0.0
100
AcDbText
 73
     2
  0
LINE
  5
1976
330
21
100
AcDbEntity
  8
zubanmoji
100
AcDbLine
 10
350.3986496968989
 20
12.67263488768844
 30
0.0
 11
362.4847045607874
 21
12.67263488768844
 31
0.0
  0
TEXT
  5
1C15
330
21
100
AcDbEntity
  8
zubanmoji
100
AcDbText
 10
68.96572764782121
 20
108.5274340730253
 30
0.0
 40
1.0
  1
TATSUTA ELECTRIC WIRE & CABLE CO., LTD. 
 72
     1
 11
85.08953717163072
 21
109.0274340730253
 31
0.0
100
AcDbText
 73
     2
  0
DIMENSION
  5
1C16
102
{ACAD_XDICTIONARY
360
1C17
102
}
102
{ACAD_REACTORS
330
1C18
102
}
330
21
100
AcDbEntity
  8
sumpo
100
AcDbDimension
  2
*D5
 10
152.7212278833989
 20
159.8069793777275
 30
0.0
 11
167.9712278833989
 21
162.3069793777275
 31
0.0
 70
    32
  1
61
 71
     5
 42
30.50000000000003
  3
ISO-25
100
AcDbAlignedDimension
 13
183.221227883399
 23
141.1556915682001
 33
0.0
 14
152.7212278833989
 24
116.4056915682001
 34
0.0
100
AcDbRotatedDimension
  0
DIMENSION
  5
1C19
102
{ACAD_XDICTIONARY
360
1C1A
102
}
102
{ACAD_REACTORS
330
1C1B
102
}
330
21
100
AcDbEntity
  8
sumpo
100
AcDbDimension
  2
*D6
 10
38.44895737991141
 20
93.65569156820006
 30
0.0
 11
35.94895737991139
 21
117.4056915682001
 31
0.0
 70
    32
  1
95
 71
     5
 42
47.50000000000001
  3
ISO-25
100
AcDbAlignedDimension
 13
57.99741130943679
 23
141.1556915682001
 33
0.0
 14
81.99741130943678
 24
93.65569156820006
 34
0.0
 50
90.0
100
AcDbRotatedDimension
  0
DIMENSION
  5
1C1C
102
{ACAD_XDICTIONARY
360
1C1D
102
}
102
{ACAD_REACTORS
330
1C1E
102
}
330
21
100
AcDbEntity
  8
sumpo
100
AcDbDimension
  2
*D7
 10
110.9974113094368
 20
159.8069793777275
 30
0.0
 11
84.49741130943678
 21
162.3069793777275
 31
0.0
 70
    32
  1
106
 71
     5
 42
53.0
  3
ISO-25
100
AcDbAlignedDimension
 13
57.99741130943679
 23
141.1556915682001
 33
0.0
 14
110.9974113094368
 24
141.1556915682001
 34
0.0
100
AcDbRotatedDimension
  0
LINE
  5
1C1F
330
21
100
AcDbEntity
  8
gaikei
100
AcDbLine
 10
109.4974113094367
 20
43.72910557153363
 30
0.0
 11
110.9974113094368
 21
43.7291055715336
 31
0.0
  0
LINE
  5
1C20
330
21
100
AcDbEntity
  8
gaikei
100
AcDbLine
 10
104.4974113094369
 20
61.07910557153363
 30
0.0
 11
107.4974113094368
 21
61.07910557153363
 31
0.0
  0
LINE
  5
1C21
330
21
100
AcDbEntity
  8
gaikei
100
AcDbLine
 10
97.49741130943684
 20
61.0791055715336
 30
0.0
 11
100.4974113094368
 21
61.07910557153363
 31
0.0
  0
LINE
  5
1C22
330
21
100
AcDbEntity
  8
gaikei
100
AcDbLine
 10
107.4974113094368
 20
61.07910557153363
 30
0.0
 11
107.4974113094368
 21
59.57910557153366
 31
0.0
  0
LINE
  5
1C23
330
21
100
AcDbEntity
  8
gaikei
100
AcDbLine
 10
104.4974113094369
 20
61.07910557153363
 30
0.0
 11
104.4974113094369
 21
59.57910557153363
 31
0.0
  0
LINE
  5
1C24
330
21
100
AcDbEntity
  8
gaikei
100
AcDbLine
 10
100.4974113094368
 20
61.07910557153363
 30
0.0
 11
100.4974113094368
 21
59.57910557153363
 31
0.0
  0
LINE
  5
1C25
330
21
100
AcDbEntity
  8
gaikei
100
AcDbLine
 10
97.49741130943684
 20
61.0791055715336
 30
0.0
 11
97.49741130943688
 21
59.57910557153363
 31
0.0
  0
LINE
  5
1C26
330
21
100
AcDbEntity
  8
gaikei
100
AcDbLine
 10
81.99741130943682
 20
31.8291055715336
 30
0.0
 11
86.99741130943682
 21
31.8291055715336
 31
0.0
  0
LINE
  5
1C27
330
21
100
AcDbEntity
  8
gaikei
100
AcDbLine
 10
81.99741130943682
 20
33.5791055715336
 30
0.0
 11
86.99741130943682
 21
33.5791055715336
 31
0.0
  0
LINE
  5
1C28
330
21
100
AcDbEntity
  8
gaikei
100
AcDbLine
 10
86.99741130943682
 20
33.5791055715336
 30
0.0
 11
86.99741130943682
 21
30.5791055715336
 31
0.0
  0
LINE
  5
1C29
330
21
100
AcDbEntity
  8
gaikei
100
AcDbLine
 10
81.99741130943682
 20
33.5791055715336
 30
0.0
 11
81.99741130943682
 21
30.5791055715336
 31
0.0
  0
LINE
  5
1C2A
330
21
100
AcDbEntity
  8
gaikei
100
AcDbLine
 10
59.49741130943682
 20
37.0791055715336
 30
0.0
 11
109.4974113094367
 21
37.0791055715336
 31
0.0
  0
LINE
  5
1C2B
330
21
100
AcDbEntity
  8
gaikei
100
AcDbLine
 10
57.99741130943681
 20
34.0791055715336
 30
0.0
 11
110.9974113094368
 21
34.0791055715336
 31
0.0
  0
LINE
  5
1C2C
330
21
100
AcDbEntity
  8
gaikei
100
AcDbLine
 10
59.49741130943682
 20
46.07910557153357
 30
0.0
 11
59.49741130943682
 21
37.0791055715336
 31
0.0
  0
LINE
  5
1C2D
330
21
100
AcDbEntity
  8
gaikei
100
AcDbLine
 10
109.4974113094367
 20
46.07910557153357
 30
0.0
 11
109.4974113094367
 21
37.0791055715336
 31
0.0
  0
ARC
  5
1C2E
330
21
100
AcDbEntity
  8
gaikei
100
AcDbCircle
 10
60.49741130943681
 20
46.07910557153357
 30
0.0
 40
1.0
100
AcDbArc
 50
90.0
 51
180.0
  0
ARC
  5
1C2F
330
21
100
AcDbEntity
  8
gaikei
100
AcDbCircle
 10
108.4974113094367
 20
46.07910557153357
 30
0.0
 40
1.0
100
AcDbArc
 50
0.0
 51
90.0
  0
LINE
  5
1C30
330
21
100
AcDbEntity
  8
gaikei
100
AcDbLine
 10
60.49741130943681
 20
47.07910557153357
 30
0.0
 11
108.4974113094367
 21
47.07910557153357
 31
0.0
  0
LINE
  5
1C31
330
21
100
AcDbEntity
  8
gaikei
100
AcDbLine
 10
57.99741130943681
 20
43.7291055715336
 30
0.0
 11
59.49741130943682
 21
43.72910557153363
 31
0.0
  0
LINE
  5
1C32
330
21
100
AcDbEntity
  8
gaikei
100
AcDbLine
 10
57.99741130943681
 20
54.5791055715336
 30
0.0
 11
110.9974113094368
 21
54.5791055715336
 31
0.0
  0
LINE
  5
1C33
330
21
100
AcDbEntity
  8
gaikei
100
AcDbLine
 10
110.9974113094367
 20
59.57910557153366
 30
0.0
 11
110.9974113094368
 21
30.5791055715336
 31
0.0
  0
LINE
  5
1C34
330
21
100
AcDbEntity
  8
gaikei
100
AcDbLine
 10
57.99741130943681
 20
59.5791055715336
 30
0.0
 11
110.9974113094367
 21
59.57910557153366
 31
0.0
  0
MTEXT
  5
1C35
330
21
100
AcDbEntity
  8
fuzoku
100
AcDbMText
 10
66.77690636395576
 20
123.4235654423971
 30
0.0
 40
0.75
 41
2.114430053070009
 71
     1
 72
     5
  1
1\P2\P3\P4\P5\P6\P7\P8
 73
     1
 44
1.0
  0
LINE
  5
1C36
330
21
100
AcDbEntity
  8
fuzoku
100
AcDbLine
 10
86.1155871920628
 20
124.2700944547395
 30
0.0
 11
99.28967205900812
 21
124.2700944547395
 31
0.0
  0
LINE
  5
1C37
330
21
100
AcDbEntity
  8
fuzoku
100
AcDbLine
 10
73.28600221331342
 20
126.1829336048013
 30
0.0
 11
90.29760760745924
 21
126.1829336048013
 31
0.0
  0
TEXT
  5
1C38
330
21
100
AcDbEntity
  8
fuzoku
100
AcDbText
 10
78.81477326572579
 20
124.6243243002171
 30
0.0
 40
1.25
  1
　　　　　AD-AS-1CLM
100
AcDbText
  0
TEXT
  5
1C39
330
21
100
AcDbEntity
  8
fuzoku
100
AcDbText
 10
73.71129149996935
 20
126.5371634502789
 30
0.0
 40
2.0
  1
漏水位置検知器
100
AcDbText
  0
TEXT
  5
1C3A
330
21
100
AcDbEntity
  8
fuzoku
100
AcDbText
 10
103.7307446427701
 20
111.1595282631027
 30
0.0
 40
1.0
  1
警報解除
 72
     4
 11
105.9974113094368
 21
111.6595282631027
 31
0.0
100
AcDbText
  0
TEXT
  5
1C3B
330
21
100
AcDbEntity
  8
fuzoku
100
AcDbText
 10
96.06407797610348
 20
111.1595282631027
 30
0.0
 40
1.0
  1
ブザー停止
 72
     4
 11
98.99741130943681
 21
111.6595282631027
 31
0.0
100
AcDbText
  0
TEXT
  5
1C3C
330
21
100
AcDbEntity
  8
fuzoku
100
AcDbText
 10
104.9307446427702
 20
118.8858077661754
 30
0.0
 40
1.0
  1
警報
 72
     4
 11
105.9974113094368
 21
119.3858077661754
 31
0.0
100
AcDbText
  0
TEXT
  5
1C3D
330
21
100
AcDbEntity
  8
fuzoku
100
AcDbText
 10
104.9307446427702
 20
124.0575572803682
 30
0.0
 40
1.0
  1
電源
 72
     4
 11
105.9974113094368
 21
124.5575572803682
 31
0.0
100
AcDbText
  0
LINE
  5
1C3E
330
21
100
AcDbEntity
  8
gaikei
100
AcDbLine
 10
66.24741130943679
 20
113.1556915682001
 30
0.0
 11
62.99741130943679
 21
113.1556915682002
 31
0.0
  0
LINE
  5
1C3F
330
21
100
AcDbEntity
  8
gaikei
100
AcDbLine
 10
66.24741130943679
 20
124.1556915682002
 30
0.0
 11
62.99741130943679
 21
124.1556915682002
 31
0.0
  0
LINE
  5
1C40
330
21
100
AcDbEntity
  8
gaikei
100
AcDbLine
 10
66.24741130943679
 20
124.1556915682002
 30
0.0
 11
66.24741130943679
 21
113.1556915682001
 31
0.0
  0
LINE
  5
1C41
330
21
100
AcDbEntity
  8
gaikei
100
AcDbLine
 10
62.99741130943679
 20
124.1556915682002
 30
0.0
 11
62.99741130943679
 21
113.1556915682002
 31
0.0
  0
LINE
  5
1C42
330
21
100
AcDbEntity
  8
fuzoku
100
AcDbLine
 10
91.99741130943676
 20
121.9056915682002
 30
0.0
 11
91.99741130943676
 21
116.1556915682001
 31
0.0
  0
LINE
  5
1C43
330
21
100
AcDbEntity
  8
fuzoku
100
AcDbLine
 10
88.24741130943678
 20
121.9056915682003
 30
0.0
 11
88.24741130943678
 21
116.1556915682002
 31
0.0
  0
LINE
  5
1C44
330
21
100
AcDbEntity
  8
fuzoku
100
AcDbLine
 10
84.49741130943678
 20
121.9056915682003
 30
0.0
 11
84.49741130943678
 21
116.1556915682002
 31
0.0
  0
LINE
  5
1C45
330
21
100
AcDbEntity
  8
fuzoku
100
AcDbLine
 10
78.74741130943679
 20
116.1556915682002
 30
0.0
 11
74.74741130943678
 21
116.1556915682002
 31
0.0
  0
LINE
  5
1C46
330
21
100
AcDbEntity
  8
fuzoku
100
AcDbLine
 10
78.74741130943679
 20
121.9056915682002
 30
0.0
 11
74.74741130943678
 21
121.9056915682002
 31
0.0
  0
LINE
  5
1C47
330
21
100
AcDbEntity
  8
fuzoku
100
AcDbLine
 10
91.99741130943676
 20
116.1556915682001
 30
0.0
 11
80.74741130943678
 21
116.1556915682002
 31
0.0
  0
LINE
  5
1C48
330
21
100
AcDbEntity
  8
fuzoku
100
AcDbLine
 10
91.99741130943676
 20
121.9056915682002
 30
0.0
 11
80.74741130943678
 21
121.9056915682003
 31
0.0
  0
LINE
  5
1C49
330
21
100
AcDbEntity
  8
fuzoku
100
AcDbLine
 10
80.74741130943678
 20
121.9056915682003
 30
0.0
 11
80.74741130943678
 21
116.1556915682002
 31
0.0
  0
LINE
  5
1C4A
330
21
100
AcDbEntity
  8
fuzoku
100
AcDbLine
 10
78.74741130943679
 20
121.9056915682002
 30
0.0
 11
78.74741130943679
 21
116.1556915682002
 31
0.0
  0
LINE
  5
1C4B
330
21
100
AcDbEntity
  8
fuzoku
100
AcDbLine
 10
74.74741130943678
 20
121.9056915682002
 30
0.0
 11
74.74741130943678
 21
116.1556915682002
 31
0.0
  0
CIRCLE
  5
1C4C
330
21
100
AcDbEntity
  8
gaikei
100
AcDbCircle
 10
105.9974113094368
 20
114.9056915682001
 30
0.0
 40
1.499999999999971
  0
CIRCLE
  5
1C4D
330
21
100
AcDbEntity
  8
gaikei
100
AcDbCircle
 10
98.99741130943679
 20
114.9056915682001
 30
0.0
 40
1.499999999999971
  0
CIRCLE
  5
1C4E
330
21
100
AcDbEntity
  8
fuzoku
100
AcDbCircle
 10
105.9974113094368
 20
126.4056915682002
 30
0.0
 40
1.0
  0
CIRCLE
  5
1C4F
330
21
100
AcDbEntity
  8
fuzoku
100
AcDbCircle
 10
105.9974113094368
 20
121.4056915682002
 30
0.0
 40
1.0
  0
LINE
  5
1C50
330
21
100
AcDbEntity
  8
gaikei
100
AcDbLine
 10
86.99741130943678
 20
96.1556915682001
 30
0.0
 11
86.99741130943678
 21
93.65569156820006
 31
0.0
  0
LINE
  5
1C51
102
{ACAD_REACTORS
330
1C1B
102
}
330
21
100
AcDbEntity
  8
gaikei
100
AcDbLine
 10
81.99741130943676
 20
96.1556915682001
 30
0.0
 11
81.99741130943678
 21
93.65569156820006
 31
0.0
  0
LINE
  5
1C52
330
21
100
AcDbEntity
  8
gaikei
100
AcDbLine
 10
110.9974113094367
 20
103.1556915682001
 30
0.0
 11
57.99741130943679
 21
103.1556915682001
 31
0.0
  0
LINE
  5
1C53
330
21
100
AcDbEntity
  8
gaikei
100
AcDbLine
 10
110.9974113094367
 20
107.4056915682001
 30
0.0
 11
57.99741130943679
 21
107.4056915682001
 31
0.0
  0
LINE
  5
1C54
330
21
100
AcDbEntity
  8
gaikei
100
AcDbLine
 10
110.9974113094368
 20
129.9056915682002
 30
0.0
 11
57.99741130943679
 21
129.9056915682002
 31
0.0
  0
LINE
  5
1C55
330
21
100
AcDbEntity
  8
gaikei
100
AcDbLine
 10
110.9974113094367
 20
134.1556915682001
 30
0.0
 11
57.99741130943679
 21
134.1556915682001
 31
0.0
  0
LINE
  5
1C56
330
21
100
AcDbEntity
  8
gaikei
100
AcDbLine
 10
60.49741130943679
 20
134.9056915682001
 30
0.0
 11
57.99741130943679
 21
134.9056915682001
 31
0.0
  0
LINE
  5
1C57
330
21
100
AcDbEntity
  8
gaikei
100
AcDbLine
 10
60.49741130943679
 20
138.1556915682001
 30
0.0
 11
57.99741130943679
 21
138.1556915682001
 31
0.0
  0
LINE
  5
1C58
330
21
100
AcDbEntity
  8
gaikei
100
AcDbLine
 10
60.49741130943679
 20
138.1556915682001
 30
0.0
 11
60.49741130943679
 21
134.9056915682001
 31
0.0
  0
LINE
  5
1C59
330
21
100
AcDbEntity
  8
gaikei
100
AcDbLine
 10
108.4974113094368
 20
134.9056915682001
 30
0.0
 11
108.4974113094368
 21
138.1556915682002
 31
0.0
  0
LINE
  5
1C5A
330
21
100
AcDbEntity
  8
gaikei
100
AcDbLine
 10
180.2212278833993
 20
93.65569156820013
 30
0.0
 11
181.9712278833993
 21
93.6556915682001
 31
0.0
  0
LINE
  5
1C5B
330
21
100
AcDbEntity
  8
gaikei
100
AcDbLine
 10
110.9974113094368
 20
134.9056915682001
 30
0.0
 11
108.4974113094368
 21
134.9056915682001
 31
0.0
  0
LINE
  5
1C5C
330
21
100
AcDbEntity
  8
gaikei
100
AcDbLine
 10
110.9974113094368
 20
138.1556915682002
 30
0.0
 11
108.4974113094368
 21
138.1556915682002
 31
0.0
  0
LINE
  5
1C5D
330
21
100
AcDbEntity
  8
gaikei
100
AcDbLine
 10
181.9712278833993
 20
96.15569156820015
 30
0.0
 11
181.9712278833993
 21
93.6556915682001
 31
0.0
  0
LINE
  5
1C5E
330
21
100
AcDbEntity
  8
gaikei
100
AcDbLine
 10
180.2212278833993
 20
96.15569156820022
 30
0.0
 11
180.2212278833993
 21
93.65569156820013
 31
0.0
  0
LINE
  5
1C5F
330
21
100
AcDbEntity
  8
gaikei
100
AcDbLine
 10
181.471227883399
 20
127.6556915682001
 30
0.0
 11
182.221227883399
 21
126.1556915682001
 31
0.0
  0
LINE
  5
1C60
330
21
100
AcDbEntity
  8
gaikei
100
AcDbLine
 10
182.221227883399
 20
126.1556915682001
 30
0.0
 11
183.221227883399
 21
126.1556915682001
 31
0.0
  0
LINE
  5
1C61
330
21
100
AcDbEntity
  8
gaikei
100
AcDbLine
 10
180.721227883399
 20
127.6556915682001
 30
0.0
 11
180.721227883399
 21
109.512834425343
 31
0.0
  0
LINE
  5
1C62
330
21
100
AcDbEntity
  8
gaikei
100
AcDbLine
 10
180.721227883399
 20
109.512834425343
 30
0.0
 11
183.221227883399
 21
109.1556915682001
 31
0.0
  0
LINE
  5
1C63
102
{ACAD_REACTORS
330
1C18
102
}
330
21
100
AcDbEntity
  8
gaikei
100
AcDbLine
 10
183.221227883399
 20
126.1556915682001
 30
0.0
 11
183.221227883399
 21
141.1556915682001
 31
0.0
  0
LINE
  5
1C64
330
21
100
AcDbEntity
  8
gaikei
100
AcDbLine
 10
180.721227883399
 20
127.6556915682001
 30
0.0
 11
183.221227883399
 21
127.6556915682001
 31
0.0
  0
LINE
  5
1C65
330
21
100
AcDbEntity
  8
gaikei
100
AcDbLine
 10
182.7212278833993
 20
102.1556915682
 30
0.0
 11
182.7212278833993
 21
99.40569156819998
 31
0.0
  0
LINE
  5
1C66
330
21
100
AcDbEntity
  8
gaikei
100
AcDbLine
 10
179.7212278833993
 20
99.1556915682001
 30
0.0
 11
182.7212278833993
 21
99.40569156819998
 31
0.0
  0
LINE
  5
1C67
330
21
100
AcDbEntity
  8
gaikei
100
AcDbLine
 10
179.7212278833993
 20
102.4056915682001
 30
0.0
 11
182.7212278833993
 21
102.1556915682
 31
0.0
  0
LINE
  5
1C68
330
21
100
AcDbEntity
  8
gaikei
100
AcDbLine
 10
179.7212278833993
 20
99.15569156819998
 30
0.0
 11
179.7212278833993
 21
96.1556915682001
 31
0.0
  0
LINE
  5
1C69
330
21
100
AcDbEntity
  8
gaikei
100
AcDbLine
 10
179.7212278833993
 20
99.1556915682001
 30
0.0
 11
183.2212278833993
 21
99.1556915682001
 31
0.0
  0
LINE
  5
1C6A
330
21
100
AcDbEntity
  8
gaikei
100
AcDbLine
 10
179.7212278833993
 20
102.4056915682001
 30
0.0
 11
183.2212278833992
 21
102.4056915682001
 31
0.0
  0
LINE
  5
1C6B
330
21
100
AcDbEntity
  8
gaikei
100
AcDbLine
 10
183.2212278833992
 20
102.4056915682001
 30
0.0
 11
183.2212278833992
 21
102.4056915682001
 31
0.0
  0
LINE
  5
1C6C
330
21
100
AcDbEntity
  8
gaikei
100
AcDbLine
 10
154.2212278833989
 20
113.4056915682001
 30
0.0
 11
152.721227883399
 21
113.4056915682001
 31
0.0
  0
LINE
  5
1C6D
102
{ACAD_REACTORS
330
1C18
102
}
330
21
100
AcDbEntity
  8
gaikei
100
AcDbLine
 10
154.221227883399
 20
116.4056915682001
 30
0.0
 11
152.7212278833989
 21
116.4056915682001
 31
0.0
  0
LINE
  5
1C6E
330
21
100
AcDbEntity
  8
gaikei
100
AcDbLine
 10
152.721227883399
 20
113.4056915682001
 30
0.0
 11
152.7212278833989
 21
116.4056915682001
 31
0.0
  0
LINE
  5
1C6F
330
21
100
AcDbEntity
  8
gaikei
100
AcDbLine
 10
183.221227883399
 20
134.9056915682001
 30
0.0
 11
183.221227883399
 21
134.9056915682001
 31
0.0
  0
LINE
  5
1C70
330
21
100
AcDbEntity
  8
gaikei
100
AcDbLine
 10
179.721227883399
 20
134.9056915682001
 30
0.0
 11
183.221227883399
 21
134.9056915682001
 31
0.0
  0
LINE
  5
1C71
330
21
100
AcDbEntity
  8
gaikei
100
AcDbLine
 10
179.721227883399
 20
138.1556915682001
 30
0.0
 11
183.221227883399
 21
138.1556915682001
 31
0.0
  0
LINE
  5
1C72
330
21
100
AcDbEntity
  8
gaikei
100
AcDbLine
 10
179.721227883399
 20
138.1556915682002
 30
0.0
 11
179.721227883399
 21
141.1556915682001
 31
0.0
  0
LINE
  5
1C73
330
21
100
AcDbEntity
  8
gaikei
100
AcDbLine
 10
179.721227883399
 20
134.9056915682001
 30
0.0
 11
182.721227883399
 21
135.1556915682002
 31
0.0
  0
LINE
  5
1C74
330
21
100
AcDbEntity
  8
gaikei
100
AcDbLine
 10
179.721227883399
 20
138.1556915682001
 30
0.0
 11
182.721227883399
 21
137.9056915682002
 31
0.0
  0
LINE
  5
1C75
330
21
100
AcDbEntity
  8
gaikei
100
AcDbLine
 10
182.721227883399
 20
135.1556915682002
 30
0.0
 11
182.721227883399
 21
137.9056915682002
 31
0.0
  0
LINE
  5
1C76
330
21
100
AcDbEntity
  8
gaikei
100
AcDbLine
 10
177.471227883399
 20
138.1556915682001
 30
0.0
 11
170.071227883399
 21
138.1556915682001
 31
0.0
  0
LINE
  5
1C77
330
21
100
AcDbEntity
  8
gaikei
100
AcDbLine
 10
177.471227883399
 20
134.9056915682001
 30
0.0
 11
170.071227883399
 21
134.9056915682001
 31
0.0
  0
LINE
  5
1C78
330
21
100
AcDbEntity
  8
gaikei
100
AcDbLine
 10
177.471227883399
 20
134.9056915682001
 30
0.0
 11
177.471227883399
 21
138.1556915682001
 31
0.0
  0
LINE
  5
1C79
330
21
100
AcDbEntity
  8
gaikei
100
AcDbLine
 10
159.221227883399
 20
129.9056915682001
 30
0.0
 11
159.221227883399
 21
134.1556915682001
 31
0.0
  0
LINE
  5
1C7A
330
21
100
AcDbEntity
  8
gaikei
100
AcDbLine
 10
159.2212278833989
 20
107.4056915682001
 30
0.0
 11
154.2212278833989
 21
107.4056915682001
 31
0.0
  0
LINE
  5
1C7B
330
21
100
AcDbEntity
  8
gaikei
100
AcDbLine
 10
159.221227883399
 20
129.9056915682001
 30
0.0
 11
154.2212278833989
 21
129.9056915682002
 31
0.0
  0
LINE
  5
1C7C
330
21
100
AcDbEntity
  8
gaikei
100
AcDbLine
 10
170.0712278833989
 20
134.1556915682001
 30
0.0
 11
170.0712278833989
 21
140.9056915682
 31
0.0
  0
LINE
  5
1C7D
330
21
100
AcDbEntity
  8
gaikei
100
AcDbLine
 10
170.071227883399
 20
103.1556915682001
 30
0.0
 11
159.2212278833989
 21
103.1556915682001
 31
0.0
  0
LINE
  5
1C7E
330
21
100
AcDbEntity
  8
gaikei
100
AcDbLine
 10
170.0712278833989
 20
134.1556915682001
 30
0.0
 11
159.221227883399
 21
134.1556915682001
 31
0.0
  0
LINE
  5
1C7F
330
21
100
AcDbEntity
  8
gaikei
100
AcDbLine
 10
159.2212278833989
 20
103.1556915682001
 30
0.0
 11
159.2212278833989
 21
107.4056915682001
 31
0.0
  0
LINE
  5
1C80
330
21
100
AcDbEntity
  8
gaikei
100
AcDbLine
 10
170.071227883399
 20
96.40569156820015
 30
0.0
 11
179.7212278833989
 21
96.1556915682001
 31
0.0
  0
LINE
  5
1C81
330
21
100
AcDbEntity
  8
gaikei
100
AcDbLine
 10
170.0712278833989
 20
140.9056915682
 30
0.0
 11
179.721227883399
 21
141.1556915682001
 31
0.0
  0
LINE
  5
1C82
330
21
100
AcDbEntity
  8
gaikei
100
AcDbLine
 10
179.7212278833989
 20
96.1556915682001
 30
0.0
 11
179.721227883399
 21
134.9056915682001
 31
0.0
  0
LINE
  5
1C83
330
21
100
AcDbEntity
  8
gaikei
100
AcDbLine
 10
170.071227883399
 20
96.40569156820015
 30
0.0
 11
170.071227883399
 21
103.1556915682001
 31
0.0
  0
LINE
  5
1C84
330
21
100
AcDbEntity
  8
gaikei
100
AcDbLine
 10
110.9974113094367
 20
96.1556915682001
 30
0.0
 11
57.99741130943679
 21
96.1556915682001
 31
0.0
  0
LINE
  5
1C85
102
{ACAD_REACTORS
330
1C1E
330
1C1B
102
}
330
21
100
AcDbEntity
  8
gaikei
100
AcDbLine
 10
57.99741130943679
 20
141.1556915682001
 30
0.0
 11
57.99741130943679
 21
96.1556915682001
 31
0.0
  0
LINE
  5
1C86
102
{ACAD_REACTORS
330
1C1E
102
}
330
21
100
AcDbEntity
  8
gaikei
100
AcDbLine
 10
110.9974113094368
 20
141.1556915682001
 30
0.0
 11
57.99741130943679
 21
141.1556915682001
 31
0.0
  0
LINE
  5
1C87
330
21
100
AcDbEntity
  8
gaikei
100
AcDbLine
 10
110.9974113094367
 20
96.1556915682001
 30
0.0
 11
110.9974113094368
 21
141.1556915682001
 31
0.0
  0
LINE
  5
1C88
330
21
100
AcDbEntity
  8
gaikei
100
AcDbLine
 10
81.99741130943678
 20
93.65569156820006
 30
0.0
 11
86.99741130943678
 21
93.65569156820006
 31
0.0
  0
LINE
  5
1C89
330
21
100
AcDbEntity
  8
gaikei
100
AcDbLine
 10
110.9974113094368
 20
117.4056915682001
 30
0.0
 11
110.9974113094368
 21
117.4056915682001
 31
0.0
  0
LINE
  5
1C8A
330
21
100
AcDbEntity
  8
gaikei
100
AcDbLine
 10
179.721227883399
 20
141.1556915682001
 30
0.0
 11
183.221227883399
 21
141.1556915682001
 31
0.0
  0
LINE
  5
1C8B
330
21
100
AcDbEntity
  8
gaikei
100
AcDbLine
 10
154.2212278833989
 20
107.4056915682001
 30
0.0
 11
154.2212278833989
 21
129.9056915682002
 31
0.0
  0
LINE
  5
1C8C
330
21
100
AcDbEntity
  8
gaikei
100
AcDbLine
 10
57.99741130943681
 20
30.5791055715336
 30
0.0
 11
110.9974113094368
 21
30.5791055715336
 31
0.0
  0
LINE
  5
1C8D
330
21
100
AcDbEntity
  8
gaikei
100
AcDbLine
 10
57.99741130943681
 20
59.5791055715336
 30
0.0
 11
57.99741130943681
 21
30.5791055715336
 31
0.0
  0
LINE
  5
1C8E
330
21
100
AcDbEntity
  8
gaikei
100
AcDbLine
 10
183.2212278833989
 20
96.1556915682001
 30
0.0
 11
183.221227883399
 21
109.1556915682001
 31
0.0
  0
LINE
  5
1C8F
330
21
100
AcDbEntity
  8
gaikei
100
AcDbLine
 10
183.2212278833989
 20
96.1556915682001
 30
0.0
 11
183.2212278833989
 21
96.1556915682001
 31
0.0
  0
LINE
  5
1C90
330
21
100
AcDbEntity
  8
gaikei
100
AcDbLine
 10
179.7212278833989
 20
96.15569156820015
 30
0.0
 11
183.2212278833989
 21
96.1556915682001
 31
0.0
  0
TEXT
  5
1D07
330
21
100
AcDbEntity
  8
moji
100
AcDbText
 10
242.1203565607819
 20
69.02518335392676
 30
0.0
 40
3.0
  1
漏水位置データ出力機能　：　有（4-20mA　カレントループ出力）
 11
242.1203565607819
 21
70.52518335392676
 31
0.0
100
AcDbText
 73
     2
  0
LINE
  5
1D08
330
21
100
AcDbEntity
  8
zubanwaku
100
AcDbLine
 10
239.120356560782
 20
68.02518335392676
 30
0.0
 11
359.1203565607819
 21
68.02518335392676
 31
0.0
  0
VIEWPORT
  5
1886
330
187F
100
AcDbEntity
 67
     1
  8
0
100
AcDbViewport
 10
221.8988813324755
 20
100.8062472343445
 30
0.0
 40
512.0405926593053
 41
222.1517806396485
 68
     1
 69
     1
 12
221.8988813324755
 22
100.8062472343445
 13
0.0
 23
0.0
 14
10.0
 24
10.0
 15
10.0
 25
10.0
 16
0.0
 26
0.0
 36
1.0
 17
0.0
 27
0.0
 37
0.0
 42
50.0
 43
0.0
 44
0.0
 45
222.1517806396485
 50
0.0
 51
0.0
 72
  1000
 90
    32800
  1

281
     0
 71
     1
 74
     0
110
0.0
120
0.0
130
0.0
111
1.0
121
0.0
131
0.0
112
0.0
122
1.0
132
0.0
 79
     0
146
0.0
170
     0
  0
VIEWPORT
  5
1888
330
187F
100
AcDbEntity
 67
     1
  8
hojo
100
AcDbViewport
 10
144.2825528925341
 20
102.1391580989504
 30
0.0
 40
282.4235581177303
 41
192.5315437884264
 68
     2
 69
     2
 12
190.2203607897572
 22
97.76443033407272
 13
0.0
 23
0.0
 14
10.0
 24
10.0
 15
10.0
 25
10.0
 16
0.0
 26
0.0
 36
1.0
 17
0.0
 27
0.0
 37
0.0
 42
50.0
 43
0.0
 44
0.0
 45
245.6642201174587
 50
0.0
 51
0.0
 72
  1000
 90
    32864
  1

281
     0
 71
     1
 74
     0
110
0.0
120
0.0
130
0.0
111
1.0
121
0.0
131
0.0
112
0.0
122
1.0
132
0.0
 79
     0
146
0.0
170
     0
  0
ENDSEC
  0
SECTION
  2
OBJECTS
  0
DICTIONARY
  5
C
330
0
100
AcDbDictionary
281
     1
  3
ACAD_COLOR
350
1C
  3
ACAD_GROUP
350
D
  3
ACAD_LAYOUT
350
1A
  3
ACAD_MATERIAL
350
1B
  3
ACAD_MLEADERSTYLE
350
1D80
  3
ACAD_MLINESTYLE
350
17
  3
ACAD_PLOTSETTINGS
350
19
  3
ACAD_PLOTSTYLENAME
350
E
  3
ACAD_SCALELIST
350
1D5E
  3
ACAD_TABLESTYLE
350
1D5C
  3
ACAD_VISUALSTYLE
350
1D4B
  3
ACDB_RECOMPOSE_DATA
350
1DC9
  3
AcDbVariableDictionary
350
1DA7
  0
DICTIONARY
  5
5C
330
2
100
AcDbDictionary
280
     1
281
     1
  3
ACAD_LAYERFILTERS
360
89B
  3
ACAD_LAYERSTATES
360
5D
  0
DICTIONARY
  5
1D95
330
10
100
AcDbDictionary
280
     1
281
     1
  3
ADSK_XREC_LAYER_RECONCILED
360
1D96
  0
DICTIONARY
  5
1D97
330
2D
100
AcDbDictionary
280
     1
281
     1
  3
ADSK_XREC_LAYER_RECONCILED
360
1D98
  0
DICTIONARY
  5
1D99
330
2E
100
AcDbDictionary
280
     1
281
     1
  3
ADSK_XREC_LAYER_RECONCILED
360
1D9A
  0
DICTIONARY
  5
1D9B
330
2F
100
AcDbDictionary
280
     1
281
     1
  3
ADSK_XREC_LAYER_RECONCILED
360
1D9C
  0
DICTIONARY
  5
1D9D
330
30
100
AcDbDictionary
280
     1
281
     1
  3
ADSK_XREC_LAYER_RECONCILED
360
1D9E
  0
DICTIONARY
  5
1D9F
330
48
100
AcDbDictionary
280
     1
281
     1
  3
ADSK_XREC_LAYER_RECONCILED
360
1DA0
  0
DICTIONARY
  5
1DA1
330
B26
100
AcDbDictionary
280
     1
281
     1
  3
ADSK_XREC_LAYER_RECONCILED
360
1DA2
  0
DICTIONARY
  5
1DA3
330
B29
100
AcDbDictionary
280
     1
281
     1
  3
ADSK_XREC_LAYER_RECONCILED
360
1DA4
  0
DICTIONARY
  5
1DA5
330
B2A
100
AcDbDictionary
280
     1
281
     1
  3
ADSK_XREC_LAYER_RECONCILED
360
1DA6
  0
DICTIONARY
  5
1B98
330
1B97
100
AcDbDictionary
280
     1
281
     1
  3
ACAD_DIMASSOC
360
1B99
  0
DICTIONARY
  5
1B9B
330
1B9A
100
AcDbDictionary
280
     1
281
     1
  3
ACAD_DIMASSOC
360
1B9C
  0
DICTIONARY
  5
1B9E
330
1B9D
100
AcDbDictionary
280
     1
281
     1
  3
ACAD_DIMASSOC
360
1B9F
  0
DICTIONARY
  5
1C17
330
1C16
100
AcDbDictionary
280
     1
281
     1
  3
ACAD_DIMASSOC
360
1C18
  0
DICTIONARY
  5
1C1A
330
1C19
100
AcDbDictionary
280
     1
281
     1
  3
ACAD_DIMASSOC
360
1C1B
  0
DICTIONARY
  5
1C1D
330
1C1C
100
AcDbDictionary
280
     1
281
     1
  3
ACAD_DIMASSOC
360
1C1E
  0
DICTIONARY
  5
1C
102
{ACAD_REACTORS
330
C
102
}
330
C
100
AcDbDictionary
281
     1
  0
DICTIONARY
  5
D
102
{ACAD_REACTORS
330
C
102
}
330
C
100
AcDbDictionary
281
     1
  3
*A1
350
AE8
  0
DICTIONARY
  5
1A
102
{ACAD_REACTORS
330
C
102
}
330
C
100
AcDbDictionary
281
     1
  3
Model
350
24
  3
レイアウト1
350
1880
  0
DICTIONARY
  5
1B
102
{ACAD_REACTORS
330
C
102
}
330
C
100
AcDbDictionary
281
     1
  3
ByBlock
350
1D43
  3
ByLayer
350
1D3B
  3
Global
350
55
  0
DICTIONARY
  5
1D80
102
{ACAD_REACTORS
330
C
102
}
330
C
100
AcDbDictionary
281
     1
  3
Standard
350
1D81
  0
DICTIONARY
  5
17
102
{ACAD_REACTORS
330
C
102
}
330
C
100
AcDbDictionary
281
     1
  3
Standard
350
18
  0
DICTIONARY
  5
19
102
{ACAD_REACTORS
330
C
102
}
330
C
100
AcDbDictionary
281
     1
  0
ACDBDICTIONARYWDFLT
  5
E
102
{ACAD_REACTORS
330
C
102
}
330
C
100
AcDbDictionary
281
     1
  3
Normal
350
F
100
AcDbDictionaryWithDefault
340
F
  0
DICTIONARY
  5
1D5E
102
{ACAD_REACTORS
330
C
102
}
330
C
100
AcDbDictionary
281
     1
  3
A0
350
1D5F
  3
A1
350
1D60
  3
A2
350
1D61
  3
A3
350
1D62
  3
A4
350
1D63
  3
A5
350
1D64
  3
A6
350
1D65
  3
A7
350
1D66
  3
A8
350
1D67
  3
A9
350
1D68
  3
B0
350
1D69
  3
B1
350
1D6A
  3
B2
350
1D6B
  3
B3
350
1D6C
  3
B4
350
1D6D
  3
B5
350
1D6E
  3
B6
350
1D6F
  3
B7
350
1D70
  3
B8
350
1D71
  3
B9
350
1D72
  3
C0
350
1D73
  3
C1
350
1D74
  3
C2
350
1D75
  3
C3
350
1D76
  3
C4
350
1D77
  3
C5
350
1D78
  3
C6
350
1D79
  3
C7
350
1D7A
  3
C8
350
1D7B
  3
C9
350
1D7C
  3
D0
350
1D7D
  3
D1
350
1D7E
  3
D2
350
1D7F
  0
DICTIONARY
  5
1D5C
102
{ACAD_REACTORS
330
C
102
}
330
C
100
AcDbDictionary
281
     1
  3
Standard
350
1D5D
  0
DICTIONARY
  5
1D4B
102
{ACAD_REACTORS
330
C
102
}
330
C
100
AcDbDictionary
281
     1
  3
2dWireframe
350
1D51
  3
3D Hidden
350
1D53
  3
3dWireframe
350
1D52
  3
Basic
350
1D50
  3
Brighten
350
1D57
  3
ColorChange
350
1D5B
  3
Conceptual
350
1D54
  3
Dim
350
1D56
  3
Facepattern
350
1D5A
  3
Flat
350
1D4C
  3
FlatWithEdges
350
1D4D
  3
Gouraud
350
1D4E
  3
GouraudWithEdges
350
1D4F
  3
Linepattern
350
1D59
  3
Realistic
350
1D55
  3
Thicken
350
1D58
  0
XRECORD
  5
1DC9
102
{ACAD_REACTORS
330
C
102
}
330
C
100
AcDbXrecord
280
     1
 90
        1
330
1D5D
  0
DICTIONARY
  5
1DA7
102
{ACAD_REACTORS
330
C
102
}
330
C
100
AcDbDictionary
281
     1
  3
CANNOSCALE
350
1DAA
  3
CMLEADERSTYLE
350
1DA9
  3
CTABLESTYLE
350
1DA8
  0
DICTIONARY
  5
89B
102
{ACAD_REACTORS
330
5C
102
}
330
5C
100
AcDbDictionary
281
     1
  0
DICTIONARY
  5
5D
102
{ACAD_REACTORS
330
5C
102
}
330
5C
100
AcDbDictionary
281
     1
  0
XRECORD
  5
1D96
102
{ACAD_REACTORS
330
1D95
102
}
330
1D95
100
AcDbXrecord
280
     1
290
     1
  0
XRECORD
  5
1D98
102
{ACAD_REACTORS
330
1D97
102
}
330
1D97
100
AcDbXrecord
280
     1
290
     1
  0
XRECORD
  5
1D9A
102
{ACAD_REACTORS
330
1D99
102
}
330
1D99
100
AcDbXrecord
280
     1
290
     1
  0
XRECORD
  5
1D9C
102
{ACAD_REACTORS
330
1D9B
102
}
330
1D9B
100
AcDbXrecord
280
     1
290
     1
  0
XRECORD
  5
1D9E
102
{ACAD_REACTORS
330
1D9D
102
}
330
1D9D
100
AcDbXrecord
280
     1
290
     1
  0
XRECORD
  5
1DA0
102
{ACAD_REACTORS
330
1D9F
102
}
330
1D9F
100
AcDbXrecord
280
     1
290
     1
  0
XRECORD
  5
1DA2
102
{ACAD_REACTORS
330
1DA1
102
}
330
1DA1
100
AcDbXrecord
280
     1
290
     1
  0
XRECORD
  5
1DA4
102
{ACAD_REACTORS
330
1DA3
102
}
330
1DA3
100
AcDbXrecord
280
     1
290
     1
  0
XRECORD
  5
1DA6
102
{ACAD_REACTORS
330
1DA5
102
}
330
1DA5
100
AcDbXrecord
280
     1
290
     1
  0
DIMASSOC
  5
1B99
102
{ACAD_REACTORS
330
1B98
102
}
330
1B98
100
AcDbDimAssoc
330
1B97
 90
        3
 70
     0
 71
     0
  1
AcDbOsnapPointRef
 72
     1
331
1BE4
 73
     2
 91
        0
 40
1.0
 10
0.0
 20
0.0
 30
2.000000000000000E+50
 75
     0
  1
AcDbOsnapPointRef
 72
     1
331
1BEE
 73
     2
 91
        0
 40
1.0
 10
0.0
 20
0.0
 30
2.000000000000000E+50
 75
     0
  0
DIMASSOC
  5
1B9C
102
{ACAD_REACTORS
330
1B9B
102
}
330
1B9B
100
AcDbDimAssoc
330
1B9A
 90
        3
 70
     0
 71
     0
  1
AcDbOsnapPointRef
 72
    13
331
1C06
 73
     2
 91
        0
 40
0.0
 10
0.0
 20
0.0
 30
2.000000000000000E+50
 75
     0
  1
AcDbOsnapPointRef
 72
     1
331
1BD2
 73
     2
 91
        0
 40
1.0
 10
0.0
 20
0.0
 30
2.000000000000000E+50
 75
     0
  0
DIMASSOC
  5
1B9F
102
{ACAD_REACTORS
330
1B9E
102
}
330
1B9E
100
AcDbDimAssoc
330
1B9D
 90
        3
 70
     0
 71
     0
  1
AcDbOsnapPointRef
 72
    13
331
1C06
 73
     2
 91
        0
 40
0.0
 10
0.0
 20
0.0
 30
2.000000000000000E+50
 75
     0
  1
AcDbOsnapPointRef
 72
    13
331
1C07
 73
     2
 91
        0
 40
0.0
 10
0.0
 20
0.0
 30
2.000000000000000E+50
 75
     0
  0
DIMASSOC
  5
1C18
102
{ACAD_REACTORS
330
1C17
102
}
330
1C17
100
AcDbDimAssoc
330
1C16
 90
        3
 70
     0
 71
     0
  1
AcDbOsnapPointRef
 72
     1
331
1C63
 73
     2
 91
        0
 40
1.0
 10
0.0
 20
0.0
 30
2.000000000000000E+50
 75
     0
  1
AcDbOsnapPointRef
 72
     1
331
1C6D
 73
     2
 91
        0
 40
1.0
 10
0.0
 20
0.0
 30
2.000000000000000E+50
 75
     0
  0
DIMASSOC
  5
1C1B
102
{ACAD_REACTORS
330
1C1A
102
}
330
1C1A
100
AcDbDimAssoc
330
1C19
 90
        3
 70
     0
 71
     0
  1
AcDbOsnapPointRef
 72
    13
331
1C85
 73
     2
 91
        0
 40
0.0
 10
0.0
 20
0.0
 30
2.000000000000000E+50
 75
     0
  1
AcDbOsnapPointRef
 72
     1
331
1C51
 73
     2
 91
        0
 40
1.0
 10
0.0
 20
0.0
 30
2.000000000000000E+50
 75
     0
  0
DIMASSOC
  5
1C1E
102
{ACAD_REACTORS
330
1C1D
102
}
330
1C1D
100
AcDbDimAssoc
330
1C1C
 90
        3
 70
     0
 71
     0
  1
AcDbOsnapPointRef
 72
    13
331
1C85
 73
     2
 91
        0
 40
0.0
 10
0.0
 20
0.0
 30
2.000000000000000E+50
 75
     0
  1
AcDbOsnapPointRef
 72
    13
331
1C86
 73
     2
 91
        0
 40
0.0
 10
0.0
 20
0.0
 30
2.000000000000000E+50
 75
     0
  0
GROUP
  5
AE8
102
{ACAD_REACTORS
330
D
102
}
330
D
100
AcDbGroup
300

 70
     1
 71
     1
  0
LAYOUT
  5
24
102
{ACAD_REACTORS
330
1A
102
}
330
1A
100
AcDbPlotSettings
  1

  2
none_device
  4
Letter_(8.50_x_11.00_Inches)
  6

 40
6.349999904632568
 41
6.349999904632568
 42
6.350006103515625
 43
6.350006103515625
 44
215.8999938964844
 45
279.3999938964844
 46
0.0
 47
0.0
 48
0.0
 49
0.0
140
0.0
141
0.0
142
1.0
143
1.0
 70
 11952
 72
     1
 73
     1
 74
     0
  7

 75
     0
147
1.0
 76
     0
 77
     2
 78
   300
148
-83.36161879895561
149
0.0
100
AcDbLayout
  1
Model
 70
     1
 71
     0
 10
0.0
 20
0.0
 11
12.0
 21
9.0
 12
0.0
 22
0.0
 32
0.0
 14
0.0
 24
0.0
 34
0.0
 15
0.0
 25
0.0
 35
0.0
146
0.0
 13
0.0
 23
0.0
 33
0.0
 16
1.0
 26
0.0
 36
0.0
 17
0.0
 27
1.0
 37
0.0
 76
     0
330
21
331
1D39
  0
LAYOUT
  5
1880
102
{ACAD_XDICTIONARY
360
1D92
102
}
102
{ACAD_REACTORS
330
1A
102
}
330
1A
100
AcDbPlotSettings
  1

  2
Canon MP990 series Printer
  4
A4
  6

 40
4.180416584014892
 41
5.831417560577392
 42
4.180404663085937
 43
3.757080078125
 44
209.9733276367187
 45
296.9683227539062
 46
0.0
 47
0.0
 48
0.0
 49
0.0
140
0.0
141
0.0
142
1.0
143
1.0
 70
   688
 72
     1
 73
     1
 74
     5
  7

 75
    16
147
1.0
 76
     1
 77
     2
 78
   300
148
0.0
149
0.0
100
AcDbLayout
  1
レイアウト1
 70
     1
 71
     1
 10
-3.757080078125
 20
-4.180416584014892
 11
293.2112426757813
 21
205.7929110527039
 12
0.0
 22
0.0
 32
0.0
 14
3.070773833669022
 24
5.873386204737187
 34
0.0
 15
285.4943319513993
 25
198.4049299931636
 35
0.0
146
0.0
 13
0.0
 23
0.0
 33
0.0
 16
1.0
 26
0.0
 36
0.0
 17
0.0
 27
1.0
 37
0.0
 76
     0
330
187F
331
1886
  0
MATERIAL
  5
1D43
102
{ACAD_XDICTIONARY
360
1D44
102
}
102
{ACAD_REACTORS
330
1B
102
}
330
1B
100
AcDbMaterial
  1
ByBlock
 72
     0
 43
0.0008202099737533
 43
0.0
 43
0.0
 43
0.0
 43
0.0
 43
0.0008202099737533
 43
0.0
 43
0.0
 43
0.0
 43
0.0
 43
1.0
 43
0.0
 43
0.0
 43
0.0
 43
0.0
 43
1.0
 77
     0
 47
0.0008202099737533
 47
0.0
 47
0.0
 47
0.0
 47
0.0
 47
0.0008202099737533
 47
0.0
 47
0.0
 47
0.0
 47
0.0
 47
1.0
 47
0.0
 47
0.0
 47
0.0
 47
0.0
 47
1.0
171
     0
 49
0.0008202099737533
 49
0.0
 49
0.0
 49
0.0
 49
0.0
 49
0.0008202099737533
 49
0.0
 49
0.0
 49
0.0
 49
0.0
 49
1.0
 49
0.0
 49
0.0
 49
0.0
 49
0.0
 49
1.0
175
     0
142
0.0008202099737533
142
0.0
142
0.0
142
0.0
142
0.0
142
0.0008202099737533
142
0.0
142
0.0
142
0.0
142
0.0
142
1.0
142
0.0
142
0.0
142
0.0
142
0.0
142
1.0
179
     0
144
0.0008202099737533
144
0.0
144
0.0
144
0.0
144
0.0
144
0.0008202099737533
144
0.0
144
0.0
144
0.0
144
0.0
144
1.0
144
0.0
144
0.0
144
0.0
144
0.0
144
1.0
147
0.0008202099737533
147
0.0
147
0.0
147
0.0
147
0.0
147
0.0008202099737533
147
0.0
147
0.0
147
0.0
147
0.0
147
1.0
147
0.0
147
0.0
147
0.0
147
0.0
147
1.0
  0
MATERIAL
  5
1D3B
102
{ACAD_XDICTIONARY
360
1D3C
102
}
102
{ACAD_REACTORS
330
1B
102
}
330
1B
100
AcDbMaterial
  1
ByLayer
 72
     0
 43
0.0008202099737533
 43
0.0
 43
0.0
 43
0.0
 43
0.0
 43
0.0008202099737533
 43
0.0
 43
0.0
 43
0.0
 43
0.0
 43
1.0
 43
0.0
 43
0.0
 43
0.0
 43
0.0
 43
1.0
 77
     0
 47
0.0008202099737533
 47
0.0
 47
0.0
 47
0.0
 47
0.0
 47
0.0008202099737533
 47
0.0
 47
0.0
 47
0.0
 47
0.0
 47
1.0
 47
0.0
 47
0.0
 47
0.0
 47
0.0
 47
1.0
171
     0
 49
0.0008202099737533
 49
0.0
 49
0.0
 49
0.0
 49
0.0
 49
0.0008202099737533
 49
0.0
 49
0.0
 49
0.0
 49
0.0
 49
1.0
 49
0.0
 49
0.0
 49
0.0
 49
0.0
 49
1.0
175
     0
142
0.0008202099737533
142
0.0
142
0.0
142
0.0
142
0.0
142
0.0008202099737533
142
0.0
142
0.0
142
0.0
142
0.0
142
1.0
142
0.0
142
0.0
142
0.0
142
0.0
142
1.0
179
     0
144
0.0008202099737533
144
0.0
144
0.0
144
0.0
144
0.0
144
0.0008202099737533
144
0.0
144
0.0
144
0.0
144
0.0
144
1.0
144
0.0
144
0.0
144
0.0
144
0.0
144
1.0
147
0.0008202099737533
147
0.0
147
0.0
147
0.0
147
0.0
147
0.0008202099737533
147
0.0
147
0.0
147
0.0
147
0.0
147
1.0
147
0.0
147
0.0
147
0.0
147
0.0
147
1.0
  0
MATERIAL
  5
55
102
{ACAD_XDICTIONARY
360
56
102
}
102
{ACAD_REACTORS
330
1B
102
}
330
1B
100
AcDbMaterial
  1
Global
 43
0.0208000000566244
 43
0.0
 43
0.0
 43
0.0
 43
0.0
 43
0.0208000000566244
 43
0.0
 43
0.0
 43
0.0
 43
0.0
 43
1.0
 43
0.0
 43
0.0
 43
0.0
 43
0.0
 43
1.0
 49
0.0208000000566244
 49
0.0
 49
0.0
 49
0.0
 49
0.0
 49
0.0208000000566244
 49
0.0
 49
0.0
 49
0.0
 49
0.0
 49
1.0
 49
0.0
 49
0.0
 49
0.0
 49
0.0
 49
1.0
142
0.0208000000566244
142
0.0
142
0.0
142
0.0
142
0.0
142
0.0208000000566244
142
0.0
142
0.0
142
0.0
142
0.0
142
1.0
142
0.0
142
0.0
142
0.0
142
0.0
142
1.0
144
0.0208000000566244
144
0.0
144
0.0
144
0.0
144
0.0
144
0.0208000000566244
144
0.0
144
0.0
144
0.0
144
0.0
144
1.0
144
0.0
144
0.0
144
0.0
144
0.0
144
1.0
1001
ACAD
1070
    -1
1070
     3
1070
     0
1000

1071
        0
1070
     0
  0
MLEADERSTYLE
  5
1D81
102
{ACAD_REACTORS
330
1D80
102
}
330
1D80
100
AcDbMLeaderStyle
170
     2
171
     1
172
     0
 90
        2
 40
0.0
 41
0.0
173
     1
 91
-1056964608
340
14
 92
       -2
290
     1
 42
2.0
291
     1
 43
0.36
  3
Standard
 44
4.0
300

342
11
174
     1
178
     6
175
     1
176
     0
 93
-1056964608
 45
4.0
292
     0
297
     0
 46
4.0
 94
-1056964608
 47
1.0
 49
1.0
140
1.0
293
     1
141
0.0
294
     1
177
     0
142
1.0
295
     0
296
     0
143
0.125
1001
ACAD_MLEADERVER
1070
     2
  0
MLINESTYLE
  5
18
102
{ACAD_REACTORS
330
17
102
}
330
17
100
AcDbMlineStyle
  2
STANDARD
 70
     0
  3

 62
   256
 51
90.0
 52
90.0
 71
     2
 49
0.5
 62
   256
  6
BYLAYER
 49
-0.5
 62
   256
  6
BYLAYER
  0
ACDBPLACEHOLDER
  5
F
102
{ACAD_REACTORS
330
E
102
}
330
E
  0
SCALE
  5
1D5F
102
{ACAD_REACTORS
330
1D5E
102
}
330
1D5E
100
AcDbScale
 70
     0
300
1:1
140
1.0
141
1.0
290
     1
  0
SCALE
  5
1D60
102
{ACAD_REACTORS
330
1D5E
102
}
330
1D5E
100
AcDbScale
 70
     0
300
1:2
140
1.0
141
2.0
290
     0
  0
SCALE
  5
1D61
102
{ACAD_REACTORS
330
1D5E
102
}
330
1D5E
100
AcDbScale
 70
     0
300
1:4
140
1.0
141
4.0
290
     0
  0
SCALE
  5
1D62
102
{ACAD_REACTORS
330
1D5E
102
}
330
1D5E
100
AcDbScale
 70
     0
300
1:5
140
1.0
141
5.0
290
     0
  0
SCALE
  5
1D63
102
{ACAD_REACTORS
330
1D5E
102
}
330
1D5E
100
AcDbScale
 70
     0
300
1:8
140
1.0
141
8.0
290
     0
  0
SCALE
  5
1D64
102
{ACAD_REACTORS
330
1D5E
102
}
330
1D5E
100
AcDbScale
 70
     0
300
1:10
140
1.0
141
10.0
290
     0
  0
SCALE
  5
1D65
102
{ACAD_REACTORS
330
1D5E
102
}
330
1D5E
100
AcDbScale
 70
     0
300
1:16
140
1.0
141
16.0
290
     0
  0
SCALE
  5
1D66
102
{ACAD_REACTORS
330
1D5E
102
}
330
1D5E
100
AcDbScale
 70
     0
300
1:20
140
1.0
141
20.0
290
     0
  0
SCALE
  5
1D67
102
{ACAD_REACTORS
330
1D5E
102
}
330
1D5E
100
AcDbScale
 70
     0
300
1:30
140
1.0
141
30.0
290
     0
  0
SCALE
  5
1D68
102
{ACAD_REACTORS
330
1D5E
102
}
330
1D5E
100
AcDbScale
 70
     0
300
1:40
140
1.0
141
40.0
290
     0
  0
SCALE
  5
1D69
102
{ACAD_REACTORS
330
1D5E
102
}
330
1D5E
100
AcDbScale
 70
     0
300
1:50
140
1.0
141
50.0
290
     0
  0
SCALE
  5
1D6A
102
{ACAD_REACTORS
330
1D5E
102
}
330
1D5E
100
AcDbScale
 70
     0
300
1:100
140
1.0
141
100.0
290
     0
  0
SCALE
  5
1D6B
102
{ACAD_REACTORS
330
1D5E
102
}
330
1D5E
100
AcDbScale
 70
     0
300
2:1
140
2.0
141
1.0
290
     0
  0
SCALE
  5
1D6C
102
{ACAD_REACTORS
330
1D5E
102
}
330
1D5E
100
AcDbScale
 70
     0
300
4:1
140
4.0
141
1.0
290
     0
  0
SCALE
  5
1D6D
102
{ACAD_REACTORS
330
1D5E
102
}
330
1D5E
100
AcDbScale
 70
     0
300
8:1
140
8.0
141
1.0
290
     0
  0
SCALE
  5
1D6E
102
{ACAD_REACTORS
330
1D5E
102
}
330
1D5E
100
AcDbScale
 70
     0
300
10:1
140
10.0
141
1.0
290
     0
  0
SCALE
  5
1D6F
102
{ACAD_REACTORS
330
1D5E
102
}
330
1D5E
100
AcDbScale
 70
     0
300
100:1
140
100.0
141
1.0
290
     0
  0
SCALE
  5
1D70
102
{ACAD_REACTORS
330
1D5E
102
}
330
1D5E
100
AcDbScale
 70
     0
300
1/128" = 1'-0"
140
0.0078125
141
12.0
290
     0
  0
SCALE
  5
1D71
102
{ACAD_REACTORS
330
1D5E
102
}
330
1D5E
100
AcDbScale
 70
     0
300
1/64" = 1'-0"
140
0.015625
141
12.0
290
     0
  0
SCALE
  5
1D72
102
{ACAD_REACTORS
330
1D5E
102
}
330
1D5E
100
AcDbScale
 70
     0
300
1/32" = 1'-0"
140
0.03125
141
12.0
290
     0
  0
SCALE
  5
1D73
102
{ACAD_REACTORS
330
1D5E
102
}
330
1D5E
100
AcDbScale
 70
     0
300
1/16" = 1'-0"
140
0.0625
141
12.0
290
     0
  0
SCALE
  5
1D74
102
{ACAD_REACTORS
330
1D5E
102
}
330
1D5E
100
AcDbScale
 70
     0
300
3/32" = 1'-0"
140
0.09375
141
12.0
290
     0
  0
SCALE
  5
1D75
102
{ACAD_REACTORS
330
1D5E
102
}
330
1D5E
100
AcDbScale
 70
     0
300
1/8" = 1'-0"
140
0.125
141
12.0
290
     0
  0
SCALE
  5
1D76
102
{ACAD_REACTORS
330
1D5E
102
}
330
1D5E
100
AcDbScale
 70
     0
300
3/16" = 1'-0"
140
0.1875
141
12.0
290
     0
  0
SCALE
  5
1D77
102
{ACAD_REACTORS
330
1D5E
102
}
330
1D5E
100
AcDbScale
 70
     0
300
1/4" = 1'-0"
140
0.25
141
12.0
290
     0
  0
SCALE
  5
1D78
102
{ACAD_REACTORS
330
1D5E
102
}
330
1D5E
100
AcDbScale
 70
     0
300
3/8" = 1'-0"
140
0.375
141
12.0
290
     0
  0
SCALE
  5
1D79
102
{ACAD_REACTORS
330
1D5E
102
}
330
1D5E
100
AcDbScale
 70
     0
300
1/2" = 1'-0"
140
0.5
141
12.0
290
     0
  0
SCALE
  5
1D7A
102
{ACAD_REACTORS
330
1D5E
102
}
330
1D5E
100
AcDbScale
 70
     0
300
3/4" = 1'-0"
140
0.75
141
12.0
290
     0
  0
SCALE
  5
1D7B
102
{ACAD_REACTORS
330
1D5E
102
}
330
1D5E
100
AcDbScale
 70
     0
300
1" = 1'-0"
140
1.0
141
12.0
290
     0
  0
SCALE
  5
1D7C
102
{ACAD_REACTORS
330
1D5E
102
}
330
1D5E
100
AcDbScale
 70
     0
300
1-1/2" = 1'-0"
140
1.5
141
12.0
290
     0
  0
SCALE
  5
1D7D
102
{ACAD_REACTORS
330
1D5E
102
}
330
1D5E
100
AcDbScale
 70
     0
300
3" = 1'-0"
140
3.0
141
12.0
290
     0
  0
SCALE
  5
1D7E
102
{ACAD_REACTORS
330
1D5E
102
}
330
1D5E
100
AcDbScale
 70
     0
300
6" = 1'-0"
140
6.0
141
12.0
290
     0
  0
SCALE
  5
1D7F
102
{ACAD_REACTORS
330
1D5E
102
}
330
1D5E
100
AcDbScale
 70
     0
300
1'-0" = 1'-0"
140
12.0
141
12.0
290
     0
  0
TABLESTYLE
  5
1D5D
102
{ACAD_XDICTIONARY
360
1DC7
102
}
102
{ACAD_REACTORS
330
1D5C
102
}
330
1D5C
100
AcDbTableStyle
  3
Standard
 70
     0
 71
     0
 40
1.5
 41
1.5
280
     0
281
     0
  7
Standard
140
4.5
170
     2
 62
     0
 63
     7
283
     0
274
    -2
284
     1
 64
     0
275
    -2
285
     1
 65
     0
276
    -2
286
     1
 66
     0
277
    -2
287
     1
 67
     0
278
    -2
288
     1
 68
     0
279
    -2
289
     1
 69
     0
  7
Standard
140
6.0
170
     5
 62
     0
 63
     7
283
     0
274
    -2
284
     1
 64
     0
275
    -2
285
     1
 65
     0
276
    -2
286
     1
 66
     0
277
    -2
287
     1
 67
     0
278
    -2
288
     1
 68
     0
279
    -2
289
     1
 69
     0
  7
Standard
140
4.5
170
     5
 62
     0
 63
     7
283
     0
274
    -2
284
     1
 64
     0
275
    -2
285
     1
 65
     0
276
    -2
286
     1
 66
     0
277
    -2
287
     1
 67
     0
278
    -2
288
     1
 68
     0
279
    -2
289
     1
 69
     0
  0
VISUALSTYLE
  5
1D51
102
{ACAD_REACTORS
330
1D4B
102
}
330
1D4B
100
AcDbVisualStyle
  2
2dWireframe
 70
     4
 71
     0
 72
     2
 73
     0
 90
        0
 40
-0.6
 41
-30.0
 62
     5
 63
     7
421
 16777215
 74
     1
 91
        4
 64
     7
 65
   257
 75
     1
175
     1
 42
1.0
 92
        0
 66
   257
 43
1.0
 76
     1
 77
     6
 78
     2
 67
     7
 79
     5
170
     0
171
     0
290
     0
174
     0
 93
        1
 44
0.0
173
     0
291
     0
 45
0.0
1001
ACAD
1000
AcDbSavedByObjectVersion
1070
     0
  0
VISUALSTYLE
  5
1D53
102
{ACAD_REACTORS
330
1D4B
102
}
330
1D4B
100
AcDbVisualStyle
  2
3D Hidden
 70
     6
 71
     1
 72
     2
 73
     2
 90
        0
 40
-0.6
 41
-30.0
 62
     5
 63
     7
421
 16777215
 74
     2
 91
        2
 64
     7
 65
   257
 75
     2
175
     1
 42
40.0
 92
        0
 66
   257
 43
1.0
 76
     1
 77
     6
 78
     2
 67
     7
 79
     3
170
     0
171
     0
290
     0
174
     0
 93
        1
 44
0.0
173
     0
291
     0
 45
0.0
1001
ACAD
1000
AcDbSavedByObjectVersion
1070
     0
  0
VISUALSTYLE
  5
1D52
102
{ACAD_REACTORS
330
1D4B
102
}
330
1D4B
100
AcDbVisualStyle
  2
3dWireframe
 70
     5
 71
     0
 72
     2
 73
     0
 90
        0
 40
-0.6
 41
-30.0
 62
     5
 63
     7
421
 16777215
 74
     1
 91
        4
 64
     7
 65
   257
 75
     1
175
     1
 42
1.0
 92
        0
 66
   257
 43
1.0
 76
     1
 77
     6
 78
     2
 67
     7
 79
     5
170
     0
171
     0
290
     0
174
     0
 93
        1
 44
0.0
173
     0
291
     0
 45
0.0
1001
ACAD
1000
AcDbSavedByObjectVersion
1070
     0
  0
VISUALSTYLE
  5
1D50
102
{ACAD_REACTORS
330
1D4B
102
}
330
1D4B
100
AcDbVisualStyle
  2
Basic
 70
     7
 71
     1
 72
     0
 73
     1
 90
        0
 40
-0.6
 41
-30.0
 62
     5
 63
     7
421
 16777215
 74
     0
 91
        4
 64
     7
 65
   257
 75
     1
175
     1
 42
1.0
 92
        8
 66
     7
 43
1.0
 76
     1
 77
     6
 78
     2
 67
     7
 79
     5
170
     0
171
     0
290
     0
174
     0
 93
        1
 44
0.0
173
     0
291
     1
 45
0.0
1001
ACAD
1000
AcDbSavedByObjectVersion
1070
     0
  0
VISUALSTYLE
  5
1D57
102
{ACAD_REACTORS
330
1D4B
102
}
330
1D4B
100
AcDbVisualStyle
  2
Brighten
 70
    12
 71
     2
 72
     2
 73
     0
 90
        0
 40
-0.6
 41
-30.0
 62
     5
 63
     7
421
 16777215
 74
     1
 91
        4
 64
     7
 65
   257
 75
     1
175
     1
 42
1.0
 92
        8
 66
     7
 43
1.0
 76
     1
 77
     6
 78
     2
 67
     7
 79
     5
170
     0
171
     0
290
     0
174
     0
 93
        1
 44
50.0
173
     0
291
     1
 45
0.0
1001
ACAD
1000
AcDbSavedByObjectVersion
1070
     0
  0
VISUALSTYLE
  5
1D5B
102
{ACAD_REACTORS
330
1D4B
102
}
330
1D4B
100
AcDbVisualStyle
  2
ColorChange
 70
    16
 71
     2
 72
     2
 73
     3
 90
        0
 40
-0.6
 41
-30.0
 62
     5
 63
     8
421
  8421504
 74
     1
 91
        4
 64
     7
 65
   257
 75
     1
175
     1
 42
1.0
 92
        8
 66
     8
424
  8421504
 43
1.0
 76
     1
 77
     6
 78
     2
 67
     7
 79
     5
170
     0
171
     0
290
     0
174
     0
 93
        1
 44
0.0
173
     0
291
     1
 45
0.0
1001
ACAD
1000
AcDbSavedByObjectVersion
1070
     0
  0
VISUALSTYLE
  5
1D54
102
{ACAD_REACTORS
330
1D4B
102
}
330
1D4B
100
AcDbVisualStyle
  2
Conceptual
 70
     9
 71
     3
 72
     2
 73
     0
 90
        0
 40
-0.6
 41
-30.0
 62
     5
 63
     7
421
 16777215
 74
     2
 91
        2
 64
     7
 65
   257
 75
     1
175
     1
 42
40.0
 92
        8
 66
     7
 43
1.0
 76
     1
 77
     6
 78
     2
 67
     7
 79
     3
170
     0
171
     0
290
     0
174
     0
 93
        1
 44
0.0
173
     0
291
     0
 45
0.0
1001
ACAD
1000
AcDbSavedByObjectVersion
1070
     0
  0
VISUALSTYLE
  5
1D56
102
{ACAD_REACTORS
330
1D4B
102
}
330
1D4B
100
AcDbVisualStyle
  2
Dim
 70
    11
 71
     2
 72
     2
 73
     0
 90
        0
 40
-0.6
 41
-30.0
 62
     5
 63
     7
421
 16777215
 74
     1
 91
        4
 64
     7
 65
   257
 75
     1
175
     1
 42
1.0
 92
        8
 66
     7
 43
1.0
 76
     1
 77
     6
 78
     2
 67
     7
 79
     5
170
     0
171
     0
290
     0
174
     0
 93
        1
 44
-50.0
173
     0
291
     1
 45
0.0
1001
ACAD
1000
AcDbSavedByObjectVersion
1070
     0
  0
VISUALSTYLE
  5
1D5A
102
{ACAD_REACTORS
330
1D4B
102
}
330
1D4B
100
AcDbVisualStyle
  2
Facepattern
 70
    15
 71
     2
 72
     2
 73
     0
 90
        0
 40
-0.6
 41
-30.0
 62
     5
 63
     7
421
 16777215
 74
     1
 91
        4
 64
     7
 65
   257
 75
     1
175
     1
 42
1.0
 92
        8
 66
     7
 43
1.0
 76
     1
 77
     6
 78
     2
 67
     7
 79
     5
170
     0
171
     0
290
     0
174
     0
 93
        1
 44
0.0
173
     0
291
     1
 45
0.0
1001
ACAD
1000
AcDbSavedByObjectVersion
1070
     0
  0
VISUALSTYLE
  5
1D4C
102
{ACAD_REACTORS
330
1D4B
102
}
330
1D4B
100
AcDbVisualStyle
  2
Flat
 70
     0
 71
     2
 72
     1
 73
     1
 90
        2
 40
-0.6
 41
30.0
 62
     5
 63
     7
421
 16777215
 74
     0
 91
        4
 64
     7
 65
   257
 75
     1
175
     1
 42
1.0
 92
        8
 66
     7
 43
1.0
 76
     1
 77
     6
 78
     2
 67
     7
 79
     5
170
     0
171
     0
290
     0
174
     0
 93
       13
 44
0.0
173
     0
291
     1
 45
0.0
1001
ACAD
1000
AcDbSavedByObjectVersion
1070
     0
  0
VISUALSTYLE
  5
1D4D
102
{ACAD_REACTORS
330
1D4B
102
}
330
1D4B
100
AcDbVisualStyle
  2
FlatWithEdges
 70
     1
 71
     2
 72
     1
 73
     1
 90
        2
 40
-0.6
 41
30.0
 62
     5
 63
     7
421
 16777215
 74
     1
 91
        4
 64
     7
 65
   257
 75
     1
175
     1
 42
1.0
 92
        0
 66
   257
 43
1.0
 76
     1
 77
     6
 78
     2
 67
     7
 79
     5
170
     0
171
     0
290
     0
174
     0
 93
       13
 44
0.0
173
     0
291
     1
 45
0.0
1001
ACAD
1000
AcDbSavedByObjectVersion
1070
     0
  0
VISUALSTYLE
  5
1D4E
102
{ACAD_REACTORS
330
1D4B
102
}
330
1D4B
100
AcDbVisualStyle
  2
Gouraud
 70
     2
 71
     2
 72
     2
 73
     1
 90
        2
 40
-0.6
 41
30.0
 62
     5
 63
     7
421
 16777215
 74
     0
 91
        4
 64
     7
 65
   257
 75
     1
175
     1
 42
1.0
 92
        0
 66
     7
 43
1.0
 76
     1
 77
     6
 78
     2
 67
     7
 79
     5
170
     0
171
     0
290
     0
174
     0
 93
       13
 44
0.0
173
     0
291
     1
 45
0.0
1001
ACAD
1000
AcDbSavedByObjectVersion
1070
     0
  0
VISUALSTYLE
  5
1D4F
102
{ACAD_REACTORS
330
1D4B
102
}
330
1D4B
100
AcDbVisualStyle
  2
GouraudWithEdges
 70
     3
 71
     2
 72
     2
 73
     1
 90
        2
 40
-0.6
 41
30.0
 62
     5
 63
     7
421
 16777215
 74
     1
 91
        4
 64
     7
 65
   257
 75
     1
175
     1
 42
1.0
 92
        0
 66
   257
 43
1.0
 76
     1
 77
     6
 78
     2
 67
     7
 79
     5
170
     0
171
     0
290
     0
174
     0
 93
       13
 44
0.0
173
     0
291
     1
 45
0.0
1001
ACAD
1000
AcDbSavedByObjectVersion
1070
     0
  0
VISUALSTYLE
  5
1D59
102
{ACAD_REACTORS
330
1D4B
102
}
330
1D4B
100
AcDbVisualStyle
  2
Linepattern
 70
    14
 71
     2
 72
     2
 73
     0
 90
        0
 40
-0.6
 41
-30.0
 62
     5
 63
     7
421
 16777215
 74
     1
 91
        4
 64
     7
 65
   257
 75
     7
175
     7
 42
1.0
 92
        8
 66
     7
 43
1.0
 76
     1
 77
     6
 78
     2
 67
     7
 79
     5
170
     0
171
     0
290
     0
174
     0
 93
        1
 44
0.0
173
     0
291
     1
 45
0.0
1001
ACAD
1000
AcDbSavedByObjectVersion
1070
     0
  0
VISUALSTYLE
  5
1D55
102
{ACAD_REACTORS
330
1D4B
102
}
330
1D4B
100
AcDbVisualStyle
  2
Realistic
 70
     8
 71
     2
 72
     2
 73
     0
 90
        0
 40
-0.6
 41
-30.0
 62
     5
 63
     7
421
 16777215
 74
     1
 91
        0
 64
     7
 65
   257
 75
     1
175
     1
 42
1.0
 92
        8
 66
     8
424
  7895160
 43
1.0
 76
     1
 77
     6
 78
     2
 67
     7
 79
     5
170
     0
171
     0
290
     0
174
     0
 93
       13
 44
0.0
173
     0
291
     0
 45
0.0
1001
ACAD
1000
AcDbSavedByObjectVersion
1070
     0
  0
VISUALSTYLE
  5
1D58
102
{ACAD_REACTORS
330
1D4B
102
}
330
1D4B
100
AcDbVisualStyle
  2
Thicken
 70
    13
 71
     2
 72
     2
 73
     0
 90
        0
 40
-0.6
 41
-30.0
 62
     5
 63
     7
421
 16777215
 74
     1
 91
        4
 64
     7
 65
   257
 75
     1
175
     1
 42
1.0
 92
       12
 66
     7
 43
1.0
 76
     1
 77
     6
 78
     2
 67
     7
 79
     5
170
     0
171
     0
290
     0
174
     0
 93
        1
 44
0.0
173
     0
291
     1
 45
0.0
1001
ACAD
1000
AcDbSavedByObjectVersion
1070
     0
  0
DICTIONARYVAR
  5
1DAA
102
{ACAD_REACTORS
330
1DA7
102
}
330
1DA7
100
DictionaryVariables
280
     0
  1
1:1
  0
DICTIONARYVAR
  5
1DA9
102
{ACAD_REACTORS
330
1DA7
102
}
330
1DA7
100
DictionaryVariables
280
     0
  1
STANDARD
  0
DICTIONARYVAR
  5
1DA8
102
{ACAD_REACTORS
330
1DA7
102
}
330
1DA7
100
DictionaryVariables
280
     0
  1
STANDARD
  0
DICTIONARY
  5
1D92
330
1880
100
AcDbDictionary
280
     1
281
     1
  3
ADSK_XREC_LAYOUTTHUMBNAIL
360
1D93
  0
DICTIONARY
  5
1D44
330
1D43
100
AcDbDictionary
280
     1
281
     1
  3
ACAD_XREC_ROUNDTRIP
360
1DCC
  3
BUMPTILE
360
1D46
  3
DIFFUSETILE
360
1D45
  3
OPACITYTILE
360
1D49
  3
REFLECTIONTILE
360
1D48
  3
REFRACTIONTILE
360
1D4A
  3
SPECULARTILE
360
1D47
  0
DICTIONARY
  5
1D3C
330
1D3B
100
AcDbDictionary
280
     1
281
     1
  3
ACAD_XREC_ROUNDTRIP
360
1DCB
  3
BUMPTILE
360
1D3E
  3
DIFFUSETILE
360
1D3D
  3
OPACITYTILE
360
1D41
  3
REFLECTIONTILE
360
1D40
  3
REFRACTIONTILE
360
1D42
  3
SPECULARTILE
360
1D3F
  0
DICTIONARY
  5
56
330
55
100
AcDbDictionary
280
     1
281
     1
  3
ACAD_XREC_ROUNDTRIP
360
1DCA
  3
BUMPTILE
360
58
  3
DIFFUSETILE
360
59
  3
OPACITYTILE
360
5A
  3
REFLECTIONTILE
360
5B
  0
DICTIONARY
  5
1DC7
330
1D5D
100
AcDbDictionary
280
     1
281
     1
  3
ACAD_ROUNDTRIP_2008_TABLESTYLE_CELLSTYLEMAP
360
1DC8
  3
ACAD_XREC_ROUNDTRIP
360
1DCD
  0
XRECORD
  5
1D93
102
{ACAD_REACTORS
330
1D92
102
}
330
1D92
100
AcDbXrecord
280
     1
310
28000000B40000007F00000001000800000000004C59000000000000000000000001000000000000FFFFFF0000000000FFFFFF000000000000000000000000000000000000000000000000000000000000000000330000006600000099000000CC000000FF00000000330000333300006633000099330000CC330000FF3300
310
0000660000336600006666000099660000CC660000FF66000000990000339900006699000099990000CC990000FF99000000CC000033CC000066CC000099CC0000CCCC0000FFCC000000FF000033FF000066FF000099FF0000CCFF0000FFFF000000003300330033006600330099003300CC003300FF003300003333003333
310
33006633330099333300CC333300FF33330000663300336633006666330099663300CC663300FF66330000993300339933006699330099993300CC993300FF99330000CC330033CC330066CC330099CC3300CCCC3300FFCC330000FF330033FF330066FF330099FF3300CCFF3300FFFF330000006600330066006600660099
310
006600CC006600FF00660000336600333366006633660099336600CC336600FF33660000666600336666006666660099666600CC666600FF66660000996600339966006699660099996600CC996600FF99660000CC660033CC660066CC660099CC6600CCCC6600FFCC660000FF660033FF660066FF660099FF6600CCFF6600
310
FFFF660000009900330099006600990099009900CC009900FF00990000339900333399006633990099339900CC339900FF33990000669900336699006666990099669900CC669900FF66990000999900339999006699990099999900CC999900FF99990000CC990033CC990066CC990099CC9900CCCC9900FFCC990000FF99
310
0033FF990066FF990099FF9900CCFF9900FFFF99000000CC003300CC006600CC009900CC00CC00CC00FF00CC000033CC003333CC006633CC009933CC00CC33CC00FF33CC000066CC003366CC006666CC009966CC00CC66CC00FF66CC000099CC003399CC006699CC009999CC00CC99CC00FF99CC0000CCCC0033CCCC0066CC
310
CC0099CCCC00CCCCCC00FFCCCC0000FFCC0033FFCC0066FFCC0099FFCC00CCFFCC00FFFFCC000000FF003300FF006600FF009900FF00CC00FF00FF00FF000033FF003333FF006633FF009933FF00CC33FF00FF33FF000066FF003366FF006666FF009966FF00CC66FF00FF66FF000099FF003399FF006699FF009999FF00CC
310
99FF00FF99FF0000CCFF0033CCFF0066CCFF0099CCFF00CCCCFF00FFCCFF0000FFFF0033FFFF0066FFFF0099FFFF00CCFFFF00FFFFFF00000000000D0D0D001A1A1A00282828003535350043434300505050005D5D5D006B6B6B00787878008686860093939300A1A1A100AEAEAE00BBBBBB00C9C9C900D6D6D600E4E4E400
310
F1F1F100FFFFFF0000000000000000000000000000000000000000000000000000000000000000000000000000000000E2E2E2E2E2E2E2E2E2E2E2E2E2E2E2E2E2E2E2E2E2E2E2E2E2E2E2E2E2E2E2E2E2E2E2E2E2E2E2E2E2E2E2E2E2E2E2E2E2E2E2E2E2E2E2E2E2E2E2E2E2E2E2E2E2E2E2E2E2E2E2E2E2E2E2E2E2E2E2
310
E2E2E2E2E2E2E2E2E2E2E2E2E2E2E2E2E2E2E2E2E2E2E2E2E2E2E2E2E2E2E2E2E2E2E2E2E2E2E2E2E2E2E2E2E2E2E2E2E2E2E2E2E2E2E2E2E2E2E2E2E2E2E2E2E2E2E2E2E2E2E2E2E2E2E2E2E2E2E2E2E2E2E2E2E2E2E2E2E2E2E2E2E2E2E2E2E2E2E2E2E2F5F5F5F5F5F5F5F5F5F5F5F5F5F5F5F5F5F5F5F5F5F5F5F5F5F5
310
F5F5F5F5F5F5F5F5F5F5F5F5F5F5F5F5F5F5F5F5F5F5F5F5F5F5F5F5F5F5F5F5F5F5F5F5F5F5F5F5F5F5F5F5F5F5F5F5F5F5F5F5F5F5F5F5F5F5F5F5F5F5F5F5F5F5F5F5F5F5F5F5F5F5F5F5F5F5F5F5F5F5F5F5F5F5F5F5F5F5F5F5F5F5F5F5F5F5F5F5F5F5F5F5F5F5F5F5F5F5F5F5F5F5F5F5F5F5F5F5F5F5F5F5F5F5F5
310
F5F5F5F5F5F5F5F5F5F5F5F5F5F5F5F5F5F5F5F5F5F5F5F5F5E2E2F5F5F5F5F5F5F5F5F5F5F5F5F5F5F5F5F5F5F5F5F5F5F5F5F5F5F5F5F5F5F5F5F5F5F5F5F5F5F5F5F5F5F5F5F5F5F5F5F5F5F5F5F5F5F5F5F5F5F5F5F5F5F5F5F5F5F5F5F5F5F5F5F5F5F5F5F5F5F5F5F5F5F5F5F5F5F5F5F5F5F5F5F5F5F5F5F5F5F5F5
310
F5F5F5F5F5F5F5F5F5F5F5F5F5F5F5F5F5F5F5F5F5F5F5F5F5F5F5F5F5F5F5F5F5F5F5F5F5F5F5F5F5F5F5F5F5F5F5F5F5F5F5F5F5F5F5F5F5F5F5F5F5F5F5F5F5F5F5F5F5F5F5F5F5F5F5F5F5F5E2E2F5F5E2E2E2E2E2E2E2E2F5F5F5F5F5F5F5F5F5E2E2E2E2E2E2E2E2E2E2E2E2E2E2E2E2F5F5F5F5F5F5F5F5F5E2E2E2
310
E2E2E2E2E2E2E2E2E2E2E2E2E2F5F5F5F5F5F5F5F5E2E2E2E2E2E2E2E2E2E2E2E2E2E2E2E2F5F5F5F5F5F5F5F5F5E2E2E2E2E2E2E2E2E2E2E2E2E2E2E2E2F5F5F5F5F5F5F5F5E2E2E2E2E2E2E2E2E2E2E2E2E2E2E2E2F5F5F5F5F5F5F5F5F5E2E2E2E2E2E2E2E2E2E2E2E2E2E2E2E2F5F5F5F5F5F5F5F5F5E2E2E2E2E2E2E2
310
E2F5F5F5E2E2F5F5E2F5F5F5F5F5F5F5F5F5F5F5F5F5F5F5F5F5F5F5F5F5F5F5F5F5F5F5F5F5F5F5F5F5F5F5F5F5F5F5F5F5F5F5F5F5F5F5F5F5F5F5F5F5F5F5F5F5F5F5F5F5F5F5F5F5F5F5F5F5F5F5F5F5F5F5F5F5F5F5F5F5F5F5F5F5F5F5F5F5F5F5F5F5F5F5F5F5F5F5F5F5F5F5F5F5F5F5F5F5F5F5F5F5F5F5F5F5F5
310
F5F5F5F5F5F5F5F5F5F5F5F5F5F5F5F5F5F5F5F5F5F5F5F5F5F5F5F5F5F5F5F5F5F5F5F5F5F5F5F5F5F5F5F5F5F5F5F5F5F5F5F5F5E2F5F5F5E2E2F5F5E2F5F5F5F5F5F5F5F5F5F5F5F5F5F5F5F5F5F5F5F5F5F5F5F5F5F5F5F5F5F5F5F5F5F5F5F5F5F5F5F5F5F5F5F5F5F5F5F5F5F5F5F5F5F5F5F5F5F5F5F5F5F5F5F5F5
310
F5F5F5F5F5F5F5F5F5F5F5F5F5F5F5F5F5F5F5F5F5F5F5F5F5F5F5F5F5F5F5F5F5F5F5F5F5F5F5F5F5F5F5F5F5F5F5F5F5F5F5F5F5F5F5F5F5F5F5F5F5F5F5F5F5F5F5F5F5F5F5F5F5F5F5F5F5F5F5F5F5F5F5F5F5F5F5F5F5F5F5F5F5F5F5F5F5F5F5F5F5F5F5F5F5F5E2F5F5F5E2E2F5F5E2C3C3C3C3C3C3C3C3C3C3C3C3
310
C3C3C3C3C3C3C3C3C3C3C3C3C3C3C3C3C3C3C3C3C3C3C3C3C3C3C3C3C3C3C3C3C3C3C3C3C3C3C3C3C3C3C3C3C3C3C3C3C3C3C3C3C3C3C3C3C3C3C3C3C3C3C3C3C3C3C3C3C3C3C3C3C3C3C3C3C3C3C3C3C3C3C3C3C3C3C3C3C3C3C3C3C3C3C3C3C3C3C3C3C3C3C3C3C3C3C3C3C3C3C3C3C3C3C3C3C3C3C3C3C3C3C3C3C3C3C3
310
C3C3C3C3C3C3C3C3C3C3C3C3C3C3C3C3C3C3C3C3C3C3C3C3C3C3C3C3C3C3C3C3E2F5F5F5E2E2F5F5E2C3F5F5F5F5F5F5F5F5F5F5F5F5F5F5F5F5F5F5F5F5F5F5F5F5F5F5F5F5F5F5F5F5F5F5F5F5F5F5F5F5F5F5F5F5F5F5F5F5F5F5F5F5F5F5F5F5F5F5F5F5F5F5F5F5F5F5F5F5F5F5F5F5F5F5F5F5F5F5F5F5F5F5F5F5F5
310
F5F5F5F5F5F5F5F5F5F5F5F5F5F5F5F5F5F5F5F5F5F5F5F5F5F5F5F5F5F5F5F5F5F5F5F5F5F5F5F5F5F5F5F5F5F5F5F5F5F5F5F5F5F5F5F5F5F5F5F5F5F5F5F5F5F5F5F5F5F5F5F5F5F5F5F5F5F5F5F5F5F5F5F5C3E2F5F5F5E2E2F5F5E2C3F5F5F5F5F5F5F5F5F5F5F5F5F5F5F5F5F5F5F5F5F5F5F5F5F5F5F5F5F5F5F5F5
310
F5F5F5F5F5F5F5F5F5F5F5F5F5F5F5F5F5F5F5F5F5F5F5F5F5F5F5F5F5F5F5F5F5F5F5F5F5F5F5F5F5F5F5F5F5F5F5F5F5F5F5F5F5F5F5F5F5F5F5F5F5F5F5F5F5F5F5F5F5F5F5F5F5F5F5F5F5F5F5F5F5F5F5F5F5F5F5F5F5F5F5F5F5F5F5F5F5F5F5F5F5F5F5F5F5F5F5F5F5F5F5F5F5F5F5F5F5F5F5F5F5F5F5F5F5F5F5
310
F5F5F5F5F5F5F5F5F5F5C3E2F5F5F5E2E2F5F5E2C3F5F5F5F5F5F5F5F5F5F5F5F5F5F5F5F5F5F5F5F5F5F5F5F5F5F5F5F5F5F5F5F5F5F5F5F5F5F5F5F5F5F5F5F5F5F5F5F5F5F5F5F5F5F5F5F5F5F5F5F5F5F5F5F5F5F5F5F5F5F5F5F5F5F5F5F5F5F5F5F5F5F5F5F5F5F5F5F5F5F5F5F5F5F5F5F5F5F5F5F5F5F5F5F5F5F5
310
F5F5F5E2E2E2E2E2E2E2E2E2E2E2E2E2E2E2E2E2E2E2E2E2E2E2E2E2E2E2E2E2E2E2E2E2E2E2E2E2E2E2E2E2E2E2E2E2E2E2E2E2E2E2E2E2E2E2E2E2E2E2F5C3E2F5F5F5E2E2F5F5E2C3F5F5F5F5F5F5F5F5F5F5F5F5F5F5F5F5F5F5F5F5F5F5F5F5F5F5F5F5F5F5F5F5F5F5F5F5F5F5F5F5F5F5F5F5F5F5F5F5F5F5F5F5F5
310
F5F5F5F5F5F5F5F5F5F5F5F5F5F5F5F5F5F5F5F5F5F5F5F5F5F5F5F5F5F5F5F5F5F5F5F5F5F5F5F5F5F5F5F5F5F5F5F5F5F5F5F5F5F5F5F5E2F5F5F5F5F5F5F528282828282828F52828282828282828282828282828282828282828282828282828F528282828F52828282828F5F5F5F5F5E2F5C3E2F5F5F5E2E2F5F5F5C3
310
F5F5F5F5F5F5F5F5F5F5F5F5F5F5F5F5F5F5F5F5F5F5F5F5F5F5F5F5F5F5F5F5F5F5F5F5F5F5F5F5F5F5F5F5F5F5F5F5F5F5F5F5F5F5F5F5F5F5F5F5F5F5F5F5F5F5F5F5F5F5F5F5F5F5F5F5F5F5F5F5F5F5F5F5F5F5F5F5F5F5F5F5F5F5F5F5F5F5F5F5F5F5F5F5F5F5F5F5F5E2F5F5F5F5F5F5F528282828282828282828
310
2828282828282828282828282828F528282828282828F528F5282828F5F528282828F5F5F5F5F5F5E2F5C3F5F5F5F5E2E2F5F5F5C3F5F5F5F5F5F5F5F5F5F5F5F5F5F5F5F5F5F5F5F5F5F5F5F5F5F5F5F5F5F5F5F5F5F5F5F5F5F5F5F5F5F5F5F5F5F5F5F5F5F5F5F5F5F5F5F5F5F5F5F5F5F5F5F5F5F5F5F5F5F5F5F5F5F5
310
F5F5F5F5F5F5F5F5F5F5F5F5F5F5F5F5F5F5F5F5F5F5F5F5F5F5F5F5F5F5F5F5F5F5F5E2F5F5F5F5F5F5282828282828282828F5282828282828282828F528282828282828F5F528282828F528F5282828F5F5282828F5F5F5F5F5F5F5E2F5C3F5F5F5F5E2E2F5F5F5C3F5F5F5F5F5F5F5F5F5F5F5F5F5F5F5F5F5F5F5F5F5
310
F5F5F5F5F5F5F5F5F5F5F5F5F5F5F5F5F5F5F5F5F5F5F5F5F5F5F5F5F5F5F5F5F5F5F5F5F5F5F5F5F5F5F5F5F5F5F5F5F5F5F5F5F5F5F5F5F5F5F5F5F5F5F5F5F5F5F5F5F5F5F5F5F5F5F5F5F5F5F5F5F5F5F5F5F5F5F5F5E2E2E2E2E2E2E2E2E2E2E2E2E2E2E2E2E2E2E2E2E2E2E2E2E2E2E2E2E2E2E2E2E2E2E2E2E2E2E2
310
E2E2E2E2E2E2E2E2E2E2E2E2E2E2E2E2E2E2E2E2F5C3F5F5F5F5E2E2F5F5F5C3F5F5F5F5F5F5F5F5F5F5F5F5F5F5F5F5F5F5F5F5F5F5F5F5F5F5F5F5F5F5F5F5F5F5F5F5F5F5F5F5F5F5F5F5F5F5F5F5F5F5F5F5F5F5F5F5F5F5F5F5F5F5F5F5F5F5F5F5F5F5F5F5F5F5F5F5F5F5F5F5F5F5F5F5F5F5F5F5F5F5F5F5F5F5F5
310
F5F5F5F5F5F5F5F5F5F5F5F5F5F5E2F52828F52828F5E2F5F5F52828282828F5F528F5282828F5F52828282828282828282828F5F52828F5F5F5F5F5F5F5F5F5F5F5F5F5F5F5F5F5E2F5C3F5F5F5F5E2E2F5F5F5C3F5F5F5F5F5F5F5F5F5F5F5F5F5F5F5F5F5F5F5F5F5F5F5F5F5F5F5F5F5F5F5F5F5F5F5F5F5F5F5F5F5F5
310
F5F5F5F5F5F5F5F5F5F5F5F5F5F5F5F5F5F5F5F5F5F5F5F5F5F5F5F5F5F5F5F5F5F5F5F5F5F5F5F5F5F5F5F5F5F5F5F5F5F5F5F5F5F5F5F5F5F5F5F5F5F5F5F5F5F5F5E2F52828282828F5E2F5F5F52828282828282828282828282828282828282828F52828F5282828F528F5F5F5F5F5F5F5F5F5F5F5F5F5F5F5F5F5E2F5
310
C3F5F5F5F5E2E2F5F5F5C3F5F5F5F5F5F5F5F5F5F5F5F5F5F5F5F5F5F5F5F5F5F5F5F5F5F5F5F5F5F5F5F5F5F5F5F5F5F5F5F5F5F5F5F5F5F5F5F5F5F5F5F5F5F5F5F5F5F5F5F5F5F5F5F5F5F5F5F5F5F5F5F5F5F5F5F5F5F5F5F5F5F5F5F5F5F5F5F5F5F5F5F5F5F5F5F5F5F5F5F5F5F5F5F5F5F5F5F5F5E2F52828282828
310
F5E2F5F5282828282828F5F52828282828F5F52828282828282828282828F5F52828F5F5F5F5F5F5F5F5F5F5F5F5F5F5F5F5F5E2F5C3F5F5F5F5E2E2F5F5F5C3F5F5F5F5F5F5F5F5F5F5F5F5F5F5F5F5F5F5F5F5F5F5F5F5F5F5F5F5F5F5F5F5F5F5F5F5F5F5F5F5F5F5F5F5F5F5F5F5F5F5F5F5F5F5F5F5F5F5F5F5F5F5F5
310
F5F5F5F5F5F5F5F5F5F5F5F5F5F5F5F5F5F5F5F5F5F5F5F5F5F5F5F5F5F5F5F5F5F5F5F5F5F5F5F5F5F5F5F5F5F5E2E2E2E2E2E2E2E2E2E2E2E2E2E2E2E2E2E2E2E2E2E2E2E2E2E2E2E2E2E2E2E2E2E2E2E2E2E2E2E2E2E2E2E2E2E2E2E2E2E2E2E2E2E2E2E2E2E2E2F5C3F5F5F5F5E2E2F5F5F5C3F5F5F5F5F5F5F5F5F5F5
310
F5F5F5F5F5F5F5F5F5F5F5F5F5F5F5F5F5F5F5F5F5F5F5F5F5F5F5F5F5F5F5F5F5F5F5F5F5F5F5F5F5F5F5F5F5F5F5F5F5F5F5F5F5F5F5F5F5F5F5F5F5F5F5F5F5F5F5F5F5F5F5F5F5F5F5F5F5F5F5F5F5F5F5F5F5F5F5F5F5F5F5F5F5F5F5F5F5F5F5E2F5282828F528F5E2F5F5F5F528F52828F5F5F528282828F5F5F528
310
F5282828282828F5F5F5F5F5F5E2F5F528282828F5E2F5282828282828F5E2F5C3F5F5F5F5E2E2F5F5F5C3F5F5F5F5F5F5F5F5F5F5F5F5F5F5F5F5F5F5F5F5F5F5F5F5F5F5F5F5F5F5F5F5F5F5F5F5F5F5F5F5F5F5F5F5F5F5F5F5F5F5F5F5F5F5F5F5F5F5F5F5F5F5F5F5F5F5F5F5F5F5F5F5F5F5F5F5F5F5F5F5F5F5F5F5
310
F5F5F5F5F5F5F5F5F5F5F5F5F5F5F5F5F5F5F5F5F5F5F5F5F5E2F52828282828F5E2F5F5F5F5F52828F52828282828282828282828F52828F5282828F5F5F5F5F5F5E2F52828282828F5E2F5282828282828F5E2F5C3F5F5F5F5E2E2F5F5E2C3F5F5F5F5F5F5F5F5F5F5F5F5F5F5F5F5F5F5F5F5F5F5F5F5F5F5F5F5F5F5F5
310
F5F5F5F5F5F5F5F5F5F5F5F5F5F5F5F5F5F5F5F5F5F5F5F5F5F5F5F5F5F5F5F5F5F5F5F5F5F5F5F5F5F5F5F5F5F5F5F5F5F5F5F5F5F5F5F5F5F5F5F5F5F5F5F5F5F5F5F5F5F5F5F5F5F5F5F5F5F5E2F52828282828F5E2F5F5F5F5F528282828F5F5F5282828F5F5F528F528282828F528F5F5F5F5F5F5E2F52828282828F5
310
E2F5282828282828F5E2F5C3E2F5F5F5E2E2F5F5E2C3F5F5F5F5F5F5F5F5F5F5F5F5F5F5F5F5F5F5F5F5F5F5F5F5F5F5F5F5F5F5F5F5F5F5F5F5F5F5F5F5F5F5F5F5F5F5F5F5F5F5F5F5F5F5F5F5F5F5F5F5F5F5F5F5F5F5F5F5F5F5F5F5F5F5F5F5F5F5F5F5F5F5F5F5F5F5F5F5F5F5F5F5F5F5F5F5F5F5F5F5F5F5F5F5F5
310
F5F5F5F5E2E2E2E2E2E2E2E2E2E2E2E2E2E2E2E2E2E2E2E2E2E2E2E2E2E2E2E2E2E2E2E2E2E2E2E2E2E2E2E2E2E2E2E2E2E2E2E2E2E2E2E2E2E2E2E2E2E2E2F5C3E2F5F5F5E2E2F5F5E2C3F5F5F5F5F5F5F5F5F5F5F5F5F5F5F5F5F5F5F5F5F5F5F5F5F5F5F5F5F5F5F5F5F5F5F5F5F5F5F5F5F5F5F5F5F5F5F5F5F5F5F5F5
310
F5F5F5F5F5F5F5F5F5F5F5F5F5F5F5F5F5F5F5F5F5F5F5F5F5F5F5F5F5F5F5F5F5F5F5F5F5F5F5F5F5F5F5F5F5F5F5F5F5F5F5F5F5F5F5F5F5E2F52828282828F5E2F528282828282828282828282828F5F528F5282828F5282828F5282828F5F5F5E2F528F5282828F5E2F5F5F5F5F5F5F5F5E2F5C3E2F5F5F5E2E2F5F5E2
310
C3F5F5F5F5F5F5F5F5F5F5F5F5F5F5F5F5F5F5F5F5F5F5F5F5F5F5F5F5F5F5F5F5F5F5F5F5F5F5F5F5F5F5F5F5F5F5F5F5F5F5F5F5F5F5F5F5F5F5F5F5F5F5F5F5F5F5F5F5F5F5F5F5F5F5F5F5F5F5F5F5F5F5F5F5F5F5F5F5F5F5F5F5F5F5F5F5F5F5F5F5F5F5F5F5F5F5F5F5F5E2F52828282828F5E2F528282828282828
310
282828282828F5F5F5282828282828282828282828F5F5F5E2F52828282828F5E2F5F5F5F5F5F5F5F5E2F5C3E2F5F5F5E2E2F5F5E2C3F5F5F5F5F5F5F5F5F5F5F5F5F5F5F5F5F5F5F5F5F5F5F5F5F5F5F5F5F5F5F5F5F5F5F5F5F5F5F5F5F5F5F5F5F5F5F5F5F5F5F5F5F5F5F5F5F5F5F5F5F5F5F5F5F5F5F5F5F5F5F5F5F5
310
F5F5F5F5F5F5F5F5F5F5F5F5F5F5F5F5F5F5F5F5F5F5F5F5F5F5F5F5F5F5F5F5F5F5F5F5E2F52828282828F5E2F528282828282828282828282828F5F528282828282828282828282828F5F5F5E2F52828282828F5E2F5282828282828F5E2F5C3E2F5F5F5E2E2F5F5E2C3F5F5F5F5F5F5F5F5F5F5F5F5F5F5F5F5F5F5F5F5
310
F5F5F5F5F5F5F5F5F5F5F5F5F5F5F5F5F5F5F5F5F5F5F5F5F5F5F5F5F5F5F5F5F5F5F5F5F5F5F5F5F5F5F5F5F5F5F5F5F5F5F5F5F5F5F5F5F5F5F5F5F5F5F5F5F5F5F5F5F5F5F5F5F5F5F5F5F5F5F5F5F5F5F5F5F5F5F5F5F5E2F528F5F528F5F5E2F528F5F5F52828F52828F5282828F5F5F52828F5F528F5282828F5F5F5
310
F5F5F5E2F5F5F5F528F5F5E2F5F5F5F5F5F5F5F5E2F5C3E2F5F5F5E2E2F5F5E2C3F5F5F5F5F5F5F5F5F5F5F5F5F5F5F5F5F5F5F5F5F5F5F5F5F5F5F5F5F5F5F5F5F5F5F5F5F5F5F5F5F5F5F5F5F5F5F5F5F5F5F5F5F5F5F5F5F5F5F5F5F5F5F5F5F5F5F5F5F5F5F5F5F5F5F5F5F5F5F5F5F5F5F5F5F5F5F5F5F5F5F5F5F5F5
310
F5F5F5F5F5F5F5F5F5F5F5F5F5F5F5E2E2E2E2E2E2E2E2E2E2E2E2E2E2E2E2E2E2E2E2E2E2E2E2E2E2E2E2E2E2E2E2E2E2E2E2E2E2E2E2E2E2E2E2E2E2E2E2E2E2E2E2E2E2E2E2E2E2E2F5C3E2F5F5F5E2E2F5F5E2C3F5F5F5F5F5F5F5F5F5F5F5F5F5F5F5F5F5F5F5F5F5F5F5F5F5F5F5F5F5F5F5F5F5F5F5F5F5F5F5F5F5
310
F5F5F5F5F5F5F5F5F5F5F5F5F5F5F5F5F5F5F5F5F5F5F5F5F5F5F5F5F5F5F5F5F5F5F5F5F5F5F5F5F5F5F5F5F5F5F5F5F5F5F5F5F5F5F5F5F5F5F5F5F5F5F5F5F5F5F5F5F5F5F5F5F5F5F5F5F5F5F5F5F5F5F5F5F5F5F5F5F5F5F5F5F5F5F5F5F5F5F5F5F5F5F5F5F5F5F5F5F5F5F5F5F5F5F5F5F5F5F5F5F5F5F5F5F5F5F5
310
F5C3E2F5F5F5E2E2F5F5E2C3F5F5F5F5F5F5F5F5F5F5F5F5F5F5F5F5F5F5F5F5F5F5F5F5F5F5F5F5F5F5F5F5F5F5F5F5F5F5F5F5F5F5F5F5F5F5F5F5F5F5F5F5F5F5F5F5F5F5F5F5F5F5F5F5F5F5F5F5F5F5F5F5F5F5F5F5F5F5F5F5F5F5F5F5F5F5F5F5F5F5F5F5F5F5F5F5F5F5F5F5F5F5F5F5F5F5F5F5F5F5F5F5F5F5F5
310
F5F5F5F5F5F5F5F5F5F5F5F5F5F5F5F5F5F5F5F5F5F5F5F5F5F5F5F5F5F5F5F5F5F5F5F5F5F5F5F5F5F5F5F5F5F5F5F5F5F5F5F5F5F5C3E2F5F5F5E2E2F5F5E2C3F5F5F5F5F5F5F5F5F5F5F5F5F5F5F5F5F5F5F5F5F5F5F5F5F5F5F5F5F5F5F5F5F5F5F5F5F5F5F5F5F5F5F5F5F5F5F5F5F5F5F5F5F5F5F5F5F5F5F5F5F5F5
310
F5F5F5F5F5F5F5F5F5F5F5F5F5F5F5F5F5F5F5F5F5F5F5F5F5F5F5F5F5F5F5F5F5F5F5F5F5F5F5F5F5F5F5F5F5F5F5F5F5F5F5F5F5F5F5F5F5F5F5F5F5F5F5F5F5F5F5F5F5F5F5F5F5F5F5F5F5F5F5F5F5F5F5F5F5F5F5F5F5F5F5F5F5F5F5F5F5F5F5F5F5F5F5F5F5F5F5C3E2F5F5F5E2E2F5F5E2C3F5F5F5F5F5F5F5F5F5
310
F5F5F5F5F5F5F5F5F5F5F5F5F5F5F5F5F5F5F5F5F5F5F5F5F5F5F5F5F5F5F5F5F5F5F5F5F5F5F5F5F5F5F5F5F5F5F5F5F5F5F5F5F5F5F5F5F5F5F5F5F5F5F5F5F5F5F5F5F5F5F5F5F5F5F5F5F5F5F5F5F5F5F5F5F5F5F5F5F5F5F5F5F5F5F5F5F5F5F5F5F5F5F5F5F5F5F5F5F5F5F5F5F5F5F5F5F5F5F5F5F5F5F5F5F5F5F5
310
F5F5F5F5F5F5F5F5F5F5F5F5F5F5F5F5F5F5F5F5F5F5F5F5F5F5F5F5F5F5F5F5F5C3E2F5F5F5E2E2F5F5E2C3F5F5F5F5F5F5F5F5F5F5F5F5F5F5F5F5F5F5F5F5F5F5F5F5F5F5F5F5F5F5F5F5F5F5F5F5F5F5F5F5F5F5F5F5F5F5F5F5F5F5F5F5F5F5F5F5F5F5F5F5F5F5F5F5F5F5F5F5F5F5F5F5F5F5F5F5F5F5F5F5F5F5F5
310
F5F5F5F5F5F5F5F5F5F5F5F5F5F5F5F5F5F5F5F5F5F5F5F5F5F5F5F5F5F5F5F5F5F5F5F5F5F5F5F5F5F5F5F5F5F5F5F5F5F5F5F5F5F5F5F5F5F5F5F5F5F5F5F5F5F5F5F5F5F5F5F5F5F5F5F5F5F5F5F5F5F5F5F5F5F5C3E2F5F5F5E2E2F5F5E2C3F5F5F5F5F5F5F5F5F5F5F5F5F5F5F5F5F5F5F5F5F5F5E2E2E2E2E2E2E2E2
310
E2E2E2E2E2E2E2E2E2E2E2E2E2E2E2E2E2E2F5F5F5F5F5F5F5F5F5F5F5F5F5F5F5F5F5F5F5F5F5F5F5F5F5F5F5F5F5F5F5F5F5F5F5F5F5F5F5F5F5F5F5F5F5F5F5F5F5F5F5F5F5F5F5F5F5F5F5F5F5F5F5F5F5F5F5F5F5F5F5F5F5F5F5F5F5F5F5F5F5F5F5F5F5F5F5F5F5F5F5F5F5F5F5F5F5F5F5F5F5F5F5F5F5F5F5F5F5
310
F5F5F5F5F5F5F5F5F5F5F5F5C3E2F5F5F5E2E2F5F5E2C3F5F5F5F5F5F5F5F5F5F5F5F5F5F5F5F5F5F5F5F5F5F5E2F5F5F5F5F5F5F5F5F5F5F5E2E2E2F5F5F5F5F5F5F5F5F5F5E2F5F5F5F5F5F5F5F5F5F5F5F5F5F5F5F5F5F5F5F5F5F5F5F5F5F5F5F5F5F5F5F5F5F5F5F5F5F5F5F5F5F5F5F5F5F5F5F5F5F5F5F5F5F5F5F5
310
F5F5F5F5F5F5F5F5F5F5F5F5F5F5F5F5F5F5F5F5F5F5F5F5F5F5F5F5F5F5F5F5F5F5F5F5F5F5F5F5F5F5F5F5F5F5F5F5F5F5F5F5F5F5F5F5F5F5F5F5F5F5F5F5F5C3E2F5F5F5E2E2F5F5E2C3F5F5F5F5F5F5F5F5F5F5F5F5F5F5F5F5F5F5F5F5F5F5E2E2E2E2E2E2E2E2E2E2E2E2E2E2E2E2E2E2E2E2E2E2E2E2E2E2F5F5F5
310
F5F5F5F5F5F5F5F5F5F5F5F5F5F5F5F5F5F5F5F5F5F5F5F5F5F5F5F5F5F5F5F5F5F5F5F5F5F5F5F5F5F5F5F5F5F5F5F5F5F5F5F5F5F5F5F5F5F5F5F5F5F5F5F5F5F5F5F5F5F5F5F5F5F5F5F5F5F5F5F5F5F5F5F5F5F5F5F5F5F5F5F5F5F5F5F5F5F5F5F5F5F5F5F5F5F5F5F5F5F5F5F5F5F5F5F5F5F5C3E2F5F5F5E2E2F5F5
310
F5C3F5F5F5F5F5F5F5F5F5F5F5F5F5F5F5F5F5F5F5F5F5F5E2E2E2E2E2E2E2E2E2E2E2E2E2E2E2E2E2E2E2E2E2E2E2E2E2E2F5F5F5F5F5F5F5F5F5F5F5F5F5F5F5F5F5F5F5F5F5F5F5F5F5F5F5F5F5F5F5F5F5F5F5F5F5F5F5F5F5F5F5F5F5F5F5F5F5F5F5F5F5F5F5F5F5F5F5F5F5F5F5F5F5F5F5F5F5F5F5F5F5F5F5F5F5
310
F5F5F5F5F5F5F5F5F5F5F5F5F5F5F5F5F5F5F5F5F5F5F5F5F5F5F5F5F5F5F5F5F5F5F5F5F5F5F5F5F5F5F5F5C3F5F5F5F5E2E2F5F5F5C3F5F5F5F5F5F5F5F5F5F5F5F5F5F5F5F5F5F5F5F5F5F5E2E2F5F5F5F5F5F5F5F5F5F5F5F5F5F5F5F5F5F5F5F5F5F5F5E2F5F5F5F5F5F5F5F5F5F5F5F5F5F5F5F5F5F5F5F5F5F5F5F5
310
F5F5F5F5F5F5F5F5F5F5F5F5F5F5F5F5F5F5F5F5F5F5F5F5F5F5F5F5F5F5F5F5F5F5F5F5F5F5F5F5F5F5F5F5F5F5F5F5F5F5F5F5F5F5F5F5F5F5F5F5F5F5F5F5F5F5F5F5F5F5F5F5F5F5F5F5F5F5F5F5F5F5F5F5F5F5F5F5F5F5F5F5F5F5F5F5F5C3F5F5F5F5E2E2F5F5F5C3F5F5F5F5F5F5F5F5F5F5F5F5F5F5F5F5F5F5F5
310
F5F5F5E2E2F5F5F5F5F5F5F5F5F5F5F5F5F5F5F5F5F5F5F5F5F5F5F5E2F5F5F5F5F5F5F5F5F5F5F5F5F5F5F5F5F5F5F5F5F5F5F5F5F5F5F5F5F5F5F5F5F5F5F5F5F5F5F5F5F5F5F5F5F5F5F5F5F5F5F5F5F5F5F5F5F5F5F5F5F5F5F5F5F5F5F5F5F5F5F5F5F5F5F5F5F5F5F5F5F5F5F5F5F5F5F5F5F5F5F5F5F5F5F5F5F5F5
310
F5F5F5F5F5F5F5F5F5F5F5F5F5F5F5F5F5F5F5F5F5F5F5C3F5F5F5F5E2E2F5F5F5C3F5F5F5F5F5F5F5F5F5F5F5F5F5F5F5F5F5F5F5F5F5F5E2E2F5F5F5F5F5F5F5F5F5F5F5F5F5F5F5F5F5F5F5F5F5F5F5E2F5F5F5F5F5F5F5F5F5F5F5F5F5F5F5F5F5F5F5F5F5F5F5F5F5F5F5F5F5F5F5F5F5F5F5F5F5F5F5F5F5F5F5F5F5
310
F5F5F5F5F5F5F5F5F5F5F5F5F5F5F5F5F5F5F5F5F5F5F5F5F5F5F5F5F5F5F5F5F5F5F5F5F5F5F5F5F5F5F5F5F5F5F5F5F5F5F5F5F5F5F5F5F5F5F5F5F5F5F5F5F5F5F5F5F5F5F5F5F5F5F5F5C3F5F5F5F5E2E2F5F5F5C3F5F5F5F5F5F5F5F5F5F5F5F5F5F5F5F5F5F5F5F5F5F5E2E2F5F5F5F5F5F5F5F5F5F5F5F5F5F5F5F5
310
F5F5F5F5F5F5F5E2F5F5F5F5F5F5F5F5F5F5F5F5F5F5F5F5F5F5F5F5F5F5F5F5F5F5F5F5F5F5F5F5F5F5F5F5F5F5F5F5F5F5F5F5F5F5F5F5F5F5F5F5F5F5F5F5F5F5F5F5F5F5F5F5F5F5F5F5F5F5F5F5F5F5F5F5F5F5F5F5F5F5F5F5F5F5F5F5F5F5F5F5F5F5F5F5F5F5F5F5F5F5F5F5F5F5F5F5F5F5F5F5F5F5F5F5F5F5F5
310
F5F5C3F5F5F5F5E2E2F5F5F5C3F5F5F5F5F5F5F5F5F5F5F5F5F5F5F5F5F5F5F5F5F5F5E2E2E2E2E2E2E2E2E2E2E2E2E2E2E2E2E2E2E2E2E2E2E2E2E2E2F5F5F5F5F5F5F5F5F5F5F5F5F5F5F5F5F5F5F5F5F5F5F5F5F5F5F5F5F5F5F5F5F5F5F5F5F5F5F5F5F5F5F5F5F5F5F5F5F5F5F5F5F5F5F5F5F5F5F5E2E2E2E2E2E2E2
310
E2E2E2E2E2E2E2E2E2E2E2E2E2E2E2E2E2E2E2E2E2E2E2E2E2E2E2E2E2E2E2E2E2E2E2E2E2E2E2E2E2E2E2E2E2E2E2E2E2E2E2F5F5F5F5C3F5F5F5F5E2E2F5F5F5C3F5F5F5F5F5F5F5F5F5F5F5F5F5F5F5F5F5F5F5F5F5F5E2F5F5F5F5F5F5F5F5F5F5F5F5F5F5F5F5F5F5F5F5F5F5F5F5E2F5F5F5F5F5F5F5F5F5F5F5F5F5
310
F5F5F5F5F5F5F5F5F5F5F5F5F5F5F5F5F5F5F5F5F5F5F5F5F5F5F5F5F5F5F5F5F5F5F5F5F5F5F5F5F5F5F5F5F5F5E2F5DCDCDCDCDCDCDCF5F5DCF5F5DCDCDCDCDCDCDCDCDCDCDCDCDCDCF5F5F5F5F5F5F5F5F5F5F5F5F5F5F5F5F5F5F5F5F5F5F5F5F5F5F5F5F5E2F5F5F5F5C3F5F5F5F5E2E2F5F5F5C3F5F5F5F5F5F5F5F5
310
F5F5F5F5F5F5F5F5F5F5F5F5F5F5E2F5F5F5F5F5F5F5F5F5F5F5F5F5F5F5F5F5F5F5F5F5F5F5F5E2F5F5F5F5F5F5F5F5F5F5F5F5F5F5F5F5F5F5F5F5F5F5F5F5F5F5F5F5F5F5F5F5F5F5F5F5F5F5F5F5F5F5F5F5F5F5F5F5F5F5F5F5F5F5F5F5F5F5F5E2E2E2E2E2E2E2E2E2E2E2E2E2E2E2E2E2E2E2E2E2E2E2E2E2E2E2E2
310
E2E2E2E2E2E2E2E2E2E2E2E2E2E2E2E2E2E2E2E2E2E2E2E2E2E2E2E2E2E2F5F5F5F5C3F5F5F5F5E2E2F5F5F5C3F5F5F5F5F5F5F5F5F5F5F5F5F5F5F5F5F5F5F5F5F5F5E2E2E2E2E2E2E2E2E2E2E2E2E2E2E2E2E2E2E2E2E2E2E2E2E2E2F5F5F5F5F5F5F5F5F5F5F5F5F5F5F5F5F5F5F5F5F5F5F5F5F5F5F5F5F5F5F5F5F5F5
310
F5F5F5F5F5F5F5F5F5F5F5F5F5F5F5F5F5F5F5F5F5F5F5F5F5E2F5DCDCDCDCF5F5DCF5DCDCDCDCDCDCDCDCF5F5F5F5F5F5F5F5F5F5F5F5F5F5F5F5F5F5F5F5F5F5F5F5F5F5F5F5F5F5F5F5F5F5F5F5F5F5F5E2F5F5F5F5C3F5F5F5F5E2E2F5F5E2C3F5F5F5F5F5F5F5F5F5F5F5F5F5F5F5F5F5F5F5F5F5F5E2F5F5F5F5F5F5
310
F5F5F5F5F5F5F5F5F5F5F5F5F5F5F5F5F5F5E2F5F5F5F5F5F5F5F5F5F5F5F5F5F5F5F5F5F5F5F5F5F5F5F5F5F5F5F5F5F5F5F5F5F5F5F5F5F5F5F5F5F5F5F5F5F5F5F5F5F5F5F5F5F5F5F5F5F5F5E2F5DCDCDCDCF5F5DCF5DCDCDCDCDCDCDCDCF5F5F5F5F5F5F5F5F5F5F5F5F5F5F5F5F5F5F5F5F5F5F5F5F5F5F5F5F5F5F5
310
F5F5F5F5F5F5F5F5E2F5F5F5F5C3E2F5F5F5E2E2F5F5E2C3F5F5F5F5F5F5F5F5F5F5F5F5F5F5F5F5F5F5F5F5F5F5E2F5F5F5F5F5F5F5F5F5F5F5F5F5F5F5F5F5F5F5F5F5F5F5F5E2F5F5F5F5F5F5F5F5F5F5F5F5F5F5F5F5F5F5F5F5F5F5F5F5F5F5F5F5F5F5F5F5F5F5F5F5F5F5F5F5F5F5F5F5F5F5F5F5F5F5F5F5F5F5F5
310
F5F5F5F5E2E2E2E2E2E2E2E2E2E2E2E2E2E2E2E2E2E2E2E2E2E2E2E2E2E2E2E2E2E2E2E2E2E2E2E2E2E2E2E2E2E2E2E2E2E2E2E2E2E2E2E2E2E2E2E2E2E2F5F5F5F5C3E2F5F5F5E2E2F5F5E2C3F5F5F5F5F5F5F5F5F5F5F5F5F5F5F5F5F5F5F5F5F5F5E2E2E2E2E2E2E2E2E2E2E2E2E2E2E2E2E2E2E2E2E2E2E2E2E2E2F5F5
310
F5F5F5F5F5F5F5F5F5F5F5F5F5F5F5F5F5F5F5F5F5F5F5F5F5F5F5F5F5F5F5F5F5F5F5F5F5F5F5F5F5F5F5F5F5F5F5F5F5F5F5F5F5F5F5F5F5E2F5DCDCDCDCDCDCDCF5F5DCF5F5F5DCDCDCDCDCDCDCDCDCDCDCDCDCDCF5DCDCDCDCF5DCDCDCF5DCDCDCF5F5F5F5F5F5F5F5F5F5F5F5F5F5F5E2F5F5F5F5C3E2F5F5F5E2E2F5
310
F5E2C3F5F5F5F5F5F5F5F5F5F5F5F5F5F5F5F5F5F5F5F5F5F5F5F5F5F5F5F5F5F5F5F5F5F5F5F5F5F5F5F5F5F5F5F5F5F5F5F5F5F5F5F5F5F5F5F5F5F5F5F5F5F5F5F5F5F5F5F5F5F5F5F5F5F5F5F5F5F5F5F5F5F5F5F5F5F5F5F5F5F5F5F5F5F5F5F5F5F5F5F5F5F5F5F5F5F5F5E2E2E2E2E2E2E2E2E2E2E2E2E2E2E2E2E2
310
E2E2E2E2E2E2E2E2E2E2E2E2E2E2E2E2E2E2E2E2E2E2E2E2E2E2E2E2E2E2E2E2E2E2E2E2E2E2E2E2E2F5F5F5F5C3E2F5F5F5E2E2F5F5E2C3F5F5F5F5F5F5F5F5F5F5F5F5F5F5F5F5F5F5F5F5F5F5F5F5F5F5F5F5F5F5F5F5F5F5F5F5F5F5F5F5F5F5F5F5F5F5F5F5F5F5F5F5F5F5F5F5F5F5F5F5F5F5F5F5F5F5F5F5F5F5F5
310
F5F5F5F5F5F5F5F5F5F5F5F5F5F5F5F5F5F5F5F5F5F5F5F5F5F5F5F5F5F5F5F5F5F5F5F5E2F5DCDCDCDCDCDCDCF5F5DCF5F5DCDCDCDCDCDCDCDCDCDCDCDCDCDCDCDCDCF5F5F5F5F5F5F5F5F5F5F5F5F5F5F5F5F5F5F5F5F5F5F5F5F5F5E2F5F5F5F5C3E2F5F5F5E2E2F5F5E2C3F5F5F5F5F5F5F5F5F5F5F5F5F5F5F5F5F5F5
310
F5F5F5F5F5F5F5F5F5F5F5F5F5F5F5F5F5F5F5F5F5F5F5F5F5F5F5F5F5F5F5F5F5F5F5F5F5F5F5F5F5F5F5F5F5F5F5F5F5F5F5F5F5F5F5F5F5F5F5F5F5F5F5F5F5F5F5F5F5F5F5F5F5F5F5F5F5F5F5F5F5F5F5F5F5F5F5F5F5E2F5DCDCDCDCDCDCDCF5F5DCF5F5DCDCDCDCF5F5F5DCDCDCDCDCDCDCDCDCDCF5F5F5F5F5F5F5
310
F5F5F5F5F5F5F5F5F5F5F5F5F5F5F5F5F5F5F5E2F5F5F5F5C3E2F5F5F5E2E2F5F5E2C3F5F5F5F5F5F5F5F5F5F5F5F5F5F5F5F5F5F5F5F5F5F5F5F5F5F5F5F5F5F5F5F5F5F5F5F5F5F5F5F5F5F5F5F5F5F5F5F5F5F5F5F5F5F5F5F5F5F5F5F5F5F5F5F5F5F5F5F5F5F5F5F5F5F5F5F5F5F5F5F5F5F5F5F5F5F5F5F5F5F5F5F5
310
F5F5F5F5F5F5F5F5F5F5F5F5F5F5F5E2E2E2E2E2E2E2E2E2E2E2E2E2E2E2E2E2E2E2E2E2E2E2E2E2E2E2E2E2E2E2E2E2E2E2E2E2E2E2E2E2E2E2E2E2E2E2E2E2E2E2E2E2E2E2E2E2E2F5F5F5F5C3E2F5F5F5E2E2F5F5E2C3F5F5F5F5F5F5F5F5F5F5F5F5F5F5F5F5F5F5F5F5F5F5F5F5F5F5F5F5F5F5F5F5F5F5F5F5F5F5F5
310
F5F5F5F5F5F5F5F5F5F5F5F5F5F5F5F5F5F5F5F5F5F5F5F5F5F5F5F5F5F5F5F5F5F5F5F5F5F5F5F5F5F5F5F5F5F5F5F5F5F5F5F5F5F5F5F5F5F5F5F5F5F5F5F5F5F5F5F5E2F5DCDCDCDCDCDCDCDCDCDCDCDCDCDCDCDCDCDCDCF5F5DCF5F5DCDCDCF5DCDCDCDCDCDCDCDCF5F5DCDCDCDCDCDCDCDCDCDCDCDCDCDCDCDCF5E2F5
310
F5F5F5C3E2F5F5F5E2E2F5F5E2C3F5F5F5F5F5F5F5F5F5F5F5F5F5F5F5F5F5F5F5F5F5F5F5F5F5F5F5F5F5F5F5F5F5F5F5F5F5F5F5F5F5F5F5F5F5F5F5F5F5F5F5F5F5F5F5F5F5F5F5F5F5F5F5F5F5F5F5F5F5F5F5F5F5F5F5F5F5F5F5F5F5F5F5F5F5F5F5F5F5F5F5F5F5F5F5F5F5F5F5F5F5F5F5F5F5F5F5E2E2E2E2E2E2
310
E2E2E2E2E2E2E2E2E2E2E2E2E2E2E2E2E2E2E2E2E2E2E2E2E2E2E2E2E2E2E2E2E2E2E2E2E2E2E2E2E2E2E2E2E2E2E2E2E2E2E2E2F5F5F5F5C3E2F5F5F5E2E2F5F5E2C3F5F5F5F5F5F5F5F5F5F5F5F5F5F5F5F5F5F5F5F5F5F5F5F5F5F5F5F5F5F5F5F5F5F5F5F5F5F5F5F5F5F5F5F5F5F5F5F5F5F5F5F5F5F5F5F5F5F5F5F5
310
F5F5F5F5F5F5F5F5F5F5F5F5F5F5F5F5F5F5F5F5F5F5F5F5F5F5F5F5F5F5F5F5F5F5F5F5F5F5F5F5F5F5F5F5F5F5F5E2F5DCDCDCDCDCDCDCDCDCDCDCDCDCDCF5F5DCF5F5DCDCF5F5F5F5F5F5F5F5F5F5F5F5F5F5F5F5F5F5F5F5F5F5F5F5F5F5F5F5F5F5F5F5F5F5E2F5F5F5F5C3E2F5F5F5E2E2F5F5E2C3F5F5F5F5F5F5F5
310
F5F5F5F5F5F5F5F5F5F5F5F5F5F5F5F5F5F5F5F5F5F5F5F5F5F5F5F5F5F5F5F5F5F5F5F5F5F5F5F5F5F5F5F5F5F5F5F5F5F5F5F5F5F5F5F5F5F5F5F5F5F5F5F5F5F5F5F5F5F5F5F5F5F5F5F5F5F5F5F5F5F5F5F5F5F5F5F5F5F5F5F5F5F5F5F5F5F5F5F5E2E2E2E2E2E2E2E2E2E2E2E2E2E2E2E2E2E2E2E2E2E2E2E2E2E2E2
310
E2E2E2E2E2E2E2E2E2E2E2E2E2E2E2E2E2E2E2E2E2E2E2E2E2E2E2E2E2E2E2F5F5F5F5C3E2F5F5F5E2E2F5F5E2C3F5F5F5F5F5F5F5F5F5F5F5F5F5F5F5F5F5F5F5F5F5F5F5F5F5F5F5F5F5F5F5F5F5F5F5F5F5F5F5F5F5F5F5F5F5F5F5F5F5F5F5F5F5F5F5F5F5F5F5F5F5F5F5F5F5F5F5F5F5F5F5F5F5F5F5F5F5F5F5F5F5
310
F5F5F5F5F5F5F5F5F5F5F5F5F5F5F5F5F5F5F5F5F5F5F5F5F5F5E2F5DCDCDCDCDCDCDCDCDCDCDCDCF5F5DCF5F5DCDCDCDCDCDCDCDCDCDCF5DCDCDCDCDCDCDCDCDCDCDCDCF5F5F5F5F5F5F5F5F5F5F5F5F5F5F5E2F5F5F5F5C3E2F5F5F5E2E2F5F5E2C3F5F5F5F5F5F5F5F5F5F5F5F5F5F5F5F5F5F5F5F5F5F5F5F5F5F5F5F5
310
F5F5F5F5F5F5F5F5F5F5F5F5F5F5F5F5F5F5F5F5F5F5F5F5F5F5F5F5F5F5F5F5F5F5F5F5F5F5F5F5F5F5F5F5F5F5F5F5F5F5F5F5F5F5F5F5F5F5F5F5F5F5F5F5F5F5F5F5F5F5F5F5F5F5F5F5F5F5F5E2F5DCDCDCDCF5DCDCDCDCDCDCDCF5F5DCF5F5DCDCDCDCDCF5DCF5F5DCDCDCDCDCDCDCDCDCDCDCDCDCDCF5F5F5F5F5F5
310
F5F5F5F5F5F5F5F5F5E2F5F5F5F5C3E2F5F5F5E2E2F5F5E2C3F5F5F5F5F5F5F5F5F5F5F5F5F5F5F5F5F5F5F5F5F5F5F5F5F5F5F5F5F5F5F5F5F5F5F5F5F5F5F5F5F5F5F5F5F5F5F5F5F5F5F5F5F5F5F5F5F5F5F5F5F5F5F5F5F5F5F5F5F5F5F5F5F5F5F5F5F5F5F5F5F5F5F5F5F5F5F5F5F5F5F5F5F5F5F5F5F5F5F5F5F5F5
310
F5F5F5F5F5E2E2E2E2E2E2E2E2E2E2E2E2E2E2E2E2E2E2E2E2E2E2E2E2E2E2E2E2E2E2E2E2E2E2E2E2E2E2E2E2E2E2E2E2E2E2E2E2E2E2E2E2E2E2E2E2E2E2F5F5F5F5C3E2F5F5F5E2E2F5F5E2C3F5F5F5F5F5F5F5F5F5F5F5F5F5F5F5F5F5F5F5F5F5F5F5F5F5F5F5F5F5F5F5F5F5F5F5F5F5F5F5F5F5F5F5F5F5F5F5F5F5
310
F5F5F5F5F5F5F5F5F5F5F5F5F5F5F5F5F5F5F5F5F5F5F5F5F5F5F5F5F5F5F5F5F5F5F5F5F5F5F5F5F5F5F5F5F5F5F5F5F5F5F5F5F5F5F5F5F5F5E2F5DCDCDCDCDCDCDCDCDCDCDCDCDCDCDCDCF5DCDCF5DCDCDCDCDCDCDCDCDCDCDCDCDCDCDCDCDCDCDCDCDCDCDCDCF5F5F5F5F5F5F5F5F5F5F5E2F5F5F5F5C3E2F5F5F5E2E2
310
F5F5F5C3F5F5F5F5F5F5F5F5F5F5F5F5F5F5F5F5F5F5F5F5F5F5F5F5F5F5F5F5F5F5F5F5F5F5F5F5F5F5F5F5F5F5F5F5F5F5F5F5F5F5F5F5F5F5F5F5F5F5F5F5F5F5F5F5F5F5F5F5F5F5F5F5F5F5F5F5F5F5F5F5F5F5F5F5F5F5F5F5F5F5F5F5F5F5F5F5F5F5F5F5F5F5F5F5F5F5F5E2E2E2E2E2E2E2E2E2E2E2E2E2E2E2E2
310
E2E2E2E2E2E2E2E2E2E2E2E2E2E2E2E2E2E2E2E2E2E2E2E2E2E2E2E2E2E2E2E2E2E2E2E2E2E2E2E2E2E2F5F5F5F5C3F5F5F5F5E2E2F5F5F5C3F5F5F5F5F5F5F5F5F5F5F5F5F5F5F5F5F5F5F5F5F5F5F5F5F5F5F5F5F5F5F5F5F5F5F5F5F5F5F5F5F5F5F5F5F5F5F5F5F5F5F5F5F5F5F5F5F5F5F5F5F5F5F5F5F5F5F5F5F5F5
310
F5F5F5F5F5F5F5F5F5F5F5F5F5F5F5F5F5F5F5F5F5F5F5F5F5F5F5F5F5F5F5F5F5F5F5F5F5E2F5DCDCDCDCDCDCDCDCDCDCDCF5DCF5F5DCDCF5DCDCDCDCDCDCDCDCDCDCDCDCDCDCDCDCDCDCDCDCDCF5F5F5F5F5F5F5F5F5F5F5F5F5F5F5F5E2F5F5F5F5C3F5F5F5F5E2E2F5F5F5C3F5F5F5F5F5F5F5F5F5F5F5F5F5F5F5F5F5
310
F5F5F5F5F5F5F5F5F5F5F5F5F5F5F5F5F5F5F5F5F5F5F5F5F5F5F5F5F5F5F5F5F5F5F5F5F5F5F5F5F5F5F5F5F5F5F5F5F5F5F5F5F5F5F5F5F5F5F5F5F5F5F5F5F5F5F5F5F5F5F5F5F5F5F5F5F5F5F5F5F5F5F5F5F5F5F5F5F5F5E2E2E2E2E2E2E2E2E2E2E2E2E2E2E2E2E2E2E2E2E2E2E2E2E2E2E2E2E2E2E2E2E2E2E2E2E2
310
E2E2E2E2E2E2E2E2E2E2E2E2E2E2E2E2E2E2E2E2E2F5F5F5F5C3F5F5F5F5E2E2F5F5F5C3F5F5F5F5F5F5F5F5F5F5F5F52D2D2D2D2D2D2D2D2D2D2D2D2D2D2D2D2D2D2D2DF5F5E2E2E2F5F5F5F5F5F5F5F5F5F5F5F5F5F5F5F5F5F5F5F5F5F5F5F5F5F5F5F5F5F5F5F5F5F5F5F5F5F5F5F5F5F5F5E2E2F5F5F5F5F5F5F5F5F5
310
F5F5F5F5F5F5F5F5F5F5F5F5F5F5F5F5E2F5DCDCDCDCDCDCDCDCDCDCDCF5DCF5F5DCDCF5F5F5F5F5F5F5F5F5F5F5F5F5F5F5F5F5F5F5F5F5F5F5F5F5F5F5F5F5F5F5F5F5F5F5F5F5F5E2F5F5F5F5C3F5F5F5F5E2E2F5F5F5C3F5F5F5F5F5F5F5F5F5F5F5F5F52D2DF5F5F5F5F5F5F5E2E2E2E2E2E2E2E2E2E2E2E2E2E2E2E2
310
E2E2E2E2E2E2E2E2E2E2F5F5F5F5F5F5F5F5F5F5F5F5F5F5F5F5F5F5F5F5F5F5F5F5F5F5F5E2E2E2E2E2E2E2F5F5F5F5F5F5F5F5F5F5F5F5F5F5F5F5F5F5F5F5F5F5F5F5F5E2F5DCDCDCDCDCDCDCDCDCDCDCF5DCF5F5DCDCF5F5F5F5F5F5F5F5F5F5F5F5F5F5F5F5F5F5F5F5F5F5F5F5F5F5F5F5F5F5F5F5F5F5F5F5F5F5E2
310
F5F5F5F5C3F5F5F5F5E2E2F5F5F5C3F5F5F5F5F5F5F5F5F5F5F5F5F52DF5F5F5F5F5F5F5F5E2F5F5F5F5F5F5F5F5F5F5F5F5F5F5F5F5F5F5F5F5F5F5F5F5E2F5F5F5F5F5F5F5F5F5F5F5F5F5F5F5F5F5F5F5F5F5F5F5F5F5F5F5E2F5F5F5F5E2E2F5F5F5F5F5F5F5F5F5F5F5F5F5F5F5F5F5F5F5F5F5F5F5F5F5E2E2E2E2E2
310
E2E2E2E2E2E2E2E2E2E2E2E2E2E2E2E2E2E2E2E2E2E2E2E2E2E2E2E2E2E2E2E2E2E2E2E2E2E2E2E2E2E2E2E2E2E2E2E2E2E2E2E2E2F5F5F5F5C3F5F5F5F5E2E2F5F5F5C3F5F5F5F5F5F5F5F5F5F5F5F5F52DF5F5F5F5F5F5F5F5E2F5F5F5F5F5F5F5F5F5F5F5F5F5F5F5F5F5F5F5F5F5F5F5F5E2F5F5F5F5F5F5F5F5F5F5F5
310
F5F5F5F5F5F5F5F5F5F5F5F5F5F5F5F5E2F5F5F5F5E2E2F5F5F5F5F5F5F5F5F5F5F5F5F5F5F5F5F5F5F5F5F5F5F5F5F5E2F5DCDCDCDCDCDCDCF5F5DCF5F5DCDCDCDCDCDCDCF5DCDCDCF5DCDCDCF5F5DCDCDCDCDCDCDCDCDCDCDCDCDCDCF5F5F5F5F5F5F5F5F5F5F5F5E2F5F5F5F5C3F5F5F5F5E2E2F5F5F5C3F5F5F5F5F5F5
310
F5F5F5F5F5F5F52DF5F5F5F5F5F5F5F5E2E2E2E2E2E2E2E2E2E2E2E2E2E2E2E2E2E2E2E2E2E2E2E2E2E2F5F5F5F5F5F5F5F5F5F5F5F5F5F5F5F5F5F5F5F5F5F5E2E2E2E2E2E2F5F5F5F5E2E2F5F5F5F5F5F5F5F5F5F5F5F5F5F5F5F5F5F5F5F5F5F5F5F5F5E2E2DCDCDCDCDCDCDCE2E2E2E2E2DCDCE2DCE2DCDCE2E2E2E2E2
310
E2E2E2E2E2E2E2E2E2E2E2E2E2E2E2E2E2E2E2E2E2E2E2E2E2E2E2E2E2E2E2E2F5F5F5F5C3F5F5F5F5E2E2F5F5F5C3F5F5F5F5F5F5F5F5F5F5F5F5F52DF5F5F5F5F5F5F5F5E2F5F5F5F5F5F5F5F5F5F5F5F5F5F5F5F5F5F5F5F5F5F5F5F5E2F5F5F5F5F5F5F5F5F5F5F5F5F5F5F5F5F5F5F5F5F5F5E2F5F5F5F5F5F5F5F5F5
310
E2E2F5F5F5F5F5F5F5F5F5F5F5F5F5F5F5F5F5F5F5F5F5F5F5F5F5E2F5DCDCDCDCDCDCDCF5F5DCF5F5DCDCDCDCDCDCDCDCF5F5F5F5F5F5F5F5F5F5F5F5F5F5F5F5F5F5F5F5F5F5F5F5F5F5F5F5F5F5F5F5F5F5F5E2F5F5F5F5C3F5F5F5F5E2E2F5F5E2C3F5F5F5F5F5F5F5F5F5F5F5F5F52DF5F5F5F5F5F5F5F5E2E2E2E2E2
310
E2E2E2E2E2E2E2E2E2E2E2E2E2E2E2E2E2E2E2E2E2F5F5F5F5F5F5F5F5F5F5F5F5F5F5F5F5F5F5F5F5E2E2E2F5F5F5F5F5F5F5F5F5E2E2F5F5F5F5F5F5F5F5F5F5F5F5F5F5F5F5F5F5F5F5F5F5F5F5F5E2E2DCDCDCDCDCDCDCE2E2E2E2E2DCDCDCE2DCDCDCDCE2E2E2E2E2E2E2E2E2E2E2E2E2E2E2E2E2E2E2E2E2E2E2E2E2
310
E2E2E2E2E2E2E2E2E2E2E2F5F5F5F5C3E2F5F5F5E2E2F5F5E2C3F5F5F5F5F5F5F5F5F5F5F5F5F52DF5F5F5F5F5F5F5F5E2F5F5F5F5F5282828282828282828282828282828F5F5F5F5E2F5F5F5F5F5F5F5F5F5F5F5F5F5F5F5F5F5F5F5F5E2F5F5F5F5F5F5F5F5F5F5F5E2E2F5F5F5F5F5F5F5F5F5F5F5F5F5F5F5F5F5F5F5
310
F5F5F5F5F5F5E2F5F5DCDCDCDCDCDCDCDCDCF5F5F5F5F5F5F5F5F5DCDCDCF5DCDCDCDCF5DCDCDCDCDCF5F5F5F5F5F5F5F5F5F5F5F5F5F5F5F5F5F5F5F5F5F5E2F5F5F5F5C3E2F5F5F5E2E2F5F5E2C3F5F5F5F5F5F5F5F5F5F5F5F5F52DF5F5F5F5F5F5F5F5E2F5F5F5F5F5F5F5F5F5F5F5F5F5F5F5F5F528282828282828E2
310
F5F5F5F5F5F5F5F5F5F5F5F5F5F5F5F5F5F5F5F5E2F5F5F5F5F5F5F5F5F5F5F5E2F5F5F5F5F5F5F5F5F5F5F5F5F5F5F5F5F5F5F5F5F5F5F5F5F5F5E2F5F5DCDCDCDCDCDCDCDCDCF5F5F5F5F5F5F5F5F5DCDCDCF5DCDCDCDCDCDCDCDCDCDCF5F5F5F5F5F5F5F5F5F5F5F5F5F5F5F5F5F5F5F5F5F5E2F5F5F5F5C3E2F5F5F5E2
310
E2F5F5E2C3F5F5F5F5F5F5F5F5F5F5F5F5F52DF5F5F5F5F5F5F5F5E2F5F5E2E228F5F5F5F5F5F5F5F5F5F5F5F5F5E2E2F5E2E2E2E2F5F5F5F5F5F5F5F5F5F5F5F5F5F5F5F5F5F5F5E2E2F5F5F5F5F5F5F5F5F5F5F5E2F5F5F5F5F5F5F5F5F5F5F5F5F5F5F5F5F5F5F5F5F5F5F5F5F5F5E2F5DCDCDCDCDCDCDCDCDCDCDCDCDC
310
DCF5F5DCF5F5DCDCDCDCDCDCDCDCDCDCDCDCDCDCF5F5F5F5F5F5F5F5F5F5F5F5F5F5F5F5F5F5F5F5F5F5E2F5F5F5F5C3E2F5F5F5E2E2F5F5E2C3F5F5F5F5F5F5F5F5F5F5F52D2D2DF5F5F5F5F5F5F5F5E2F5F5E2E228F5F5282828282828282828F5F5E2E2F5E2E2E2E2F5F5F5F5F5F5F5F5F5F5F5F5F5F5F5F5F5F5F5E2E2
310
F5F5F5F5F5F5F5F5F5F5F5E2F5F5F5F5F5F5F5F5F5F5F5F5F5F5F5F5F5F5F5F5F5F5F5F5F5F5E2F5DCDCDCDCDCDCDCDCDCDCDCDCDCDCF5F5DCF5F5DCDCDCDCDCDCDCDCDCDCDCDCDCDCF5F5F5F5F5F5F5F5F5F5F5F5F5F5F5F5F5F5F5F5F5F5E2F5F5F5F5C3E2F5F5F5E2E2F5F5E2C3F5F5F5F5F5F5F5F5F5F5F52D2D2DF5F5
310
F5F5F5F5F5F5E2F5F5E2E228F5F528F52828F528F52828F5F5F5F5F52828F5E2F5F5F5F5F5F5F5F5F5F5F5F5F5F5F5F5F5F5F5F5E2F5F5F5F5F5F5F5F5F5F5F5E2F5F5F5F5F5F5F5F5F5F5F5F5F5F5F5F5F5F5F5F5F5F5F5F5F5F5E2E2E2E2E2E2E2E2E2E2E2E2E2E2E2E2E2E2E2E2E2E2E2E2E2E2E2E2E2E2E2E2E2E2E2E2
310
E2E2E2E2E2E2E2E2E2E2E2E2E2E2E2E2E2E2E2E2E2E2F5F5F5F5C3E2F5F5F5E2E2F5F5E2C3F5F5F5F5F5F5F5F5F5F5F52D2D2DF5F5F5F5F5F5F5F5E2F5F5E2E228F5F528F52828F528F52828F5F5F5F5F52828F5E2F5F5F5F5F5F5F5F5F5F5F5F5F5F5F5F5F5F5F5F5E2F5F5F5F5F5F5F5F5F5F5F5E2F5F5F5F5F5F5F5F5F5
310
F5F5F5F5F5F5F5F5F5F5F5F5F5F5F5F5F5E2F5F5F5F5F5F5F5F5F5F5F5F5F5F5F5F5DCDCDCDCDCDCDCF5F5DCDCDCDCF5DCDCF5F5F5F5F5F5F5F5F5F5F5F5F5F5F5F5F5F5F5F5F5F5F5F5E2F5F5F5F5C3E2F5F5F5E2E2F5F5E2C3F5F5F5F5F5F5F5F5F5F5F5F5F52DF5F5F5F5F5F5F5F5E2F5F5E2E228F5F528282828282828
310
2828F5F5F5F5F52828F5E2F5F5F5F5F5F5F5F5F5F5F5F5F5F5F5F5F5F5F52DE2F5F5F5F5F5F5F5F5F5F5F5E2F5F5F5F5F5F5F5F5F5F5F5F5F5F5F5F5F5F5F5F5F5F5F5F5F5F5E2F5F5F5F5F5F5F5F5F5F5F5F5F5F5F5F5DCDCDCDCDCDCDCF5F5DCF5DCDCDCDCDCF5F5F5F5F5F5F5F5F5F5F5F5F5F5F5F5F5F5F5F5F5F5F5F5
310
E2F5F5F5F5C3E2F5F5F5E2E2F5F5E2C3F5F5F5F5F5F5F5F5F5F5F5F5F52DF5F5F5F5F5F5F5F5E2F5F5E2E228F5F5F5F5F5F5F5F528282828282828F52828F5E2F5F5F5F5F5F5F5F5F5F5F5F5F5F5F5F5F5F5F52DE2F5F5F5F5F5F5F5F5F5F5F5E2F5F5F5F5F5F5F5F5F5F5F5F5F5F5F5F5F5F5F5F5F5F5F5F5F5F5E2F5DCDC
310
DCDCDCDCDCDCDCDCDCF5DCF5F5DCDCDCDCDCDCDCDCF5DCDCDCDCF5DCDCDCF5F5F5F5F5F5F5F5F5F5F5F5F5F5F5F5F5F5F5F5F5F5F5E2F5F5F5F5C3E2F5F5F5E2E2F5F5E2C3F5F5F5F5F5F5F5F5F5F5F5F5F52DF5F5F5F5F5F5F5F5E2F5F5F5F5F5F5F5282828282828282828282828F5F52828F5E2F5F5F5F5F5F5F5F5F5F5
310
F5F5F5F5F5F5F5F5F52DE2F5F5F5F5F5F5F5F5F5F5F5E2E2F5F5F5F5F5F5F5F5F5F5F5F5F5F5F5F5F5F5F5F5F5F5F5F5F5E2F5DCDCDCDCDCDCDCDCDCDCDCF5DCF5F5DCDCDCDCDCDCDCF5F5DCDCDCDCDCDCDCF5F5F5F5F5F5F5F5F5F5F5F5F5F5F5F5F5F5F5F5F5F5F5F5E2F5F5F5F5C3E2F5F5F5E2E2F5F5E2C3F5F5F5F5F5
310
F5F5F5F5F5F5F5F52DF5F5F5F5F5F5F5F5E2F5F5F5F5F5F5F52828282828282828F5F5F5F5F5F5F5F5F5E2F5F5F5F5F5F5F5F5F5F5F5F5F5F5F5F5F5F5F52DE2F5F5F5F5F5F5F5F5F5F5F5E2E2F5F5F5F5F5F5F5F5F5F5F5F5F5F5F5F5F5F5F5F5F5F5F5F5F5E2E2E2E2E2E2E2E2E2E2E2E2E2E2E2E2E2E2E2E2E2E2E2E2E2
310
E2E2E2E2E2E2E2E2E2E2E2E2E2E2E2E2E2E2E2E2E2E2E2E2E2E2E2E2E2E2E2E2E2F5F5F5F5C3E2F5F5F5E2E2F5F5E2C3F5F5F5F5F5F5F5F5F5F5F5F5F52DF5F5F5F5F5F5F5F5E2E2E2E2E2E2E2E2E2E2E2E2E2E2E2E2E2E2E2E2E2E2E2E2E2E2F5F5F5F5F5F5F5F5F5F5F5F5F5F5F5F5F5F5F52DE2E2E2F5F5F5F5F5F5F5F5
310
F5E2E2F5F5F5F5F5F5F5F5F5F5F5F5F5F5F5F5F5F5F5F5F5F5F5F5F5E2F5DCDCDCDCDCDCDCF5F5DCF5F5DCDCDCDCF5DCDCDCDCDCDCDCDCDCDCDCDCDCDCDCDCDCDCDCDCDCF5F5F5F5F5F5F5F5F5F5F5F5F5F5F5F5F5E2F5F5F5F5C3E2F5F5F5E2E2F5F5E2C3F5F5F5F5F5F5F5F5F5F5F5F5F52DF5F5F5F5F5F5F5F5E2F5F5F5
310
F5F5F5F5F5F5F5F5F5F5F5F5F5F5F5F5F5F5F5F5F5E2F5F5F5F5F5F5F5F5F5F5F5F5F5F5F5F5F5F5F52DF5F5E2F5F5F5F5F5F5F5F5F5E2E2F5F5F5F5F5F5F5F5F5F5F5F5F5F5F5F5F5F5F5F5F5F5F5F5F5E2E2E2E2E2E2E2E2E2E2E2E2E2E2E2E2E2E2E2E2E2E2E2E2E2E2E2E2E2E2E2E2E2E2E2E2E2E2E2E2E2E2E2E2E2E2
310
E2E2E2E2E2E2E2E2E2E2E2E2F5F5F5F5C3E2F5F5F5E2E2F5F5E2C3F5F5F5F5F5F5F5F5F5F5F5F5F52DF5F5F5F5F5F5F5F5E2E2E2E2E2E2E2E2E2E2E2E2E2E2E2E2E2E2E2E2E2E2E2E2E2E2F5F5F5F5F5F5F5F5F5F5F5F5F5F5F5F5F5F5F52DF5F5E2E2E2E2E2E2E2E2E2E2E2E2F5F5F5F5F5F5F5F5F5F5F5F5F5F5F5F5F5F5
310
F5F5F5F5F5F5F5E2F5DCDCDCDCDCDCDCF5F5DCF5F5DCDCDCDCDCDCDCDCDCDCDCDCDCDCDCDCDCDCDCDCDCDCDCDCDCDCF5F5F5F5F5F5F5F5F5F5F5F5F5F5F5F5F5E2F5F5F5F5C3E2F5F5F5E2E2F5F5E2C3F5F5F5F5F5F5F5F5F5F5F5F5F52D2DF5F5F5F5F5F5F5E2E2E2F5F5F5F5F5F5F5F5F5F5F5F5F5F5F5F5F5F5F5F5F5E2
310
E2F5F5F5F5F5F5F5F5F5F5F5F5F5F5F5F5F5F5F52DF5F5F5F5F5F5F5E2E2E2E2E2E2E2F5F5F5F5F5F5F5F5F5F5F5F5F5F5F5F5F5F5F5F5F5F5F5F5F5E2E2E2E2E2E2E2E2E2E2E2E2E2E2E2E2E2E2E2E2E2E2E2E2E2E2E2E2E2E2E2E2E2E2E2E2E2E2E2E2E2E2E2E2E2E2E2E2E2E2E2E2E2E2E2E2E2E2F5F5F5F5C3E2F5F5F5
310
E2E2F5F5F5C3F5F5F5F5F5F5F5F5F5F5F5F5F52D2DF5F5F5F5F5F5F5E2F5F5F5F5F5F5F5F5F5F5F5F5F5F5F5F5F5F5F5F5F5F5F5F5E2F5F5F5F5F5F5F5F5F5F5F5F5F5F5F5F5F5F5F52DF5F5F5F5F5F5F5E2F5F5F5F5E2E2F5F5F5F5F5F5F5F5F5F5F5F5F5F5F5F5F5F5F5F5F5F5F5F5F5E2F5DCDCDCF5DCDCDCDCDCDCDCDC
310
F5F5DCF5F5DCDCDCDCDCDCDCDCDCDCF5F5F5F5F5F5F5F5F5F5F5F5F5F5F5F5F5F5F5F5F5F5F5F5F5F5F5F5E2F5F5F5F5C3F5F5F5F5E2E2F5F5F5C3F5F5F5F5F5F5F5F5F5F5F5F52D2D2D2D2D2D2D2D2DF5E2E2E2E2E2E2E2E2E2E2E2E2E2E2E2E2E2E2E2E2E2E2E2E2E2E2F5F5F5F5F5F5F5F5F5F5F5F5F5F5F5F5F5F5F52D
310
F5F5F5F5F5F5F5E2E2E2E2E2E2E2F5F5F5F5F5F5F5F5F5F5F5F5F5F5F5F5F5F5F5F5F5F5F5F5F5E2F5DCDCDCDCDCDCDCDCDCDCDCDCF5F5DCF5F5DCDCDCDCDCDCDCDCDCDCF5F5F5F5F5F5F5F5F5F5F5F5F5F5F5F5F5F5F5F5F5F5F5F5F5F5F5F5E2F5F5F5F5C3F5F5F5F5E2E2F5F5F5C3F5F5F5F5F5F5F5F5F5F5F5F5F5F5F5
310
F5F5F5F5F5F5F5F5F5F5F5F5F5F5F5F5F5F5F5F5F5F5F5F5F5F5F5F5F5F5F5F5F5F5F5F5F5F5F5F5F5F5F5F5F5F5F5F5F5F5F5F52DF5F5F5F5F5F5F5F5F5F5F5F5F5F5F5F5F5F5F5F5F5F5F5F5F5F5F5F5F5F5F5F5F5F5F5F5F5F5F5E2E2E2E2E2E2E2E2E2E2E2E2E2E2E2E2E2E2E2E2E2E2E2E2E2E2E2E2E2E2E2E2E2E2E2
310
E2E2E2E2E2E2E2E2E2E2E2E2E2E2E2E2E2E2E2E2E2E2E2F5F5F5F5C3F5F5F5F5E2E2F5F5F5C3F5F5F5F5F5F5F5F5F5F5F5F5F5F5F5F5F5F5F5F5F5F52DF5F5F5F5F5F5F5F5F5F5F5F5F5F5F5F5F5F5F5F5F5F5F5F52DF5F5F5F5F5F5F5F5F5F5F5F5F5F5F5F5F5F5F52DF5F5F5F5F5F5F5F5F5F5F5F5F52DF5F5F5F5F5F5F5
310
F5F5F5F5F5F5F5F5F5F5F5F5F5F5F5F5F5F5E2F5DCDCDCDCDCDCDCDCDCDCDCDCF5F5DCF5F5DCDCDCDCDCDCDCDCDCDCDCDCDCDCDCF5F5F5F5F5F5F5F5F5F5F5F5F5F5F5F5F5F5F5F5F5F5F5E2F5F5F5F5C3F5F5F5F5E2E2F5F5F5C3F5F5F5F5F5F5F5F5F5F5F5F5F5F5F5F5F5F5F5F5F5F52DF5F5F5F5F5F5F5F5F5F5F5F5F5
310
F5F5F5F5F5F5F5F5F5F5F52DF5F5F5F5F5F5F5F5F5F5F5F5F5F5F5F5F5F5F52DF5F5F5F5F5F5F5F5F5F5F5F5F52DF5F5F5F5F5F5F5F5F5F5F5F5F5F5F5F5F5F5F5F5F5F5F5F5F5E2E2E2E2E2E2E2E2E2E2E2E2E2E2E2E2E2E2E2E2E2E2E2E2E2E2E2E2E2E2E2E2E2E2E2E2E2E2E2E2E2E2E2E2E2E2E2E2E2E2E2E2E2E2E2E2
310
E2E2F5F5F5F5C3F5F5F5F5E2E2F5F5F5C3F5F5F5F5F5F5F5F5F5F5F5F5F5F5F5F5F5F5F5F5F5F52DF5F5F5F5F5F5F5F5F5F5F5F5F5F5F5F5F5F5F5F5F5F5F5F52DF5F5F5F5F5F5F5F5F5F5F5F5F5F5F5F5F5F5F52DF5F5F5F5F5F5F5F5F5F5F5F5F52DF5F5F5F5F5F5F5F5F5F5F5F5F5F5F5F5F5F5F5F5F5F5F5F5F5E2F5DC
310
DCDCDCDCDCF5DCF5F5DCDCDCDCDCDCDCDCDCDCF5F5F5F5F5F5F5F5F5F5F5F5F5F5F5F5F5F5F5F5F5F5F5F5F5F5F5F5F5F5F5F5F5F5F5E2F5F5F5F5C3F5F5F5F5E2E2F5F5F5C3F5F5F5F5F5F5F5F5F5F5F5F5F5F5F5F5F5F5F5F5F5F52DF5F5F5F5F5F5F5F5F5F5F5F5F5F5F5F5F5F5F5F5F5F5F5F52DF5F5F5F5F5F5F5F5F5
310
F5F5F5F5F5F5F5F5F5F52DF5F5F5F5F5F5F5F5F5F5F5F5F52DF5F5F5F5F5F5F5F5F5F5F5F5F5F5F5F5F5F5F5F5F5F5F5F5F5E2E2E2E2E2E2E2E2E2E2E2E2E2E2E2E2E2E2E2E2E2E2E2E2E2E2E2E2E2E2E2E2E2E2E2E2E2E2E2E2E2E2E2E2E2E2E2E2E2E2E2E2E2E2E2E2E2E2F5F5F5F5C3F5F5F5F5E2E2F5F5F5C3F5F5F5F5
310
F5F5F5F5F5F5F5F5F5F5F5F5F5F5F5F5F5F52DF5F5F5F5F5F5F5F5F5F5F5F5F5F5F5F5F5F5F5F5F5F5F5F52DF5F5F5F5F5F5F5F5F5F5F5F5F5F5F5F5F5F5F52DF5F5F5F5F5F5F5F5F5F5F5F5F52DF5F5F5F5F5F5F5F5F5F5F5F5F5F5F5F5F5F5F5F5F5F5F5F5F5E2F5DCDCDCDCDCDCDCF5F5DCF5F5DCDCDCDCDCDCDCDCDCDC
310
DCDCDCDCDCDCDCDCDCDCDCDCDCDCF5F5F5F5F5F5F5F5F5F5F5F5F5F5F5F5F5F5F5E2F5F5F5F5C3F5F5F5F5E2E2F5F5F5C3F5F5F5F5F5F5F5F5F5F5F5F5F5F5F5F5F5F5F5F5F5F52DF5F5F5F5F5F5F5F5F5F5F5F5F5F5F5F5F5F5F5F5F5F5F5F52DF5F5F5F5F5F5F5F5F5F5F5F5F5F5F5F5F5F5F52DF5F5F5F5F5F5F5F5F5F5
310
F5F5F52DF5F5F5F5F5F5F5F5F5F5F5F5F5F5F5F5F5F5F5F5F5F5F5F5F5E2F5DCDCDCDCDCDCDCF5F5DCF5F5DCDCDCDCDCDCDCDCDCDCDCDCDCDCDCDCDCDCDCDCDCDCDCDCF5F5F5F5F5F5F5F5F5F5F5F5F5F5F5F5F5F5F5E2F5F5F5F5C3F5F5F5F5E2E2F5F5E2C3F5F5F5F5F5F5F5F5F5F5F5F5F5F5F5F5F5F5F5F5F5F52DF52D
310
F5F5F5F5F5F5F5F5F5F5F5F5F5F5F5F5F5F5F5F5F52D2DF5F5F5F5F5F5F5F5F5F5F5F5F5F5F5F5F5F5F52D2DF5F5F5F5F5F5F5F5F5F5F52D2DF5F5F5F5F5F5F5F5F5F5F5F5F5F5F5F5F5F5F5F5F5F5F5F5F5E2E2E2E2E2E2E2E2E2E2E2E2E2E2E2E2E2E2E2E2E2E2E2E2E2E2E2E2E2E2E2E2E2E2E2E2E2E2E2E2E2E2E2E2E2
310
E2E2E2E2E2E2E2E2E2E2E2E2E2F5F5F5F5C3E2F5F5F5E2E2F5F5E2C3F5F5F5F5F5F5F5F5F5F5F5F5F5F5F5F5F5F5F5F5F5F52D2D2D2D2D2D2D2D2D2D2D2D2D2D2D2D2D2D2D2D2D2D2D2D2D2DF5F5F5F5F5F5F5F5F5F5F5F5F5F5F5F5F5F5F52D2D2D2D2D2D2D2D2D2D2D2D2D2D2DF5F5F5F5F5F5F5F5F5F5F5F5F5F5F5F5F5
310
F5F5F5F5F5F5F5F5E2F5DCDCDCDCDCDCDCDCDCDCDCF5DCF5F5F5DCF5F5F5F5F5F5F5F5F5F5F5F5F5F5F5F5F5F5F5F5F5F5F5F5F5F5F5F5F5F5F5F5F5F5F5F5F5F5E2F5F5F5F5C3E2F5F5F5E2E2F5F5E2C3F5F5F5F5F5F5F5F5F5F5F5F5F5F5F5F5F5F5F5F5F5F52DF5F5F5F5F5F5F5F5F5F52D2D2D2D2DF5F5F5F5F5F5F5F5
310
F52DF5F5F5F5F5F5F5F5F5F5F5F5F5F5F5F5F5F5F52DF5F5F5F5F52D2D2DF5F5F5F5F52DF5F5F5F5F5F5F5F5F5F5F5F5F5F5F5F5F5F5F5F5F5F5F5F5F5E2E2E2E2E2E2E2E2E2E2E2E2E2E2E2E2E2E2E2E2E2E2E2E2E2E2E2E2E2E2E2E2E2E2E2E2E2E2E2E2E2E2E2E2E2E2E2E2E2E2E2E2E2E2E2E2E2E2F5F5F5F5C3E2F5F5
310
F5E2E2F5F5E2C3F5F5F5F5F5F5F5F5F5F5F5F5F5F5F5F5F5F5F5F5F5F5F5F5F5F5F5F5F5F5F5F5F52DF52D2DF5F5F5F5F5F5F5F5F5F5F5F5F5F5F5F5F5F5F5F5F5F5F5F5F5F5F5F5F5F5F5F5F5F5F5F5F52D2DF5F5F5F5F5F5F5F5F5F5F5F5F5F5F5F5F5F5F5F5F5F5F5F5F5F5F5F5F5F5F5E2F5DCDCDCDCF5F5DCF5DCDCDC
310
DCDCDCDCDCDCDCDCDCDCDCDCF5F5F5F5F5F5F5F5F5F5F5F5F5F5F5F5F5F5F5F5F5F5F5F5F5F5F5F5F5F5F5F5E2F5F5F5F5C3E2F5F5F5E2E2F5F5E2C3F5F5F5F5F5F5F5F5F5F5F5F5F5F5F5F5F5F5F5F5F5F5F5F5F5F5F5F5F5F5F5F5F5F5F5F5F5F5F5F5F5F5F5F5F5F5F5F5F5F5F5F5F5F5F5F5F5F5F5F5F5F5F5F5F5F5F5
310
F5F5F5F5F5F5F5F5F5F5F5F5F5F5F5F5F5F5F5F5F5F5F5F5F5F5F5F5F5F5F5F5F5F5F5F5F5F5F5F5E2E2E2E2E2E2E2E2E2E2E2E2E2E2E2E2E2E2E2E2E2E2E2E2E2E2E2E2E2E2E2E2E2E2E2E2E2E2E2E2E2E2E2E2E2E2E2E2E2E2E2E2E2E2E2E2E2E2F5F5F5F5C3E2F5F5F5E2E2F5F5E2C3F5F5F5F5F5F5F5F5F5F5F5F5F5F5
310
F5F5F5F5F5F5F5F5F5F5F5F5F5F5F5F5F5F5F5F5F5F5F5F5F5F5F5F5F5F5F5F5F5F5F5F5F5F5F5F5F5F5F5F5F5F5F5F5F5F5F5F5F5F5F5F5F5F5F5F5F5F5F5F5F5F5F5F5F5F5F5F5F5F5F5F5F5F5F5F5F5F5F5F5F5F5F5F5F5F5F5F5F5E2F5F5F5F5F5F5F5F5F5F5F5F5F5F5F5F5F5DCDCDCF5F5F5F5F5F5F5DCDCDCF5F5F5
310
F5F5F5F5F5F5F5F5F5F5F5F5F5F5F5F5F5F5F5F5F5F5F5E2F5F5F5F5C3E2F5F5F5E2E2F5F5E2C3F5F5F5F5F5F5F5F5F5F5F5F5F5F5F5F5F5F5F5F5F5F5F5F5F5F5F5F5F5F5F5F5F5F5F5F5F5F5F5F5F5F5F5F5F5F5F5F5F5F5F5F5F5F5F5F5F5F5F5F5F5F5F5F5F5F5F5F5F5F5F5F5F5F5F5F5F5F5F5F5F5F5F5F5F5F5F5F5
310
F5F5F5F5F5F5F5F5F5F5F5F5F5F5F5F5F5F5F5E2F5F5F5F5F5F5F5F5F5F5F5F5F5F5F5F5F5DCDCDCF5F5F5F5F5F5F5DCDCDCF5F5F5F5F5F5F5F5F5F5F5F5F5F5F5F5F5F5F5F5F5F5F5F5F5F5E2F5F5F5F5C3E2F5F5F5E2E2F5F5E2C3F5F5F5F5F5F5F5F5F5F5F5F5F5F5F5F5F5F5F5F5F5F5F5F5F5F5F5F5F5F5F5F5F5F5F5
310
F5F5F5F5F5F5F5F5F5F5F5F5F5F5F5F5F5F5F5F5F5F5F5F5F5F5F5F5F5F5F5F5F5F5F5F5F5F5F5F5F5F5F5F5F5F5F5F5F5F5F5F5F5F5F5F5F5F5F5F5F5F5F5F5F5F5F5F5F5F5F5F5E2E2E2E2E2E2E2E2E2E2E2E2E2E2E2E2E2E2E2E2E2E2E2E2E2E2E2E2E2E2E2E2E2E2E2E2E2E2E2E2E2E2E2E2E2E2E2E2E2E2E2E2E2E2E2
310
E2E2E2F5F5F5F5C3E2F5F5F5E2E2F5F5E2C3F5F5F5F5F5F5F5F5F5F5F5F5F5F5F5F5F5F5F5F5F5F5F5F5F5F5F5F5F5F5F5F5F5F5F5F5F5F5F5F5F5F5F5F5F5F5F5F5F5F5F5F5F5F5F5F5F5F5F5F5F5F5F5F5F5F5F5F5F5F5F5F5F5F5F5F5F5F5F5F5F5F5F5F5F5F5F5F5F5F5F5F5F5F5F5F5F5F5F5F5F5F5F5F5F5F5F5F5F5
310
F5F5F5F5F5F5F5F5F5F5F5F5F5F5F5F5F5F5F5F5F5F5F5F5F5F5F5F5F5F5F5F5F5F5F5F5F5F5F5F5F5F5F5F5F5F5F5F5F5F5F5F5F5F5F5F5F5F5F5F5C3E2F5F5F5E2E2F5F5E2C3F5F5F5F5F5F5F5F5F5F5F5F5F5F5F5F5F5F5F5F5F5F5F5F5F5F5F5F5F5F5F5F5F5F5F5F5F5F5F5F5F5F5F5F5F5F5F5F5F5F5F5F5F5F5F5F5
310
F5F5F5F5F5F5F5F5F5F5F5F5F5F5F5F5F5F5F5F5F5F5F5F5F5F5F5F5F5F5F5F5F5F5F5F5F5F5F5F5F5F5F5F5F5F5F5F5F5F5F5F5F5F5F5F5F5F5F5F5F5F5F5F5F5F5F5F5F5F5F5F5F5F5F5F5F5F5F5F5F5F5F5F5F5F5F5F5F5F5F5F5F5F5F5F5F5F5F5F5F5F5F5F5F5F5F5F5F5F5F5F5F5C3E2F5F5F5E2E2F5F5E2C3F5F5F5
310
F5F5F5F5F5F5F5F5F5F5F5F5F5F5F5F5F5F5F5F5F5F5F5F5F5F5F5F5F5F5F5F5F5F5F5F5F5F5F5F5F5F5F5F5F5F5F5F5F5F5F5F5F5F5F5F5F5F5F5F5F5F5F5F5F5F5F5F5F5F5F5F5F5F5F5F5F5F5F5F5F5F5F5F5F5F5F5F5F5F5F5F5F5F5F5F5F5F5F5F5F5F5F5F5F5F5F5F5F5F5F5F5F5F5F5F5F5F5F5F5F5F5F5F5F5F5F5
310
F5F5F5F5F5F5F5F5F5F5F5F5F5F5F5F5F5F5F5F5F5F5F5F5F5F5F5F5F5F5F5F5F5F5F5F5F5F5F5C3E2F5F5F5E2E2F5F5E2C3F5F5F5F5F5F5F5F5F5F5F5F5F5F5F5F5F5F5F5F5F5F5F5F5F5F5F5F5F5F5F5F5F5F5F5F5F5F5F5F5F5F5F5F5F5F5F5F5F5F5F5F5F5F5F5F5F5F5F5F5F5F5F5F5F5F5F5F5F5F5F5F5F5F5F5F5F5
310
F5F5F5F5F5F5F5F5F5F5F5F5F5F5F5F5F5F5F5F5F5F5F5F5F5F5F5F5F5F5F5F5F5F5F5F5F5F5F5F5F5F5F5F5F5F5F5F5F5F5F5F5F5F5F5F5F5F5F5F5F5F5F5F5F5F5F5F5F5F5F5F5F5F5F5F5F5F5F5F5F5F5F5F5F5F5F5F5F5F5F5F5C3E2F5F5F5E2E2F5F5E2C3F5F5F5F5F5F5F5F5F5F5F5F5F5F5F5F5F5F5F5F5F5F5F5F5
310
F5F5F5F5F5F5F5F5F5F5F5F5F5F5F5F5F5F5F5F5F5F5F5F5F5F5F5F5F5F5F5F5F5F5F5F5F5F5F5F5F5F5F5F5F5F5F5F5F5F5F5F5F5F5F5F5F5F5F5F5F5F5F5F5F5F5F5F5F5F5F5F5F5F5F5F5F5F5F5F5F5F5F5F5F5F5F5F5F5F5F5F5F5F5F5F5F5F5F5F5F5F5F5F5F5F5F5F5F5F5F5F5F5F5F5F5F5F5F5F5F5F5F5F5F5F5F5
310
F5F5F5F5F5F5F5F5F5F5F5F5F5F5F5F5F5F5C3E2F5F5F5E2E2F5F5E2C3F5F5F5F5F5F5F5F5F5F5F5F5F5F5F5F5F5F5F5F5F5F5F5F5F5F5F5F5F5F5F5F5F5F5F5F5F5F5F5F5F5F5F5F5F5F5F5F5F5F5F5F5F5F5F5F5F5F5F5F5F5F5F5F5F5F5F5F5F5F5F5F5F5F5F5F5F5F5F5F5F5F5F5F5F5F5F5F5F5F5F5F5F5F5F5F5F5F5
310
F5F5F5F5F5F5F5F5F5F5F5F5F5F5F5F5F5F5F5F5F5F5F5F5F5F5F5F5F5F5F5F5F5F5F5F5F5F5F5F5F5F5F5F5F5F5F5F5F5F5F5F5F5F5F5F5F5F5F5F5F5F5F5F5F5F5F5F5F5F5F5C3E2F5F5F5E2E2F5F5E2C3F5F5F5F5F5F5F5F5F5F5F5F5F5F5F5F5F5F5F5F5F5F5F5F5F5F5F5F5F5F5F5F5F5F5F5F5F5F5F5F5F5F5F5F5F5
310
F5F5F5F5F5F5F5F5F5F5F5F5F5F5F5F5F5F5F5F5F5F5F5F5F5F5F5F5F5F5F5F5F5F5F5F5F5F5F5F5F5F5F5F5F5F5F5F5F5F5F5F5F5F5F5F5F5F5F5F5F5F5F5F5F5F5F5F5F5F5F5F5F5F5F5F5F5F5F5F5F5F5F5F5F5F5F5F5F5F5F5F5F5F5F5F5F5F5F5F5F5F5F5F5F5F5F5F5F5F5F5F5F5F5F5F5F5F5F5F5F5F5F5F5C3E2F5
310
F5F5E2E2F5F5F5C3F5F5F5F5F5F5F5F5F5F5F5F5F5F5F5F5F5F5F5F5F5F5F5F5F5F5F5F5F5F5F5F5F5F5F5F5F5F5F5F5F5F5F5F5F5F5F5F5F5F5F5F5F5F5F5F5F5F5F5F5F5F5F5F5F5F5F5F5F5F5F5F5F5F5F5F5F5F5F5F5F5F5F5F5F5F5F5F5F5F5F5F5F5F5F5F5F5F5F5F5F5F5F5F5F5F5F5F5F5F5F5F5F5F5F5F5F5F5F5
310
F5F5F5F5F5F5F5F5F5F5F5F5F5F5F5F5F5F5F5F5F5F5F5F5F5F5F5F5F5F5F5F5F5F5F5F5F5F5F5F5F5F5F5F5F5F5F5F5F5F5C3F5F5F5F5E2E2F5F5F5C3F5F5F5F5F5F5F5F5F5F5F5F5F5F5F5F5F5F5F5F5F5F5F5F5F5F5F5F5F5F5F5F5F5F5F5F5F5F5F5F5F5F5F5F5F5F5F5F5F5F5F5F5F5F5F5F5F5F5F5F5F5F5F5F5F5F5
310
F5F5F5F5F5F5F5F5F5F5F5F5F5F5F5F5F5F5F5F5F5F5F5F5F5F5F5F5F5F5F5F5F5F5F5F5F5F5F5F5F5F5F5F5F5F5F5F5F5F5F5F5F5F5F5F5F5F5F5F5F5F5F5F5F5F5F5F5F5F5F5F5F5F5F5F5F5F5F5F5F5F5F5F5F5F5F5F5F5F5F5F5F5F5F5F5F5F5F5F5F5F5F5C3F5F5F5F5E2E2F5F5F5C3F5F5F5F5F5F5F5F5F5F5F5F5F5
310
F5F5F5F5F5F5F5F5F5F5F5F5F5F5F5F5F5F5F5F5F5F5F5F5F5F5F5F5F5F5F5F5F5F5F5F5F5F5F5F5F5F5F5F5F5F5F5F5F5F5F5F5F5F5F5F5F5F5F5F5F5F5F5F5F5F5F5F5F5F5F5F5F5F5F5F5F5F5F5F5F5F5F5F5F5F5F5F5F5F5F5F5F5F5F5F5F5F5F5F5F5F5F5F5F5F5F5F5F5F5F5F5F5F5F5F5F5F5F5F5F5F5F5F5F5F5F5
310
F5F5F5F5F5F5F5F5F5F5F5F5F5F5F5F5F5F5F5F5F5F5F5F5F5F5F5F5F5C3F5F5F5F5E2E2F5F5F5C3F5F5F5F5F5F5F5F5F5F5F5F5F5F5F5F5F5F5F5F5F5F5F5F5F5F5F5F5F5F5F5F5F5F5F5F5F5F5F5F5F5F5F5F5F5F5F5F5F5F5F5F5F5F5F5F5F5F5F5F5F5F5F5F5F5F5F5F5F5F5F5F5F5F5F5F5F5F5F5F5F5F5F5F5F5F5F5
310
F5F5F5F5F5F5F5F5F5F5F5F5F5F5F5F5F5F5F5F5F5F5F5F5F5F5F5F5F5F5F5F5F5F5F5F5F5F5F5F5F5F5F5F5F5F5F5F5F5F5F5F5F5F5F5F5F5F5F5F5F5F5F5F5F5F5F5F5F5F5F5F5F5F5F5F5F5F5F5F5F5F5C3F5F5F5F5E2E2F5F5F5C3F5F5F5F5F5F5F5F5F5F5F5F5F5F5F5F5F5F5F5F5F5F5F5F5F5F5F5F5F5F5F5F5F5F5
310
F5F5F5F5F5F5F5F5F5F5F5F5F5F5F5F5F5F5F5F5F5F5F5F5F5F5F5F5F5F5F5F5F5F5F5F5F5F5F5F5F5F5F5F5F5F5F5F5F5F5F5F5F5F5F5F5F5F5F5F5F5F5F5F5F5F5F5F5F5F5F5F5F5F5F5F5F5F5F5F5F5F5F5F5F5F5F5F5F5F5F5F5F5F5F5F5F5F5F5F5F5F5F5F5F5F5F5F5F5F5F5F5F5F5F5F5F5F5F5F5F5F5F5F5F5F5F5
310
F5F5F5F5F5F5F5F5C3F5F5F5F5E2E2F5F5F5C3F5F5F5F5F5F5F5F5F5F5F5F5F5F5F5F5F5F5F5F5F5F5F5F5F5F5F5F5F5F5F5F5F5F5F5F5F5F5F5F5F5F5F5F5F5F5F5F5F5F5F5F5F5F5F5F5F5F5F5F5F5F5F5F5F5F5F5F5F5F5F5F5F5F5F5F5F5F5F5F5F5F5F5F5F5F5F5F5F5F5F5F5F5F5F5F5F5F5F5F5F5F5F5F5F5F5F5F5
310
F5F5F5F5F5F5F5F5F5F5F5F5F5F5F5F5F5F5F5F5F5F5F5F5F5F5F5F5F5F5F5F5F5F5F5F5F5F5F5F5F5F5F5F5F5F5F5F5F5F5F5F5F5F5F5F5F5F5F5F5F5C3F5F5F5F5E2E2F5F5F5C3F5F5F5F5F5F5F5F5F5F5F5F5F5F5F5F5F5F5F5F5F5F5F5F5F5F5F5F5F5F5F5F5F5F5F5F5F5F5F5F5F5F5F5F5F5F5F5F5F5F5F5F5F5F5F5
310
F5F5F5F5F5F5F5F5F5F5F5F5F5F5F5F5F5F5F5F5F5F5F5F5F5F5F5F5F5F5F5F5F5F5F5F5F5F5F5F5F5F5F5F5F5F5F5F5F5F5F5F5F5F5F5F5F5F5F5F5F5F5F5F5F5F5F5F5F5F5F5F5F5F5F5F5F5F5F5F5F5F5F5F5F5F5F5F5F5F5F5F5F5F5F5F5F5F5F5F5F5F5F5F5F5F5F5F5F5F5F5F5F5F5C3F5F5F5F5E2E2F5F5F5C3F5F5
310
F5F5F5F5F5F5F5F5F5F5F5F5F5F5F5F5F5F5F5F5F5F5F5F5F5F5F5F5F5F5F5F5F5F5F5F5F5F5F5F5F5F5F5F5F5F5F5F5F5F5F5F5F5F5F5F5F5F5F5F5F5F5F5F5F5F5F5F5F5F5F5F5F5F5F5F5F5F5F5F5F5F5F5F5F5F5F5F5F5F5F5F5F5F5F5F5F5F5F5F5F5F5F5F5F5F5F5F5F5F5F5F5F5F5F5F5F5F5F5F5F5F5F5F5F5F5F5
310
F5F5F5F5F5F5F5F5F5F5F5F5F5F5F5F5F5F5F5F5F5F5F5F5F5F5F5F5F5F5F5F5F5F5F5F5F5F5F5F5C3F5F5F5F5E2E2F5F5F5C3F5F5F5F5F5F5F5F5F5F5F5F5F5F5F5F5F5F5F5F5F5F5F5F5F5F5F5F5F5F5F5F5F5F5F5F5F5F5F5F5F5F5F5F5F5F5F5F5F5F5F5F5F5F5F5F5F5F5F5F5F5F5F5F5F5F5F5F5F5F5F5F5F5F5F5F5
310
F5F5F5F5F5F5F5F5F5F5F5F5F5F5F5F5F5F5F5F5F5F5F5F5F5F5F5F5F5F5F5F5F5F5F5F5F5F5F5F5F5F5F5F5F5F5F5F5F5F5F5F5F5F5F5F5F5F5F5F5F5F5F5F5F5F5F5F5F5F5F5F5F5F5F5F5F5F5F5F5F5F5F5F5F5F5F5F5F5F5F5F5F5C3F5F5F5F5E2E2F5F5E2C3F5F5F5F5F5F5F5F5F5F5F5F5F5F5F5F5F5F5F5F5F5F5F5
310
F5F5F5F5F5F5F5F5F5F5F5F5F5F5F5F5F5F5F5F5F5F5F5F5F5F5F5F5F5F5F5F5F5F5F5F5F5F5F5F5F5F5F5F5F5F5F5F5F5F5F5F5F5F5F5F5F5F5F5F5F5F5F5F5F5F5F5F5F5F5F5F5F5F5F5F5F5F5F5F5F5F5F5F5F5F5F5F5F5F5F5F5F5F5F5F5F5F5F5F5F5F5F5F5F5F5F5F5F5F5F5F5F5F5F5F5F5F5F5F5F5F5F5F5F5F5F5
310
F5F5F5F5F5F5F5F5F5F5F5F5F5F5F5F5F5F5F5C3E2F5F5F5E2E2F5F5E2C3F5F5F5F5F5F5F5F5F5F5F5F5F5F5F5F5F5F5F5F5F5F5F5F5F5F5F5F5F5F5F5F5F5F5F5F5F5F5F5F5F5F5F5F5F5F5F5F5F5F5F5F5F5F5F5F5F5F5F5F5F5F5F5F5F5F5F5F5F5F5F5F5F5F5F5F5F5F5F5F5F5F5F5F5F5F5F5F5F5F5F5F5F5F5F5F5F5
310
F5F5F5F5F5F5F5F5F5F5F5F5F5F5F5F5F5F5F5F5F5F5F5F5F5F5F5F5F5F5F5F5F5F5F5F5F5F5F5F5F5F5F5F5F5F5F5F5F5F5F5F5F5F5F5F5F5F5F5F5F5F5F5F5F5F5F5F5F5F5F5F5C3E2F5F5F5E2E2F5F5E2C3F5F5F5F5F5F5F5F5F5F5F5F5F5F5F5F5F5F5F5F5F5F5F5F5F5F5F5F5F5F5F5F5F5F5F5F5F5F5F5F5F5F5F5F5
310
F5F5F5F5F5F5F5F5F5F5F5F5F5F5F5F5F5F5F5F5F5F5F5F5F5F5F5F5F5F5F5F5F5F5F5F5F5F5F5F5F5F5F5F5F5F5F5F5F5F5F5F5F5F5F5F5F5F5F5F5F5F5F5F5F5F5F5F5F5F5F5F5F5F5F5F5F5F5F5F5F5F5F5F5F5F5F5F5F5F5F5F5F5F5F5F5F5F5F5F5F5F5F5F5F5F5F5F5F5F5F5F5F5F5F5F5F5F5F5F5F5F5F5F5F5C3E2
310
F5F5F5E2E2F5F5E2C3F5F5F5F5F5F5F5F5F5F5F5F5F5F5F5F5F5F5F5F5F5F5F5F5F5F5F5F5F5F5F5F5F5F5F5F5F5F5F5F5F5F5F5F5F5F5F5F5F5F5F5F5F5F5F5F5F5F5F5F5F5F5F5F5F5F5F5F5F5F5F5F5F5F5F5F5F5F5F5F5F5F5F5F5F5F5F5F5F5F5F5F5F5F5F5F5F5F5F5F5F5F5F5F5F5F5F5F5F5F5F5F5F5F5F5F5F5F5
310
F5F5F5F5F5F5F5F5F5F5F5F5F5F5F5F5F5F5F5F5F5F5F5F5F5F5F5F5F5F5F5F5F5F5F5F5F5F5F5F5F5F5F5F5F5F5F5F5F5F5F5C3E2F5F5F5E2E2F5F5E2C3F5F5F5F5F5F5F5F5F5F5F5F5F5F5F5F5F5F5F5F5F5F5F5F5F5F5F5F5F5F5F5F5F5F5F5F5F5F5F5F5F5F5F5F5F5F5F5F5F5F5F5F5F5F5F5F5F5F5F5F5F5F5F5F5F5
310
F5F5F5F5F5F5F5F5F5F5F5F5F5F5F5F5F5F5F5F5F5F5F5F5F5F5F5F5F5F5F5F5F5F5F5F5F5F5F5F5F5F5F5F5F5F5F5F5F5F5F5F5F5F5F5F5F5F5F5F5F5F5F5F5F5F5F5F5F5F5F5F5F5F5F5F5F5F5F5F5F5F5F5F5F5F5F5F5F5F5F5F5F5F5F5F5F5F5F5F5F5F5F5F5C3E2F5F5F5E2E2F5F5E2C3C3C3C3C3C3C3C3C3C3C3C3C3
310
C3C3C3C3C3C3C3C3C3C3C3C3C3C3C3C3C3C3C3C3C3C3C3C3C3C3C3C3C3C3C3C3C3C3C3C3C3C3C3C3C3C3C3C3C3C3C3C3C3C3C3C3C3C3C3C3C3C3C3C3C3C3C3C3C3C3C3C3C3C3C3C3C3C3C3C3C3C3C3C3C3C3C3C3C3C3C3C3C3C3C3C3C3C3C3C3C3C3C3C3C3C3C3C3C3C3C3C3C3C3C3C3C3C3C3C3C3C3C3C3C3C3C3C3C3C3C3
310
C3C3C3C3C3C3C3C3C3C3C3C3C3C3C3C3C3C3C3C3C3C3C3C3C3C3C3C3C3C3C3E2F5F5F5E2E2F5F5E2F5F5F5F5F5F5F5F5F5F5F5F5F5F5F5F5F5F5F5F5F5F5F5F5F5F5F5F5F5F5F5F5F5F5F5F5F5F5F5F5F5F5F5F5F5F5F5F5F5F5F5F5F5F5F5F5F5F5F5F5F5F5F5F5F5F5F5F5F5F5F5F5F5F5F5F5F5F5F5F5F5F5F5F5F5F5F5
310
F5F5F5F5F5F5F5F5F5F5F5F5F5F5F5F5F5F5F5F5F5F5F5F5F5F5F5F5F5F5F5F5F5F5F5F5F5F5F5F5F5F5F5F5F5F5F5F5F5F5F5F5F5F5F5F5F5F5F5F5F5F5F5F5F5F5F5F5F5F5F5F5F5F5F5F5F5F5F5F5F5F5F5F5E2F5F5F5E2E2F5F5E2E2E2E2E2E2E2E2F5F5F5F5F5F5F5F5F5E2E2E2E2E2E2E2E2E2E2E2E2E2E2E2E2F5F5
310
F5F5F5F5F5F5F5E2E2E2E2E2E2E2E2E2E2E2E2E2E2E2E2F5F5F5F5F5F5F5F5E2E2E2E2E2E2E2E2E2E2E2E2E2E2E2E2F5F5F5F5F5F5F5F5F5E2E2E2E2E2E2E2E2E2E2E2E2E2E2E2E2F5F5F5F5F5F5F5F5E2E2E2E2E2E2E2E2E2E2E2E2E2E2E2E2F5F5F5F5F5F5F5F5F5E2E2E2E2E2E2E2E2E2E2E2E2E2E2E2E2F5F5F5F5F5F5
310
F5F5F5E2E2E2E2E2E2E2E2F5F5F5E2E2F5F5F5F5F5F5F5F5F5F5F5F5F5F5F5F5F5F5F5F5F5F5F5F5F5F5F5F5F5F5F5F5F5F5F5F5F5F5F5F5F5F5F5F5F5F5F5F5F5F5F5F5F5F5F5F5F5F5F5F5F5F5F5F5F5F5F5F5F5F5F5F5F5F5F5F5F5F5F5F5F5F5F5F5F5F5F5F5F5F5F5F5F5F5F5F5F5F5F5F5F5F5F5F5F5F5F5F5F5F5F5
310
F5F5F5F5F5F5F5F5F5F5F5F5F5F5F5F5F5F5F5F5F5F5F5F5F5F5F5F5F5F5F5F5F5F5F5F5F5F5F5F5F5F5F5F5F5F5F5F5F5F5F5F5F5F5F5F5F5F5F5F5F5F5F5F5F5F5F5E2E2F5F5F5F5F5F5F5F5F5F5F5F5F5F5F5F5F5F5F5F5F5F5F5F5F5F5F5F5F5F5F5F5F5F5F5F5F5F5F5F5F5F5F5F5F5F5F5F5F5F5F5F5F5F5F5F5F5F5
310
F5F5F5F5F5F5F5F5F5F5F5F5F5F5F5F5F5F5F5F5F5F5F5F5F5F5F5F5F5F5F5F5F5F5F5F5F5F5F5F5F5F5F5F5F5F5F5F5F5F5F5F5F5F5F5F5F5F5F5F5F5F5F5F5F5F5F5F5F5F5F5F5F5F5F5F5F5F5F5F5F5F5F5F5F5F5F5F5F5F5F5F5F5F5F5F5F5F5F5F5F5F5F5F5F5F5F5F5F5F5F5F5F5F5F5F5F5F5F5F5E2EFE2E2E2E2E2
310
E2E2E2E2E2E2E2E2E2E2E2E2E2E2E2E2E2E2E2E2E2E2E2E2E2E2E2E2E2E2E2E2E2E2E2E2E2E2E2E2E2E2E2E2E2E2E2E2E2E2E2E2E2E2E2E2E2E2E2E2E2E2E2E2E2E2E2E2E2E2E2E2E2E2E2E2E2E2E2E2E2E2E2E2E2E2E2E2E2E2E2E2E2E2E2E2E2E2E2E2E2E2E2E2E2E2E2E2E2E2E2E2E2E2E2E2E2E2E2E2E2E2E2E2E2E2E2
310
E2E2E2E2E2E2E2E2E2E2E2E2E2E2E2E2E2E2E2E2E2E2E2E2E2E2E2E2E2E2E2E2E2E2E2E2E2E2E2E2E2E2E2E2E2E2E2EF
  0
XRECORD
  5
1DCC
102
{ACAD_REACTORS
330
1D44
102
}
330
1D44
100
AcDbXrecord
280
     1
102
MATERIAL
148
0.0
149
0.0
149
0.0
 93
        0
 94
      127
282
     0
 72
     0
 77
     0
171
     0
175
     0
179
     0
273
     0
  0
XRECORD
  5
1D46
102
{ACAD_REACTORS
330
1D44
102
}
330
1D44
100
AcDbXrecord
280
     1
270
     1
271
     1
  0
XRECORD
  5
1D45
102
{ACAD_REACTORS
330
1D44
102
}
330
1D44
100
AcDbXrecord
280
     1
270
     1
271
     1
  0
XRECORD
  5
1D49
102
{ACAD_REACTORS
330
1D44
102
}
330
1D44
100
AcDbXrecord
280
     1
270
     1
271
     1
  0
XRECORD
  5
1D48
102
{ACAD_REACTORS
330
1D44
102
}
330
1D44
100
AcDbXrecord
280
     1
270
     1
271
     1
  0
XRECORD
  5
1D4A
102
{ACAD_REACTORS
330
1D44
102
}
330
1D44
100
AcDbXrecord
280
     1
270
     1
271
     1
  0
XRECORD
  5
1D47
102
{ACAD_REACTORS
330
1D44
102
}
330
1D44
100
AcDbXrecord
280
     1
270
     1
271
     1
  0
XRECORD
  5
1DCB
102
{ACAD_REACTORS
330
1D3C
102
}
330
1D3C
100
AcDbXrecord
280
     1
102
MATERIAL
148
0.0
149
0.0
149
0.0
 93
        0
 94
      127
282
     0
 72
     0
 77
     0
171
     0
175
     0
179
     0
273
     0
  0
XRECORD
  5
1D3E
102
{ACAD_REACTORS
330
1D3C
102
}
330
1D3C
100
AcDbXrecord
280
     1
270
     1
271
     1
  0
XRECORD
  5
1D3D
102
{ACAD_REACTORS
330
1D3C
102
}
330
1D3C
100
AcDbXrecord
280
     1
270
     1
271
     1
  0
XRECORD
  5
1D41
102
{ACAD_REACTORS
330
1D3C
102
}
330
1D3C
100
AcDbXrecord
280
     1
270
     1
271
     1
  0
XRECORD
  5
1D40
102
{ACAD_REACTORS
330
1D3C
102
}
330
1D3C
100
AcDbXrecord
280
     1
270
     1
271
     1
  0
XRECORD
  5
1D42
102
{ACAD_REACTORS
330
1D3C
102
}
330
1D3C
100
AcDbXrecord
280
     1
270
     1
271
     1
  0
XRECORD
  5
1D3F
102
{ACAD_REACTORS
330
1D3C
102
}
330
1D3C
100
AcDbXrecord
280
     1
270
     1
271
     1
  0
XRECORD
  5
1DCA
102
{ACAD_REACTORS
330
56
102
}
330
56
100
AcDbXrecord
280
     1
102
MATERIAL
148
0.0
149
0.0
149
0.0
 93
        0
 94
       63
282
     0
 72
     1
 77
     1
171
     1
175
     1
179
     1
273
     0
  0
XRECORD
  5
58
102
{ACAD_REACTORS
330
56
102
}
330
56
100
AcDbXrecord
280
     1
270
     1
271
     1
  0
XRECORD
  5
59
102
{ACAD_REACTORS
330
56
102
}
330
56
100
AcDbXrecord
280
     1
270
     1
271
     1
  0
XRECORD
  5
5A
102
{ACAD_REACTORS
330
56
102
}
330
56
100
AcDbXrecord
280
     1
270
     1
271
     1
  0
XRECORD
  5
5B
102
{ACAD_REACTORS
330
56
102
}
330
56
100
AcDbXrecord
280
     1
270
     1
271
     1
  0
CELLSTYLEMAP
  5
1DC8
102
{ACAD_REACTORS
330
1DC7
102
}
330
1DC7
100
AcDbCellStyleMap
 90
        3
300
CELLSTYLE
  1
TABLEFORMAT_BEGIN
 90
        5
170
     1
 91
        0
 92
    32768
 62
   257
 93
        1
300
CONTENTFORMAT
  1
CONTENTFORMAT_BEGIN
 90
        0
 91
        0
 92
      512
 93
        0
300

 40
0.0
140
1.0
 94
        5
 62
     0
340
11
144
6.0
309
CONTENTFORMAT_END
171
     1
301
MARGIN
  1
CELLMARGIN_BEGIN
 40
1.5
 40
1.5
 40
1.5
 40
1.5
 40
4.5
 40
4.5
309
CELLMARGIN_END
 94
        6
 95
        1
302
GRIDFORMAT
  1
GRIDFORMAT_BEGIN
 90
        0
 91
        1
 62
     0
 92
       -2
340
0
 93
        0
 40
1.125
309
GRIDFORMAT_END
 95
        2
302
GRIDFORMAT
  1
GRIDFORMAT_BEGIN
 90
        0
 91
        1
 62
     0
 92
       -2
340
0
 93
        0
 40
1.125
309
GRIDFORMAT_END
 95
        4
302
GRIDFORMAT
  1
GRIDFORMAT_BEGIN
 90
        0
 91
        1
 62
     0
 92
       -2
340
0
 93
        0
 40
1.125
309
GRIDFORMAT_END
 95
        8
302
GRIDFORMAT
  1
GRIDFORMAT_BEGIN
 90
        0
 91
        1
 62
     0
 92
       -2
340
0
 93
        0
 40
1.125
309
GRIDFORMAT_END
 95
       16
302
GRIDFORMAT
  1
GRIDFORMAT_BEGIN
 90
        0
 91
        1
 62
     0
 92
       -2
340
0
 93
        0
 40
1.125
309
GRIDFORMAT_END
 95
       32
302
GRIDFORMAT
  1
GRIDFORMAT_BEGIN
 90
        0
 91
        1
 62
     0
 92
       -2
340
0
 93
        0
 40
1.125
309
GRIDFORMAT_END
309
TABLEFORMAT_END
  1
CELLSTYLE_BEGIN
 90
        1
 91
        1
300
_TITLE
309
CELLSTYLE_END
300
CELLSTYLE
  1
TABLEFORMAT_BEGIN
 90
        5
170
     1
 91
        0
 92
        0
 62
   257
 93
        1
300
CONTENTFORMAT
  1
CONTENTFORMAT_BEGIN
 90
        0
 91
        0
 92
      512
 93
        0
300

 40
0.0
140
1.0
 94
        5
 62
     0
340
11
144
4.5
309
CONTENTFORMAT_END
171
     1
301
MARGIN
  1
CELLMARGIN_BEGIN
 40
1.5
 40
1.5
 40
1.5
 40
1.5
 40
4.5
 40
4.5
309
CELLMARGIN_END
 94
        6
 95
        1
302
GRIDFORMAT
  1
GRIDFORMAT_BEGIN
 90
        0
 91
        1
 62
     0
 92
       -2
340
0
 93
        0
 40
1.125
309
GRIDFORMAT_END
 95
        2
302
GRIDFORMAT
  1
GRIDFORMAT_BEGIN
 90
        0
 91
        1
 62
     0
 92
       -2
340
0
 93
        0
 40
1.125
309
GRIDFORMAT_END
 95
        4
302
GRIDFORMAT
  1
GRIDFORMAT_BEGIN
 90
        0
 91
        1
 62
     0
 92
       -2
340
0
 93
        0
 40
1.125
309
GRIDFORMAT_END
 95
        8
302
GRIDFORMAT
  1
GRIDFORMAT_BEGIN
 90
        0
 91
        1
 62
     0
 92
       -2
340
0
 93
        0
 40
1.125
309
GRIDFORMAT_END
 95
       16
302
GRIDFORMAT
  1
GRIDFORMAT_BEGIN
 90
        0
 91
        1
 62
     0
 92
       -2
340
0
 93
        0
 40
1.125
309
GRIDFORMAT_END
 95
       32
302
GRIDFORMAT
  1
GRIDFORMAT_BEGIN
 90
        0
 91
        1
 62
     0
 92
       -2
340
0
 93
        0
 40
1.125
309
GRIDFORMAT_END
309
TABLEFORMAT_END
  1
CELLSTYLE_BEGIN
 90
        2
 91
        1
300
_HEADER
309
CELLSTYLE_END
300
CELLSTYLE
  1
TABLEFORMAT_BEGIN
 90
        5
170
     1
 91
        0
 92
        0
 62
   257
 93
        1
300
CONTENTFORMAT
  1
CONTENTFORMAT_BEGIN
 90
        0
 91
        0
 92
      512
 93
        0
300

 40
0.0
140
1.0
 94
        2
 62
     0
340
11
144
4.5
309
CONTENTFORMAT_END
171
     1
301
MARGIN
  1
CELLMARGIN_BEGIN
 40
1.5
 40
1.5
 40
1.5
 40
1.5
 40
4.5
 40
4.5
309
CELLMARGIN_END
 94
        6
 95
        1
302
GRIDFORMAT
  1
GRIDFORMAT_BEGIN
 90
        0
 91
        1
 62
     0
 92
       -2
340
0
 93
        0
 40
1.125
309
GRIDFORMAT_END
 95
        2
302
GRIDFORMAT
  1
GRIDFORMAT_BEGIN
 90
        0
 91
        1
 62
     0
 92
       -2
340
0
 93
        0
 40
1.125
309
GRIDFORMAT_END
 95
        4
302
GRIDFORMAT
  1
GRIDFORMAT_BEGIN
 90
        0
 91
        1
 62
     0
 92
       -2
340
0
 93
        0
 40
1.125
309
GRIDFORMAT_END
 95
        8
302
GRIDFORMAT
  1
GRIDFORMAT_BEGIN
 90
        0
 91
        1
 62
     0
 92
       -2
340
0
 93
        0
 40
1.125
309
GRIDFORMAT_END
 95
       16
302
GRIDFORMAT
  1
GRIDFORMAT_BEGIN
 90
        0
 91
        1
 62
     0
 92
       -2
340
0
 93
        0
 40
1.125
309
GRIDFORMAT_END
 95
       32
302
GRIDFORMAT
  1
GRIDFORMAT_BEGIN
 90
        0
 91
        1
 62
     0
 92
       -2
340
0
 93
        0
 40
1.125
309
GRIDFORMAT_END
309
TABLEFORMAT_END
  1
CELLSTYLE_BEGIN
 90
        3
 91
        2
300
_DATA
309
CELLSTYLE_END
  0
XRECORD
  5
1DCD
102
{ACAD_REACTORS
330
1DC7
102
}
330
1DC7
100
AcDbXrecord
280
     1
102
ACAD_ROUNDTRIP_PRE2007_TABLESTYLE
 90
      512
 91
        0
  1

 92
      512
 93
        0
  2

 94
      512
 95
        0
  3

  0
ENDSEC
  0
EOF
