  0
SECTION
  2
HEADER
  9
$ACADVER
  1
AC1018
  9
$ACADMAINTVER
 70
   104
  9
$DWGCODEPAGE
  3
ANSI_932
  9
$LASTSAVEDBY
  1
t-hayashi
  9
$INSBASE
 10
0.0
 20
0.0
 30
0.0
  9
$EXTMIN
 10
18.86718801090865
 20
-2.822062565936221
 30
-0.0000000000112498
  9
$EXTMAX
 10
198.8713078490357
 20
282.5059855068884
 30
0.0000000000002956
  9
$LIMMIN
 10
0.0
 20
0.0
  9
$LIMMAX
 10
210.0
 20
297.0
  9
$ORTHOMODE
 70
     1
  9
$REGENMODE
 70
     1
  9
$FILLMODE
 70
     1
  9
$QTEXTMODE
 70
     0
  9
$MIRRTEXT
 70
     0
  9
$LTSCALE
 40
1.0
  9
$ATTMODE
 70
     1
  9
$TEXTSIZE
 40
3.0
  9
$TRACEWID
 40
1.0
  9
$TEXTSTYLE
  7
Standard
  9
$CLAYER
  8
hacchi
  9
$CELTYPE
  6
ByLayer
  9
$CECOLOR
 62
   256
  9
$CELTSCALE
 40
1.0
  9
$DISPSILH
 70
     0
  9
$DIMSCALE
 40
1.0
  9
$DIMASZ
 40
3.0
  9
$DIMEXO
 40
4.0
  9
$DIMDLI
 40
3.75
  9
$DIMRND
 40
0.0
  9
$DIMDLE
 40
0.0
  9
$DIMEXE
 40
2.0
  9
$DIMTP
 40
0.0
  9
$DIMTM
 40
0.0
  9
$DIMTXT
 40
3.0
  9
$DIMCEN
 40
2.5
  9
$DIMTSZ
 40
0.0
  9
$DIMTOL
 70
     0
  9
$DIMLIM
 70
     0
  9
$DIMTIH
 70
     0
  9
$DIMTOH
 70
     0
  9
$DIMSE1
 70
     0
  9
$DIMSE2
 70
     0
  9
$DIMTAD
 70
     1
  9
$DIMZIN
 70
     8
  9
$DIMBLK
  1
Open30
  9
$DIMASO
 70
     1
  9
$DIMSHO
 70
     1
  9
$DIMPOST
  1

  9
$DIMAPOST
  1

  9
$DIMALT
 70
     0
  9
$DIMALTD
 70
     3
  9
$DIMALTF
 40
0.03937007874016
  9
$DIMLFAC
 40
1.0
  9
$DIMTOFL
 70
     1
  9
$DIMTVP
 40
0.0
  9
$DIMTIX
 70
     0
  9
$DIMSOXD
 70
     0
  9
$DIMSAH
 70
     0
  9
$DIMBLK1
  1

  9
$DIMBLK2
  1

  9
$DIMSTYLE
  2
ISO-25-4mm
  9
$DIMCLRD
 70
   256
  9
$DIMCLRE
 70
   256
  9
$DIMCLRT
 70
     4
  9
$DIMTFAC
 40
1.0
  9
$DIMGAP
 40
1.0
  9
$DIMJUST
 70
     0
  9
$DIMSD1
 70
     0
  9
$DIMSD2
 70
     0
  9
$DIMTOLJ
 70
     0
  9
$DIMTZIN
 70
     8
  9
$DIMALTZ
 70
     0
  9
$DIMALTTZ
 70
     0
  9
$DIMUPT
 70
     0
  9
$DIMDEC
 70
     2
  9
$DIMTDEC
 70
     2
  9
$DIMALTU
 70
     2
  9
$DIMALTTD
 70
     3
  9
$DIMTXSTY
  7
Standard
  9
$DIMAUNIT
 70
     0
  9
$DIMADEC
 70
     0
  9
$DIMALTRND
 40
0.0
  9
$DIMAZIN
 70
     0
  9
$DIMDSEP
 70
    46
  9
$DIMATFIT
 70
     3
  9
$DIMFRAC
 70
     0
  9
$DIMLDRBLK
  1

  9
$DIMLUNIT
 70
     2
  9
$DIMLWD
 70
    -2
  9
$DIMLWE
 70
    -2
  9
$DIMTMOVE
 70
     0
  9
$LUNITS
 70
     2
  9
$LUPREC
 70
     4
  9
$SKETCHINC
 40
1.0
  9
$FILLETRAD
 40
20.0
  9
$AUNITS
 70
     0
  9
$AUPREC
 70
     0
  9
$MENU
  1
.
  9
$ELEVATION
 40
0.0
  9
$PELEVATION
 40
0.0
  9
$THICKNESS
 40
0.0
  9
$LIMCHECK
 70
     0
  9
$CHAMFERA
 40
0.0
  9
$CHAMFERB
 40
0.0
  9
$CHAMFERC
 40
0.0
  9
$CHAMFERD
 40
0.0
  9
$SKPOLY
 70
     0
  9
$TDCREATE
 40
2455497.994904688
  9
$TDUCREATE
 40
2455497.619904688
  9
$TDUPDATE
 40
2455618.560711076
  9
$TDUUPDATE
 40
2455618.185711077
  9
$TDINDWG
 40
1.1624221875
  9
$TDUSRTIMER
 40
1.1624221875
  9
$USRTIMER
 70
     1
  9
$ANGBASE
 50
0.0
  9
$ANGDIR
 70
     0
  9
$PDMODE
 70
     0
  9
$PDSIZE
 40
0.0
  9
$PLINEWID
 40
0.0
  9
$SPLFRAME
 70
     0
  9
$SPLINETYPE
 70
     6
  9
$SPLINESEGS
 70
     8
  9
$HANDSEED
  5
1B5E
  9
$SURFTAB1
 70
     6
  9
$SURFTAB2
 70
     6
  9
$SURFTYPE
 70
     6
  9
$SURFU
 70
     6
  9
$SURFV
 70
     6
  9
$UCSBASE
  2

  9
$UCSNAME
  2

  9
$UCSORG
 10
0.0
 20
0.0
 30
0.0
  9
$UCSXDIR
 10
1.0
 20
0.0
 30
0.0
  9
$UCSYDIR
 10
0.0
 20
1.0
 30
0.0
  9
$UCSORTHOREF
  2

  9
$UCSORTHOVIEW
 70
     0
  9
$UCSORGTOP
 10
0.0
 20
0.0
 30
0.0
  9
$UCSORGBOTTOM
 10
0.0
 20
0.0
 30
0.0
  9
$UCSORGLEFT
 10
0.0
 20
0.0
 30
0.0
  9
$UCSORGRIGHT
 10
0.0
 20
0.0
 30
0.0
  9
$UCSORGFRONT
 10
0.0
 20
0.0
 30
0.0
  9
$UCSORGBACK
 10
0.0
 20
0.0
 30
0.0
  9
$PUCSBASE
  2

  9
$PUCSNAME
  2

  9
$PUCSORG
 10
0.0
 20
0.0
 30
0.0
  9
$PUCSXDIR
 10
1.0
 20
0.0
 30
0.0
  9
$PUCSYDIR
 10
0.0
 20
1.0
 30
0.0
  9
$PUCSORTHOREF
  2

  9
$PUCSORTHOVIEW
 70
     0
  9
$PUCSORGTOP
 10
0.0
 20
0.0
 30
0.0
  9
$PUCSORGBOTTOM
 10
0.0
 20
0.0
 30
0.0
  9
$PUCSORGLEFT
 10
0.0
 20
0.0
 30
0.0
  9
$PUCSORGRIGHT
 10
0.0
 20
0.0
 30
0.0
  9
$PUCSORGFRONT
 10
0.0
 20
0.0
 30
0.0
  9
$PUCSORGBACK
 10
0.0
 20
0.0
 30
0.0
  9
$USERI1
 70
     0
  9
$USERI2
 70
     0
  9
$USERI3
 70
     0
  9
$USERI4
 70
     0
  9
$USERI5
 70
     0
  9
$USERR1
 40
0.0
  9
$USERR2
 40
0.0
  9
$USERR3
 40
0.0
  9
$USERR4
 40
0.0
  9
$USERR5
 40
0.0
  9
$WORLDVIEW
 70
     1
  9
$SHADEDGE
 70
     3
  9
$SHADEDIF
 70
    70
  9
$TILEMODE
 70
     1
  9
$MAXACTVP
 70
    64
  9
$PINSBASE
 10
0.0
 20
0.0
 30
0.0
  9
$PLIMCHECK
 70
     0
  9
$PEXTMIN
 10
9.015664445261563
 20
12.15813129276887
 30
0.0
  9
$PEXTMAX
 10
193.4351008528131
 20
280.2690525345891
 30
0.0
  9
$PLIMMIN
 10
-4.180416584014892
 20
-5.831417560577392
  9
$PLIMMAX
 10
205.7929110527039
 20
291.1369051933288
  9
$UNITMODE
 70
     0
  9
$VISRETAIN
 70
     1
  9
$PLINEGEN
 70
     0
  9
$PSLTSCALE
 70
     1
  9
$TREEDEPTH
 70
  3020
  9
$CMLSTYLE
  2
Standard
  9
$CMLJUST
 70
     0
  9
$CMLSCALE
 40
20.0
  9
$PROXYGRAPHICS
 70
     1
  9
$MEASUREMENT
 70
     1
  9
$CELWEIGHT
370
    -1
  9
$ENDCAPS
280
     0
  9
$JOINSTYLE
280
     0
  9
$LWDISPLAY
290
     0
  9
$INSUNITS
 70
     4
  9
$HYPERLINKBASE
  1

  9
$STYLESHEET
  1

  9
$XEDIT
290
     1
  9
$CEPSNTYPE
380
     0
  9
$PSTYLEMODE
290
     1
  9
$FINGERPRINTGUID
  2
{03A8F9F0-C856-470B-BDF9-D9C40928B69F}
  9
$VERSIONGUID
  2
{8ED08A7F-C2B8-43CA-B104-613337EBBF29}
  9
$EXTNAMES
290
     1
  9
$PSVPSCALE
 40
0.0
  9
$OLESTARTUP
290
     0
  9
$SORTENTS
280
   127
  9
$INDEXCTL
280
     0
  9
$HIDETEXT
280
     1
  9
$XCLIPFRAME
290
     0
  9
$HALOGAP
280
     0
  9
$OBSCOLOR
 70
   257
  9
$OBSLTYPE
280
     0
  9
$INTERSECTIONDISPLAY
280
     0
  9
$INTERSECTIONCOLOR
 70
   257
  9
$DIMASSOC
280
     2
  9
$PROJECTNAME
  1

  0
ENDSEC
  0
SECTION
  2
CLASSES
  0
CLASS
  1
ACDBDICTIONARYWDFLT
  2
AcDbDictionaryWithDefault
  3
ObjectDBX Classes
 90
        0
 91
        1
280
     0
281
     0
  0
CLASS
  1
MATERIAL
  2
AcDbMaterial
  3
ObjectDBX Classes
 90
     1153
 91
        3
280
     0
281
     0
  0
CLASS
  1
DIMASSOC
  2
AcDbDimAssoc
  3
"AcDbDimAssoc|Product Desc:     AcDim ARX App For Dimension|Company:          Autodesk, Inc.|WEB Address:      www.autodesk.com"
 90
        0
 91
        1
280
     0
281
     0
  0
CLASS
  1
VISUALSTYLE
  2
AcDbVisualStyle
  3
ObjectDBX Classes
 90
     4095
 91
       16
280
     0
281
     0
  0
CLASS
  1
TABLESTYLE
  2
AcDbTableStyle
  3
ObjectDBX Classes
 90
     4095
 91
        1
280
     0
281
     0
  0
CLASS
  1
SCALE
  2
AcDbScale
  3
ObjectDBX Classes
 90
     1153
 91
       33
280
     0
281
     0
  0
CLASS
  1
MLEADERSTYLE
  2
AcDbMLeaderStyle
  3
ACDB_MLEADERSTYLE_CLASS
 90
     4095
 91
        1
280
     0
281
     0
  0
CLASS
  1
DICTIONARYVAR
  2
AcDbDictionaryVar
  3
ObjectDBX Classes
 90
        0
 91
        3
280
     0
281
     0
  0
CLASS
  1
CELLSTYLEMAP
  2
AcDbCellStyleMap
  3
ObjectDBX Classes
 90
     1152
 91
        1
280
     0
281
     0
  0
ENDSEC
  0
SECTION
  2
TABLES
  0
TABLE
  2
VPORT
  5
8
330
0
100
AcDbSymbolTable
 70
     1
  0
VPORT
  5
1AE5
330
8
100
AcDbSymbolTableRecord
100
AcDbViewportTableRecord
  2
*Active
 70
     0
 10
0.0
 20
0.0
 11
1.0
 21
1.0
 12
209.9911839474341
 22
147.0821056713903
 13
0.0
 23
0.0
 14
10.0
 24
10.0
 15
10.0
 25
10.0
 16
0.0
 26
0.0
 36
1.0
 17
0.0
 27
0.0
 37
0.0
 40
302.2344749664771
 41
2.304913294797688
 42
50.0
 43
0.0
 44
0.0
 50
0.0
 51
0.0
 71
     0
 72
  1000
 73
     1
 74
     3
 75
     0
 76
     0
 77
     0
 78
     0
281
     0
 65
     1
110
0.0
120
0.0
130
0.0
111
1.0
121
0.0
131
0.0
112
0.0
122
1.0
132
0.0
 79
     0
146
0.0
  0
ENDTAB
  0
TABLE
  2
LTYPE
  5
5
330
0
100
AcDbSymbolTable
 70
     1
  0
LTYPE
  5
14
330
5
100
AcDbSymbolTableRecord
100
AcDbLinetypeTableRecord
  2
ByBlock
 70
     0
  3

 72
    65
 73
     0
 40
0.0
  0
LTYPE
  5
15
330
5
100
AcDbSymbolTableRecord
100
AcDbLinetypeTableRecord
  2
ByLayer
 70
     0
  3

 72
    65
 73
     0
 40
0.0
  0
LTYPE
  5
16
330
5
100
AcDbSymbolTableRecord
100
AcDbLinetypeTableRecord
  2
Continuous
 70
     0
  3
Solid line
 72
    65
 73
     0
 40
0.0
  0
ENDTAB
  0
TABLE
  2
LAYER
  5
2
102
{ACAD_XDICTIONARY
360
5C
102
}
330
0
100
AcDbSymbolTable
 70
    11
  0
LAYER
  5
10
102
{ACAD_XDICTIONARY
360
1B37
102
}
330
2
100
AcDbSymbolTableRecord
100
AcDbLayerTableRecord
  2
0
 70
     0
 62
     7
  6
Continuous
370
    -3
390
F
  0
LAYER
  5
2D
102
{ACAD_XDICTIONARY
360
1B39
102
}
330
2
100
AcDbSymbolTableRecord
100
AcDbLayerTableRecord
  2
gaikei
 70
     0
 62
     7
  6
Continuous
370
    -3
390
F
  0
LAYER
  5
2E
102
{ACAD_XDICTIONARY
360
1B3B
102
}
330
2
100
AcDbSymbolTableRecord
100
AcDbLayerTableRecord
  2
sumpo
 70
     0
 62
     4
  6
Continuous
370
    -3
390
F
  0
LAYER
  5
2F
102
{ACAD_XDICTIONARY
360
1B3D
102
}
330
2
100
AcDbSymbolTableRecord
100
AcDbLayerTableRecord
  2
fuzoku
 70
     0
 62
     3
  6
Continuous
370
    -3
390
F
  0
LAYER
  5
30
102
{ACAD_XDICTIONARY
360
1B3F
102
}
330
2
100
AcDbSymbolTableRecord
100
AcDbLayerTableRecord
  2
moji
 70
     0
 62
     2
  6
Continuous
370
    -3
390
F
  0
LAYER
  5
48
102
{ACAD_XDICTIONARY
360
1B41
102
}
330
2
100
AcDbSymbolTableRecord
100
AcDbLayerTableRecord
  2
hojo
 70
     0
 62
     6
  6
Continuous
370
    -3
390
F
  0
LAYER
  5
8F4
330
2
100
AcDbSymbolTableRecord
100
AcDbLayerTableRecord
  2
Defpoints
 70
     0
 62
     7
  6
Continuous
290
     0
370
    -3
390
F
  0
LAYER
  5
B26
102
{ACAD_XDICTIONARY
360
1B43
102
}
330
2
100
AcDbSymbolTableRecord
100
AcDbLayerTableRecord
  2
shiyouwaku
 70
     0
 62
     7
  6
Continuous
370
    -3
390
F
  0
LAYER
  5
B29
102
{ACAD_XDICTIONARY
360
1B45
102
}
330
2
100
AcDbSymbolTableRecord
100
AcDbLayerTableRecord
  2
zubanwaku
 70
     0
 62
     7
  6
Continuous
370
    -3
390
F
  0
LAYER
  5
B2A
102
{ACAD_XDICTIONARY
360
1B47
102
}
330
2
100
AcDbSymbolTableRecord
100
AcDbLayerTableRecord
  2
zubanmoji
 70
     0
 62
     3
  6
Continuous
370
    -3
390
F
  0
LAYER
  5
1832
102
{ACAD_XDICTIONARY
360
1B49
102
}
330
2
100
AcDbSymbolTableRecord
100
AcDbLayerTableRecord
  2
hacchi
 70
     0
 62
     6
  6
Continuous
370
    -3
390
F
  0
ENDTAB
  0
TABLE
  2
STYLE
  5
3
330
0
100
AcDbSymbolTable
 70
     3
  0
STYLE
  5
11
330
3
100
AcDbSymbolTableRecord
100
AcDbTextStyleTableRecord
  2
Standard
 70
     0
 40
0.0
 41
1.0
 50
0.0
 71
     0
 42
3.0
  3
romans.shx
  4
extfont.shx
  0
STYLE
  5
425
330
3
100
AcDbSymbolTableRecord
100
AcDbTextStyleTableRecord
  2
KKZ-Y
 70
     0
 40
0.0
 41
1.0
 50
0.0
 71
     0
 42
10.0
  3
TXT
  4
EXTFONT
  0
ENDTAB
  0
TABLE
  2
VIEW
  5
6
330
0
100
AcDbSymbolTable
 70
     0
  0
ENDTAB
  0
TABLE
  2
UCS
  5
7
330
0
100
AcDbSymbolTable
 70
     0
  0
ENDTAB
  0
TABLE
  2
APPID
  5
9
330
0
100
AcDbSymbolTable
 70
     6
  0
APPID
  5
12
330
9
100
AcDbSymbolTableRecord
100
AcDbRegAppTableRecord
  2
ACAD
 70
     0
  0
APPID
  5
51
330
9
100
AcDbSymbolTableRecord
100
AcDbRegAppTableRecord
  2
AcadAnnotative
 70
     0
  0
APPID
  5
52
330
9
100
AcDbSymbolTableRecord
100
AcDbRegAppTableRecord
  2
ACAD_DSTYLE_DIMJAG
 70
     0
  0
APPID
  5
53
330
9
100
AcDbSymbolTableRecord
100
AcDbRegAppTableRecord
  2
ACAD_DSTYLE_DIMTALN
 70
     0
  0
APPID
  5
54
330
9
100
AcDbSymbolTableRecord
100
AcDbRegAppTableRecord
  2
ACAD_PSEXT
 70
     0
  0
APPID
  5
1B2E
330
9
100
AcDbSymbolTableRecord
100
AcDbRegAppTableRecord
  2
ACAD_MLEADERVER
 70
     0
  0
ENDTAB
  0
TABLE
  2
DIMSTYLE
  5
A
330
0
100
AcDbSymbolTable
 70
     5
100
AcDbDimStyleTable
 71
     4
340
1439
340
29
340
4F
340
50
  0
DIMSTYLE
105
29
330
A
100
AcDbSymbolTableRecord
100
AcDbDimStyleTableRecord
  2
ISO-25
 70
     0
 41
8.0
 42
10.0
 43
3.75
 44
10.0
 73
     0
 74
     0
 77
     1
 78
     8
140
8.0
141
2.5
143
0.03937007874016
147
4.0
171
     3
172
     1
176
   256
177
   256
178
     4
271
     2
272
     2
274
     3
283
     0
284
     8
340
11
341
8EC
342
8EC
  0
DIMSTYLE
105
4F
330
A
100
AcDbSymbolTableRecord
100
AcDbDimStyleTableRecord
  2
Standard
 70
     0
340
11
  0
DIMSTYLE
105
50
330
A
100
AcDbSymbolTableRecord
100
AcDbDimStyleTableRecord
  2
Annotative
 70
     0
 40
0.0
340
11
1001
AcadAnnotative
1000
AnnotativeData
1002
{
1070
     1
1070
     1
1002
}
1001
ACAD_DSTYLE_DIMJAG
1070
   388
1040
1.5
1001
ACAD_DSTYLE_DIMTALN
1070
   392
1070
     0
  0
DIMSTYLE
105
1439
102
{ACAD_REACTORS
330
1A72
102
}
330
A
100
AcDbSymbolTableRecord
100
AcDbDimStyleTableRecord
  2
ISO-25-4mm
 70
     0
 41
3.0
 42
4.0
 43
3.75
 44
2.0
 73
     0
 74
     0
 77
     1
 78
     8
140
3.0
141
2.5
143
0.03937007874016
147
1.0
171
     3
172
     1
176
   256
177
   256
178
     4
271
     2
272
     2
274
     3
283
     0
284
     8
340
11
342
8EC
  0
ENDTAB
  0
TABLE
  2
BLOCK_RECORD
  5
1
330
0
100
AcDbSymbolTable
 70
     3
  0
BLOCK_RECORD
  5
21
330
1
100
AcDbSymbolTableRecord
100
AcDbBlockTableRecord
  2
*Model_Space
340
24
  0
BLOCK_RECORD
  5
17A6
330
1
100
AcDbSymbolTableRecord
100
AcDbBlockTableRecord
  2
*Paper_Space
340
17A7
  0
BLOCK_RECORD
  5
8EC
330
1
100
AcDbSymbolTableRecord
100
AcDbBlockTableRecord
  2
_Open30
340
0
102
{BLKREFS
331
1ACD
331
1ACE
102
}
  0
BLOCK_RECORD
  5
1A73
330
1
100
AcDbSymbolTableRecord
100
AcDbBlockTableRecord
  2
*D1
340
0
  0
ENDTAB
  0
ENDSEC
  0
SECTION
  2
BLOCKS
  0
BLOCK
  5
22
330
21
100
AcDbEntity
  8
0
100
AcDbBlockBegin
  2
*Model_Space
 70
     0
 10
0.0
 20
0.0
 30
0.0
  3
*Model_Space
  1

  0
ENDBLK
  5
23
330
21
100
AcDbEntity
  8
0
100
AcDbBlockEnd
  0
BLOCK
  5
17A8
330
17A6
100
AcDbEntity
 67
     1
  8
0
100
AcDbBlockBegin
  2
*Paper_Space
 70
     0
 10
0.0
 20
0.0
 30
0.0
  3
*Paper_Space
  1

  0
ENDBLK
  5
17A9
330
17A6
100
AcDbEntity
 67
     1
  8
0
100
AcDbBlockEnd
  0
BLOCK
  5
8F0
330
8EC
100
AcDbEntity
  8
0
100
AcDbBlockBegin
  2
_Open30
 70
     0
 10
0.0
 20
0.0
 30
0.0
  3
_Open30
  1

  0
LINE
  5
8ED
330
8EC
100
AcDbEntity
  8
0
  6
ByBlock
 62
     0
370
    -2
100
AcDbLine
 10
-1.0
 20
0.26794919
 30
0.0
 11
0.0
 21
0.0
 31
0.0
  0
LINE
  5
8EE
330
8EC
100
AcDbEntity
  8
0
  6
ByBlock
 62
     0
370
    -2
100
AcDbLine
 10
0.0
 20
0.0
 30
0.0
 11
-1.0
 21
-0.26794919
 31
0.0
  0
LINE
  5
8EF
330
8EC
100
AcDbEntity
  8
0
  6
ByBlock
 62
     0
370
    -2
100
AcDbLine
 10
0.0
 20
0.0
 30
0.0
 11
-1.0
 21
0.0
 31
0.0
  0
ENDBLK
  5
8F1
330
8EC
100
AcDbEntity
  8
0
100
AcDbBlockEnd
  0
BLOCK
  5
1A7D
330
1A73
100
AcDbEntity
  8
0
100
AcDbBlockBegin
  2
*D1
 70
     1
 10
0.0
 20
0.0
 30
0.0
  3
*D1
  1

  0
LINE
  5
1ACA
330
1A73
100
AcDbEntity
  8
sumpo
370
    -2
100
AcDbLine
 10
85.96428078258066
 20
201.7027189635788
 30
0.0
 11
85.96428078258066
 21
175.3276821977649
 31
0.0
  0
LINE
  5
1ACB
330
1A73
100
AcDbEntity
  8
sumpo
370
    -2
100
AcDbLine
 10
125.9642807825806
 20
201.7027189635788
 30
0.0
 11
125.9642807825806
 21
175.3276821977649
 31
0.0
  0
LINE
  5
1ACC
330
1A73
100
AcDbEntity
  8
sumpo
370
    -2
100
AcDbLine
 10
88.96428078258066
 20
177.3276821977649
 30
0.0
 11
122.9642807825806
 21
177.3276821977649
 31
0.0
  0
INSERT
  5
1ACD
330
1A73
100
AcDbEntity
  8
sumpo
370
    -2
100
AcDbBlockReference
  2
_Open30
 10
85.96428078258066
 20
177.3276821977649
 30
0.0
 41
3.0
 42
3.0
 43
3.0
 50
180.0
  0
INSERT
  5
1ACE
330
1A73
100
AcDbEntity
  8
sumpo
370
    -2
100
AcDbBlockReference
  2
_Open30
 10
125.9642807825806
 20
177.3276821977649
 30
0.0
 41
3.0
 42
3.0
 43
3.0
  0
MTEXT
  5
1ACF
330
1A73
100
AcDbEntity
  8
sumpo
 62
     4
100
AcDbMText
 10
105.9642807825806
 20
179.8276821977649
 30
0.0
 40
3.0
 41
0.0
 71
     5
 72
     1
  1
3.5±0.5mm
 73
     1
 44
1.0
  0
POINT
  5
1AD0
330
1A73
100
AcDbEntity
  8
Defpoints
 62
     0
100
AcDbPoint
 10
85.96428078258066
 20
205.7027189635788
 30
0.0
  0
POINT
  5
1AD1
330
1A73
100
AcDbEntity
  8
Defpoints
 62
     0
100
AcDbPoint
 10
125.9642807825806
 20
205.7027189635788
 30
0.0
  0
POINT
  5
1AD2
330
1A73
100
AcDbEntity
  8
Defpoints
 62
     0
100
AcDbPoint
 10
125.9642807825806
 20
177.3276821977649
 30
0.0
  0
ENDBLK
  5
1A7E
330
1A73
100
AcDbEntity
  8
0
100
AcDbBlockEnd
  0
ENDSEC
  0
SECTION
  2
ENTITIES
  0
TEXT
  5
12A3
330
21
100
AcDbEntity
  8
zubanmoji
100
AcDbText
 10
387.5794558289331
 20
727.3666329742143
 30
0.0
 40
8.0
  1
 
100
AcDbText
  0
TEXT
  5
12A5
330
21
100
AcDbEntity
  8
zubanmoji
100
AcDbText
 10
396.3118100227534
 20
658.3374339419963
 30
0.0
 40
5.0
  1

100
AcDbText
  0
LINE
  5
168E
330
21
100
AcDbEntity
  8
shiyouwaku
100
AcDbLine
 10
18.86920042624118
 20
123.5084160368033
 30
0.0
 11
18.86920042624118
 21
43.50841603680329
 31
0.0
  0
LINE
  5
1690
330
21
100
AcDbEntity
  8
shiyouwaku
100
AcDbLine
 10
63.86920042624118
 20
123.5084160368033
 30
0.0
 11
63.86920042624118
 21
43.50841603680328
 31
0.0
  0
LINE
  5
1692
330
21
100
AcDbEntity
  8
shiyouwaku
100
AcDbLine
 10
18.86920042624118
 20
123.5084160368033
 30
0.0
 11
198.8692004262413
 21
123.5084160368032
 31
0.0
  0
LINE
  5
1694
330
21
100
AcDbEntity
  8
shiyouwaku
100
AcDbLine
 10
18.86920042624118
 20
118.5084160368033
 30
0.0
 11
198.8692004262413
 21
118.5084160368033
 31
0.0
  0
LINE
  5
1696
330
21
100
AcDbEntity
  8
shiyouwaku
100
AcDbLine
 10
18.86920042624118
 20
108.5084160368033
 30
0.0
 11
198.8692004262412
 21
108.5084160368032
 31
0.0
  0
TEXT
  5
169B
330
21
100
AcDbEntity
  8
moji
100
AcDbText
 10
32.96920042624118
 20
119.6084160368033
 30
0.0
 40
3.0
  1
項　　　目
 72
     4
 11
41.36920042624118
 21
121.0084160368033
 31
0.0
100
AcDbText
  0
TEXT
  5
169C
330
21
100
AcDbEntity
  8
moji
100
AcDbText
 10
115.9692004262412
 20
119.5084160368033
 30
0.0
 40
3.0
  1
仕　　　　様
 72
     4
 11
126.3692004262412
 21
121.0084160368033
 31
0.0
100
AcDbText
  0
TEXT
  5
169E
330
21
100
AcDbEntity
  8
moji
100
AcDbText
 10
34.56920042624118
 20
114.5084160368033
 30
0.0
 40
3.0
  1
電極構造
 72
     4
 11
41.36920042624118
 21
116.0084160368033
 31
0.0
100
AcDbText
  0
TEXT
  5
16A5
330
21
100
AcDbEntity
  8
moji
100
AcDbText
 10
65.70792146355237
 20
89.50841603680329
 30
0.0
 40
3.0
  1
・導電率　水温：24℃、200μS/cm［5.0kΩ・cm］
 11
65.70792146355237
 21
91.00841603680329
 31
0.0
100
AcDbText
 73
     2
  0
TEXT
  5
16AB
330
21
100
AcDbEntity
  8
moji
100
AcDbText
 10
34.56920042624118
 20
59.5084160368033
 30
0.0
 40
3.0
  1
耐湿特性
 72
     4
 11
41.36920042624118
 21
61.00841603680329
 31
0.0
100
AcDbText
  0
TEXT
  5
16AC
330
21
100
AcDbEntity
  8
moji
100
AcDbText
 10
27.2834861405269
 20
64.5084160368033
 30
0.0
 40
3.0
  1
電極間抵抗（AC）
 72
     4
 11
41.36920042624118
 21
66.00841603680329
 31
0.0
100
AcDbText
  0
TEXT
  5
16B0
330
21
100
AcDbEntity
  8
moji
100
AcDbText
 10
65.70792146355237
 20
84.4554358283656
 30
0.0
 40
3.0
  1
・試験器　当社検知器　AD-AS-10DRM
 11
65.70792146355237
 21
85.9554358283656
 31
0.0
100
AcDbText
 73
     2
  0
TEXT
  5
16B2
330
21
100
AcDbEntity
  8
moji
100
AcDbText
 10
65.70792146355237
 20
79.5084160368033
 30
0.0
 40
3.0
  1
＊センサの敷設面の状態、環境、水質により電極間抵抗と水量は変化する
 11
65.70792146355237
 21
81.00841603680329
 31
0.0
100
AcDbText
 73
     2
  0
TEXT
  5
16B3
330
21
100
AcDbEntity
  8
moji
100
AcDbText
 10
65.70792146355237
 20
74.5084160368033
 30
0.0
 40
3.0
  1
漏水検知後、自然乾燥状態または水分の除去で復帰
 11
65.70792146355237
 21
76.00841603680329
 31
0.0
100
AcDbText
 73
     2
  0
TEXT
  5
16B5
330
21
100
AcDbEntity
  8
moji
100
AcDbText
 10
36.36920042624118
 20
49.40841603680329
 30
0.0
 40
3.0
  1
耐熱性
 72
     4
 11
41.36920042624118
 21
51.00841603680329
 31
0.0
100
AcDbText
  0
TEXT
  5
16B6
330
21
100
AcDbEntity
  8
moji
100
AcDbText
 10
38.16920042624118
 20
44.5084160368033
 30
0.0
 40
3.0
  1
重量
 72
     4
 11
41.36920042624118
 21
46.00841603680329
 31
0.0
100
AcDbText
  0
TEXT
  5
175C
330
21
100
AcDbEntity
  8
zubanmoji
100
AcDbText
 10
125.9658668796702
 20
-0.8297189947439704
 30
0.0
 40
2.0
  1
TATSUTA ELECTRIC WIRE & CABLE CO., LTD. 
 72
     1
 11
158.2134859272892
 21
0.1702810052560295
 31
0.0
100
AcDbText
 73
     2
  0
TEXT
  5
175F
330
21
100
AcDbEntity
  8
zubanmoji
100
AcDbText
 10
187.0629369420027
 20
10.68250963322315
 30
0.0
 40
3.0
  1
mm
 72
     1
 11
191.348651227717
 21
12.18250963322315
 31
0.0
100
AcDbText
 73
     2
  0
TEXT
  5
1760
330
21
100
AcDbEntity
  8
zubanmoji
100
AcDbText
 10
176.148651227717
 20
10.68250963322315
 30
0.0
 40
3.0
  1
単位
 72
     1
 11
179.348651227717
 21
12.18250963322315
 31
0.0
100
AcDbText
 73
     2
  0
TEXT
  5
1761
330
21
100
AcDbEntity
  8
zubanmoji
100
AcDbText
 10
141.9200797991456
 20
10.68250963322315
 30
0.0
 40
3.0
  1
AD-RS
 72
     1
 11
149.348651227717
 21
12.18250963322315
 31
0.0
100
AcDbText
 73
     2
  0
TEXT
  5
1762
330
21
100
AcDbEntity
  8
zubanmoji
100
AcDbText
 10
118.148651227717
 20
10.68250963322315
 30
0.0
 40
3.0
  1
型式
 72
     1
 11
121.348651227717
 21
12.18250963322315
 31
0.0
100
AcDbText
 73
     2
  0
TEXT
  5
1765
330
21
100
AcDbEntity
  8
zubanmoji
100
AcDbText
 10
145.448651227717
 20
16.68250963322316
 30
0.0
 40
3.0
  1
発色復帰型漏水センサ
 72
     1
 11
162.848651227717
 21
18.18250963322316
 31
0.0
100
AcDbText
 73
     2
  0
TEXT
  5
1766
330
21
100
AcDbEntity
  8
zubanmoji
100
AcDbText
 10
118.148651227717
 20
16.68250963322315
 30
0.0
 40
3.0
  1
名称
 72
     1
 11
121.348651227717
 21
18.18250963322315
 31
0.0
100
AcDbText
 73
     2
  0
LINE
  5
1767
330
21
100
AcDbEntity
  8
zubanwaku
100
AcDbLine
 10
198.348651227717
 20
21.18250963322315
 30
0.0
 11
198.348651227717
 21
-2.817490366776844
 31
0.0
  0
LINE
  5
1768
330
21
100
AcDbEntity
  8
zubanwaku
100
AcDbLine
 10
185.348651227717
 20
15.18250963322316
 30
0.0
 11
185.348651227717
 21
9.182509633223162
 31
0.0
  0
LINE
  5
1769
330
21
100
AcDbEntity
  8
zubanwaku
100
AcDbLine
 10
173.3486512277169
 20
15.18250963322316
 30
0.0
 11
173.348651227717
 21
9.182509633223162
 31
0.0
  0
LINE
  5
176A
330
21
100
AcDbEntity
  8
zubanwaku
100
AcDbLine
 10
127.348651227717
 20
21.18250963322315
 30
0.0
 11
127.348651227717
 21
3.182509633223157
 31
0.0
  0
LINE
  5
176C
330
21
100
AcDbEntity
  8
zubanwaku
100
AcDbLine
 10
115.348651227717
 20
-2.817490366776844
 30
0.0
 11
198.348651227717
 21
-2.817490366776844
 31
0.0
  0
LINE
  5
176D
330
21
100
AcDbEntity
  8
zubanwaku
100
AcDbLine
 10
115.348651227717
 20
9.182509633223155
 30
0.0
 11
198.348651227717
 21
9.182509633223162
 31
0.0
  0
LINE
  5
176E
330
21
100
AcDbEntity
  8
zubanwaku
100
AcDbLine
 10
115.348651227717
 20
15.18250963322315
 30
0.0
 11
198.348651227717
 21
15.18250963322316
 31
0.0
  0
LINE
  5
176F
330
21
100
AcDbEntity
  8
zubanwaku
100
AcDbLine
 10
115.348651227717
 20
21.18250963322315
 30
0.0
 11
198.348651227717
 21
21.18250963322316
 31
0.0
  0
LINE
  5
1770
330
21
100
AcDbEntity
  8
zubanwaku
100
AcDbLine
 10
115.348651227717
 20
21.18250963322315
 30
0.0
 11
115.348651227717
 21
-2.817490366776844
 31
0.0
  0
LINE
  5
17F5
330
21
100
AcDbEntity
  8
gaikei
100
AcDbLine
 10
61.2790776761849
 20
262.3302504418019
 30
0.0
 11
161.2790776761849
 21
262.3302504418019
 31
0.0
  0
LINE
  5
17F6
330
21
100
AcDbEntity
  8
gaikei
100
AcDbLine
 10
161.2790776761849
 20
262.3302504418019
 30
0.0
 11
161.2790776761849
 21
270.3302504418019
 31
0.0
  0
LINE
  5
17F7
330
21
100
AcDbEntity
  8
gaikei
100
AcDbLine
 10
161.2790776761849
 20
270.3302504418019
 30
0.0
 11
61.2790776761849
 21
270.3302504418019
 31
0.0
  0
LINE
  5
17F8
330
21
100
AcDbEntity
  8
gaikei
100
AcDbLine
 10
61.2790776761849
 20
270.3302504418019
 30
0.0
 11
61.2790776761849
 21
262.3302504418019
 31
0.0
  0
LINE
  5
17F9
330
21
100
AcDbEntity
  8
gaikei
100
AcDbLine
 10
141.2790776761849
 20
262.3302504418019
 30
0.0
 11
141.2790776761849
 21
270.3302504418019
 31
0.0
  0
LINE
  5
17FA
330
21
100
AcDbEntity
  8
gaikei
100
AcDbLine
 10
86.2790776761849
 20
270.3302504418019
 30
0.0
 11
86.2790776761849
 21
262.3302504418019
 31
0.0
  0
LINE
  5
1801
330
21
100
AcDbEntity
  8
gaikei
100
AcDbLine
 10
61.2790776761849
 20
265.8302504418019
 30
0.0
 11
51.2790776761849
 21
265.8302504418019
 31
0.0
  0
LINE
  5
1803
330
21
100
AcDbEntity
  8
gaikei
100
AcDbLine
 10
61.2790776761849
 20
263.3302504418019
 30
0.0
 11
51.2790776761849
 21
263.3302504418019
 31
0.0
  0
LINE
  5
1805
102
{ACAD_REACTORS
330
1AC6
102
}
330
21
100
AcDbEntity
  8
gaikei
100
AcDbLine
 10
51.2790776761849
 20
265.8302504418019
 30
0.0
 11
51.2790776761849
 21
263.3302504418019
 31
0.0
  0
LINE
  5
1806
330
21
100
AcDbEntity
  8
gaikei
100
AcDbLine
 10
141.2790776761849
 20
269.3302504418019
 30
0.0
 11
86.2790776761849
 21
269.3302504418019
 31
0.0
  0
LINE
  5
1809
330
21
100
AcDbEntity
  8
gaikei
100
AcDbLine
 10
141.2790776761849
 20
263.3302504418019
 30
0.0
 11
86.2790776761849
 21
263.3302504418019
 31
0.0
  0
LINE
  5
182E
102
{ACAD_REACTORS
330
1AC6
102
}
330
21
100
AcDbEntity
  8
gaikei
100
AcDbLine
 10
51.2790776761849
 20
265.0802504418019
 30
0.0
 11
47.27907767618489
 21
265.0802504418019
 31
0.0
  0
LINE
  5
182F
102
{ACAD_REACTORS
330
1AC6
102
}
330
21
100
AcDbEntity
  8
gaikei
100
AcDbLine
 10
51.2790776761849
 20
264.0802504418019
 30
0.0
 11
47.27907767618489
 21
264.0802504418019
 31
0.0
  0
LINE
  5
1830
102
{ACAD_REACTORS
330
1AC6
102
}
330
21
100
AcDbEntity
  8
gaikei
100
AcDbLine
 10
47.27907767618489
 20
265.0802504418019
 30
0.0
 11
47.27907767618489
 21
264.0802504418019
 31
0.0
  0
ARC
  5
186A
330
21
100
AcDbEntity
  8
gaikei
100
AcDbCircle
 10
101.2790776841321
 20
264.3500543445205
 30
0.0
 40
1.0
100
AcDbArc
 50
258.6900675259798
 51
281.3099324740201
  0
ARC
  5
186C
330
21
100
AcDbEntity
  8
gaikei
100
AcDbCircle
 10
101.2790776842915
 20
283.3302504418019
 30
0.0
 40
20.0
100
AcDbArc
 50
258.6900675318947
 51
281.3099324860093
  0
ARC
  5
186D
330
21
100
AcDbEntity
  8
gaikei
100
AcDbCircle
 10
101.2790776842915
 20
249.3302504418019
 30
0.0
 40
20.0
100
AcDbArc
 50
78.69006751399069
 51
101.3099324681053
  0
LINE
  5
186E
330
21
100
AcDbEntity
  8
gaikei
100
AcDbLine
 10
97.35675498355247
 20
263.7186369275786
 30
0.0
 11
86.2790776761849
 21
266.3302504418019
 31
0.0
  0
LINE
  5
186F
330
21
100
AcDbEntity
  8
gaikei
100
AcDbLine
 10
105.2014003911589
 20
263.7186369288043
 30
0.0
 11
108.7790776819879
 21
264.5620908512708
 31
0.0
  0
LINE
  5
1870
330
21
100
AcDbEntity
  8
gaikei
100
AcDbLine
 10
97.35675498355247
 20
268.9418639560253
 30
0.0
 11
92.93193465696367
 21
268.2981279057254
 31
0.0
  0
ARC
  5
1873
330
21
100
AcDbEntity
  8
gaikei
100
AcDbCircle
 10
86.27907767306005
 20
249.3302504418019
 30
0.0
 40
20.0
100
AcDbArc
 50
78.69006751399069
 51
89.99999999104799
  0
LINE
  5
1875
330
21
100
AcDbEntity
  8
gaikei
100
AcDbLine
 10
90.20140037992746
 20
263.7186369288043
 30
0.0
 11
93.77907767818587
 21
264.5620908521672
 31
0.0
  0
ARC
  5
1876
330
21
100
AcDbEntity
  8
gaikei
100
AcDbCircle
 10
86.27907767305993
 20
283.3302504418019
 30
0.0
 40
20.0
100
AcDbArc
 50
270.0000000089525
 51
281.3099324860097
  0
ARC
  5
1877
330
21
100
AcDbEntity
  8
gaikei
100
AcDbCircle
 10
116.2790776842915
 20
283.3302504418019
 30
0.0
 40
20.0
100
AcDbArc
 50
258.6900675318947
 51
281.3099324860093
  0
LINE
  5
1878
330
21
100
AcDbEntity
  8
gaikei
100
AcDbLine
 10
120.2014003911589
 20
263.7186369288043
 30
0.0
 11
123.7790776819879
 21
264.5620908512709
 31
0.0
  0
LINE
  5
1879
330
21
100
AcDbEntity
  8
gaikei
100
AcDbLine
 10
112.3567549835524
 20
263.7186369275786
 30
0.0
 11
90.20140034094559
 21
268.941863962596
 31
0.0
  0
ARC
  5
187A
330
21
100
AcDbEntity
  8
gaikei
100
AcDbCircle
 10
131.2790776842916
 20
283.3302504418019
 30
0.0
 40
20.0
100
AcDbArc
 50
258.6900675318947
 51
281.3099324860093
  0
LINE
  5
187B
330
21
100
AcDbEntity
  8
gaikei
100
AcDbLine
 10
135.2014003911589
 20
263.7186369288043
 30
0.0
 11
138.7790776819879
 21
264.5620908512709
 31
0.0
  0
LINE
  5
187C
330
21
100
AcDbEntity
  8
gaikei
100
AcDbLine
 10
127.3567549835525
 20
263.7186369275786
 30
0.0
 11
105.2014002781261
 21
268.9418639774062
 31
0.0
  0
LINE
  5
187E
330
21
100
AcDbEntity
  8
gaikei
100
AcDbLine
 10
141.2790776761849
 20
263.9727043229179
 30
0.0
 11
120.2014003409546
 21
268.9418639625941
 31
0.0
  0
ARC
  5
1880
330
21
100
AcDbEntity
  8
gaikei
100
AcDbCircle
 10
116.2790776730599
 20
249.3302504418019
 30
0.0
 40
20.0
100
AcDbArc
 50
78.69006751399069
 51
101.3099324681053
  0
LINE
  5
1881
330
21
100
AcDbEntity
  8
gaikei
100
AcDbLine
 10
112.3567549723209
 20
268.9418639560253
 30
0.0
 11
107.9319346457321
 21
268.2981279057254
 31
0.0
  0
LINE
  5
1882
330
21
100
AcDbEntity
  8
gaikei
100
AcDbLine
 10
135.2014003799274
 20
268.9418639547996
 30
0.0
 11
141.2790776761849
 21
267.5090235004202
 31
0.0
  0
ARC
  5
1883
330
21
100
AcDbEntity
  8
gaikei
100
AcDbCircle
 10
131.27907767306
 20
249.3302504418019
 30
0.0
 40
20.0
100
AcDbArc
 50
78.69006751399069
 51
101.3099324681053
  0
LINE
  5
1884
330
21
100
AcDbEntity
  8
gaikei
100
AcDbLine
 10
127.3567549723209
 20
268.9418639560253
 30
0.0
 11
122.9319346457321
 21
268.2981279057254
 31
0.0
  0
TEXT
  5
1964
330
21
100
AcDbEntity
  8
moji
100
AcDbText
 10
65.70792146355237
 20
114.5084160368033
 30
0.0
 40
3.0
  1
材料：錫メッキ軟銅撚り線
 11
65.70792146355237
 21
116.0084160368033
 31
0.0
100
AcDbText
 73
     2
  0
TEXT
  5
1965
330
21
100
AcDbEntity
  8
moji
100
AcDbText
 10
65.70792146355237
 20
109.5084160368033
 30
0.0
 40
3.0
  1
構造：素線径0.18mm×13本（0.33mm）
 11
65.70792146355237
 21
111.0084160368034
 31
0.0
100
AcDbText
 73
     2
  0
TEXT
  5
1967
330
21
100
AcDbEntity
  8
moji
100
AcDbText
 10
65.70792146355237
 20
104.5084160368033
 30
0.0
 40
3.0
  1
電極間抵抗が3.0ml以下の水量（市水）で5kΩ（AC）以下
 11
65.70792146355237
 21
106.0084160368033
 31
0.0
100
AcDbText
 73
     2
  0
TEXT
  5
1968
330
21
100
AcDbEntity
  8
moji
100
AcDbText
 10
65.70792146355238
 20
99.50841603680332
 30
0.0
 40
3.0
  1
・滴下量　センサに直接滴下（0.05ml/秒）
 11
65.70792146355238
 21
101.0084160368033
 31
0.0
100
AcDbText
 73
     2
  0
TEXT
  5
1969
330
21
100
AcDbEntity
  8
moji
100
AcDbText
 10
65.70792146355238
 20
94.50841603680332
 30
0.0
 40
3.0
  1
・測定環境　温度：24℃、湿度：60％RH
 11
65.70792146355238
 21
96.00841603680333
 31
0.0
100
AcDbText
 73
     2
  0
LINE
  5
198D
330
21
100
AcDbEntity
  8
shiyouwaku
100
AcDbLine
 10
198.8692004262413
 20
123.5084160368032
 30
0.0
 11
198.8692004262411
 21
43.50841603680325
 31
0.0
  0
LINE
  5
198E
330
21
100
AcDbEntity
  8
shiyouwaku
100
AcDbLine
 10
18.86920042624118
 20
68.50841603680329
 30
0.0
 11
198.8692004262412
 21
68.50841603680327
 31
0.0
  0
LINE
  5
198F
330
21
100
AcDbEntity
  8
shiyouwaku
100
AcDbLine
 10
18.86920042624118
 20
63.50841603680329
 30
0.0
 11
198.8692004262412
 21
63.50841603680327
 31
0.0
  0
LINE
  5
1991
330
21
100
AcDbEntity
  8
shiyouwaku
100
AcDbLine
 10
18.86920042624118
 20
53.50841603680329
 30
0.0
 11
198.8692004262412
 21
53.50841603680327
 31
0.0
  0
LINE
  5
1992
330
21
100
AcDbEntity
  8
shiyouwaku
100
AcDbLine
 10
18.86920042624118
 20
48.50841603680329
 30
0.0
 11
198.8692004262412
 21
48.50841603680327
 31
0.0
  0
LINE
  5
1993
330
21
100
AcDbEntity
  8
shiyouwaku
100
AcDbLine
 10
18.86920042624118
 20
43.50841603680329
 30
0.0
 11
198.8692004262411
 21
43.50841603680325
 31
0.0
  0
TEXT
  5
1994
330
21
100
AcDbEntity
  8
moji
100
AcDbText
 10
65.70792146355237
 20
69.50841603680328
 30
0.0
 40
3.0
  1
但し、漏水の中に導電性、撥水性等の汚染物質が含まれている場合は再使用不可
 11
65.70792146355237
 21
71.00841603680328
 31
0.0
100
AcDbText
 73
     2
  0
TEXT
  5
1995
330
21
100
AcDbEntity
  8
moji
100
AcDbText
 10
65.70792146355237
 20
64.45543582836558
 30
0.0
 40
3.0
  1
10MΩ以上/100m　（測定環境　温度：24℃、湿度：60％RH）
 11
65.70792146355237
 21
65.95543582836558
 31
0.0
100
AcDbText
 73
     2
  0
TEXT
  5
1996
330
21
100
AcDbEntity
  8
moji
100
AcDbText
 10
65.70792146355237
 20
59.50841603680328
 30
0.0
 40
3.0
  1
高湿雰囲気中でも結露が無い限り電極間抵抗は
 11
65.70792146355237
 21
61.00841603680328
 31
0.0
100
AcDbText
 73
     2
  0
TEXT
  5
1997
330
21
100
AcDbEntity
  8
moji
100
AcDbText
 10
65.70792146355237
 20
54.50841603680328
 30
0.0
 40
3.0
  1
100kΩ以上/100m　（測定環境　温度：60℃、湿度：95％RH）
 11
65.70792146355237
 21
56.00841603680328
 31
0.0
100
AcDbText
 73
     2
  0
TEXT
  5
1999
330
21
100
AcDbEntity
  8
moji
100
AcDbText
 10
65.70792146355237
 20
49.5084160368033
 30
0.0
 40
3.0
  1
連続使用温度　60℃以下（材料耐熱温度：80℃）
 11
65.70792146355237
 21
51.00841603680329
 31
0.0
100
AcDbText
 73
     2
  0
TEXT
  5
199A
330
21
100
AcDbEntity
  8
moji
100
AcDbText
 10
65.70792146355237
 20
44.5084160368033
 30
0.0
 40
3.0
  1
10.5±1.0g/m
 11
65.70792146355237
 21
46.00841603680329
 31
0.0
100
AcDbText
 73
     2
  0
TEXT
  5
199B
330
21
100
AcDbEntity
  8
moji
100
AcDbText
 10
34.56920042624118
 20
104.5084160368033
 30
0.0
 40
3.0
  1
検知特性
 72
     4
 11
41.36920042624118
 21
106.0084160368033
 31
0.0
100
AcDbText
  0
LINE
  5
199D
330
21
100
AcDbEntity
  8
zubanwaku
100
AcDbLine
 10
115.348651227717
 20
3.182509633223155
 30
0.0
 11
198.348651227717
 21
3.182509633223162
 31
0.0
  0
TEXT
  5
199E
330
21
100
AcDbEntity
  8
zubanmoji
100
AcDbText
 10
118.048651227717
 20
4.682509633223155
 30
0.0
 40
3.0
  1
図番
 72
     1
 11
121.348651227717
 21
6.182509633223155
 31
0.0
100
AcDbText
 73
     2
  0
TEXT
  5
199F
330
21
100
AcDbEntity
  8
zubanmoji
100
AcDbText
 10
142.0629369420027
 20
4.68250963322316
 30
0.0
 40
3.0
  1
TS-KS-W11608-1
 72
     1
 11
162.848651227717
 21
6.18250963322316
 31
0.0
100
AcDbText
 73
     2
  0
TEXT
  5
19D2
330
21
100
AcDbEntity
  8
moji
100
AcDbText
 10
91.82079684658061
 20
237.9157125643232
 30
0.0
 40
3.0
  1
AD-RSセンサ姿図
 11
91.82079684658061
 21
239.4157125643232
 31
0.0
100
AcDbText
 73
     2
  0
LINE
  5
19D4
330
21
100
AcDbEntity
  8
shiyouwaku
100
AcDbLine
 10
90.52449624387577
 20
236.7713829577823
 30
0.0
 11
125.9670205584166
 21
236.7713829577823
 31
0.0
  0
TEXT
  5
19D5
330
21
100
AcDbEntity
  8
moji
100
AcDbText
 10
87.10257850296159
 20
159.1271447622524
 30
0.0
 40
3.0
  1
AD-RSセンサ断面図
 11
87.10257850296159
 21
160.6271447622525
 31
0.0
100
AcDbText
 73
     2
  0
LINE
  5
19D6
330
21
100
AcDbEntity
  8
shiyouwaku
100
AcDbLine
 10
85.80627790025676
 20
157.9828151557116
 30
0.0
 11
125.3292117998293
 21
157.9828151557116
 31
0.0
  0
LEADER
  5
1A0E
330
21
100
AcDbEntity
  8
sumpo
100
AcDbLeader
  3
ISO-25-4mm
 73
     0
 40
3.0
 41
6.600000000000001
 76
     3
 10
56.11393189497175
 20
268.3111812317729
 30
0.0
 10
63.43313055070613
 20
280.9884051741946
 30
0.0
 10
65.1557518766067
 20
280.9884051741946
 30
0.0
340
1A0F
213
0.0
223
-1.5
233
0.0
1001
ACAD
1000
DSTYLE
1002
{
1070
   147
1040
1.0
1070
    77
1070
     0
1002
}
  0
MTEXT
  5
1A0F
102
{ACAD_REACTORS
330
1A0E
102
}
330
21
100
AcDbEntity
  8
sumpo
 62
     4
100
AcDbMText
 10
66.1557518766067
 20
282.4884051741947
 30
0.0
 40
3.0
 41
0.0
 71
     1
 72
     1
  1
電極
 73
     1
 44
1.0
  0
LEADER
  5
1A15
330
21
100
AcDbEntity
  8
sumpo
100
AcDbLeader
  3
ISO-25-4mm
 73
     0
 40
3.0
 41
13.82857142857143
 76
     3
 10
151.2522032168467
 20
266.9666140016488
 30
0.0
 10
157.4335384971494
 20
277.6730007657509
 30
0.0
 10
159.6481785094406
 20
277.6730007657509
 30
0.0
340
1A16
213
0.0
223
-1.5
233
0.0
1001
ACAD
1000
DSTYLE
1002
{
1070
   147
1040
1.0
1070
    77
1070
     0
1002
}
  0
MTEXT
  5
1A16
102
{ACAD_REACTORS
330
1A15
102
}
330
21
100
AcDbEntity
  8
sumpo
 62
     4
100
AcDbMText
 10
160.6481785094406
 20
279.173000765751
 30
0.0
 40
3.0
 41
0.0
 71
     1
 72
     1
  1
外部編組
 73
     1
 44
1.0
  0
LEADER
  5
1A17
330
21
100
AcDbEntity
  8
sumpo
100
AcDbLeader
  3
ISO-25-4mm
 73
     0
 40
3.0
 41
28.37142857142858
 76
     3
 10
115.3523828292203
 20
217.8213547974058
 30
0.0
 10
120.083011497763
 20
226.0150440030638
 30
0.0
 10
121.2311594205883
 20
226.0150440030638
 30
0.0
340
1A18
213
0.0
223
-1.5
233
0.0
1001
ACAD
1000
DSTYLE
1002
{
1070
   147
1040
1.0
1070
    77
1070
     0
1002
}
  0
MTEXT
  5
1A18
102
{ACAD_REACTORS
330
1A17
102
}
330
21
100
AcDbEntity
  8
sumpo
 62
     4
100
AcDbMText
 10
122.2311594205883
 20
227.5150440030637
 30
0.0
 40
3.0
 41
0.0
 71
     1
 72
     1
  1
外部編組（白色）
 73
     1
 44
1.0
  0
ELLIPSE
  5
1A32
102
{ACAD_REACTORS
330
1A89
102
}
330
21
100
AcDbEntity
  8
gaikei
100
AcDbEllipse
 10
105.9642807825806
 20
205.7027189635788
 30
0.0
 11
-20.0
 21
0.0
 31
0.0
210
0.0
220
0.0
230
1.0
 40
0.75
 41
0.0
 42
6.283185307179586
  0
SPLINE
  5
1A33
330
21
100
AcDbEntity
  8
gaikei
100
AcDbSpline
210
0.0
220
0.0
230
1.0
 70
    11
 71
     3
 72
    50
 73
    46
 74
     0
 42
0.0000000001
 43
0.0000000001
 40
0.0
 40
0.0
 40
0.0
 40
0.0
 40
0.2474128713954126
 40
0.2474128713954126
 40
0.5397689217258544
 40
0.5397689217258544
 40
0.832124972056296
 40
0.832124972056296
 40
1.124481022386737
 40
1.124481022386737
 40
1.416837072717179
 40
1.416837072717179
 40
1.70919312304762
 40
1.70919312304762
 40
2.001549173378062
 40
2.001549173378062
 40
2.293905223708504
 40
2.293905223708504
 40
2.586261274038946
 40
2.586261274038946
 40
2.878617324369388
 40
2.878617324369388
 40
3.17097337469983
 40
3.17097337469983
 40
3.463329425030272
 40
3.463329425030272
 40
3.755685475360714
 40
3.755685475360714
 40
4.048041525691155
 40
4.048041525691155
 40
4.340397576021597
 40
4.340397576021597
 40
4.632753626352039
 40
4.632753626352039
 40
4.925109676682481
 40
4.925109676682481
 40
5.217465727012923
 40
5.217465727012923
 40
5.509821777343365
 40
5.509821777343365
 40
5.802177827673807
 40
5.802177827673807
 40
6.094533878004249
 40
6.094533878004249
 40
6.283185307179586
 40
6.283185307179586
 40
6.283185307179586
 40
6.283185307179586
 10
87.96428078258065
 20
205.7027189635788
 30
0.0
 10
87.96428078258065
 20
204.6855771589533
 30
0.0
 10
88.13181865370342
 20
203.6678746507149
 30
0.0
 10
88.86675773309795
 20
201.4856471877734
 30
0.0
 10
89.50323490652918
 20
200.327434420474
 30
0.0
 10
91.2375003254999
 20
198.1564023946449
 30
0.0
 10
92.33567942920144
 20
197.1451980350267
 30
0.0
 10
94.91662953368503
 20
195.3824295599131
 30
0.0
 10
96.39865019489219
 20
194.6317134189286
 30
0.0
 10
99.61529698924293
 20
193.477294358458
 30
0.0
 10
101.3491868318956
 20
193.0738245408994
 30
0.0
 10
104.9077451762396
 20
192.6596420987837
 30
0.0
 10
106.7317922099933
 20
192.6489727786507
 30
0.0
 10
110.2993859848263
 20
193.0216629460341
 30
0.0
 10
112.0423143989711
 20
193.4049842172054
 30
0.0
 10
115.2850865252484
 20
194.5226036855672
 30
0.0
 10
116.7842018113493
 20
195.2566861826065
 30
0.0
 10
119.4052420174099
 20
196.9916510496046
 30
0.0
 10
120.5264018115271
 20
197.9917332480497
 30
0.0
 10
122.3091596237981
 20
200.1466796945865
 30
0.0
 10
122.9710401397276
 20
201.2999343567735
 30
0.0
 10
123.817541625862
 20
203.6582279111832
 30
0.0
 10
124.0042702509397
 20
204.8634045427002
 30
0.0
 10
123.9100955064178
 20
207.266706130059
 30
0.0
 10
123.6287878705195
 20
208.4672604241451
 30
0.0
 10
122.5920060607655
 20
210.8001266749101
 30
0.0
 10
121.8345927765207
 20
211.9319063142016
 30
0.0
 10
119.8713739564178
 20
214.0203525839492
 30
0.0
 10
118.6656492825054
 20
214.9754940159115
 30
0.0
 10
115.8989952396522
 20
216.6004079719299
 30
0.0
 10
114.3388621589027
 20
217.2695464326309
 30
0.0
 10
111.0051919030174
 20
218.2450348281681
 30
0.0
 10
109.2323540040772
 20
218.5512249078796
 30
0.0
 10
105.6392712274182
 20
218.7662820301164
 30
0.0
 10
103.8196358538127
 20
218.6751282087843
 30
0.0
 10
100.3037509597903
 20
218.1055854481581
 30
0.0
 10
98.60813780696219
 20
217.6272616854878
 30
0.0
 10
95.49765861038958
 20
216.337393949754
 30
0.0
 10
94.08355752469081
 20
215.5261603918845
 30
0.0
 10
91.65933182596669
 20
213.6636938762612
 30
0.0
 10
90.64987001927864
 20
212.6135000376326
 30
0.0
 10
89.10082888991217
 20
210.3874059114711
 30
0.0
 10
88.56041672159191
 20
209.2130565148411
 30
0.0
 10
88.06171591295081
 20
207.2540046602044
 30
0.0
 10
87.96428078258065
 20
206.4782859501885
 30
0.0
 10
87.96428078258065
 20
205.7027189635788
 30
0.0
  0
CIRCLE
  5
1A35
330
21
100
AcDbEntity
  8
gaikei
100
AcDbCircle
 10
114.967858295592
 20
205.4493861770598
 30
0.0
 40
9.000000000000005
  0
CIRCLE
  5
1A36
330
21
100
AcDbEntity
  8
gaikei
100
AcDbCircle
 10
96.96402554852154
 20
205.6349388195831
 30
0.0
 40
9.0
  0
CIRCLE
  5
1A37
102
{ACAD_REACTORS
330
1A55
102
}
330
21
100
AcDbEntity
  8
gaikei
100
AcDbCircle
 10
114.967858295592
 20
205.4493861770598
 30
0.0
 40
6.000000000000005
  0
CIRCLE
  5
1A38
102
{ACAD_REACTORS
330
1A55
102
}
330
21
100
AcDbEntity
  8
gaikei
100
AcDbCircle
 10
96.96402554852154
 20
205.6349388195831
 30
0.0
 40
6.0
  0
HATCH
  5
1A55
330
21
100
AcDbEntity
  8
hacchi
100
AcDbHatch
 10
0.0
 20
0.0
 30
0.0
210
0.0
220
0.0
230
1.0
  2
ANSI31
 70
     0
 71
     1
 91
        2
 92
        7
 72
     1
 73
     1
 93
        2
 10
120.967858295592
 20
205.4493861770598
 42
1.0
 10
108.967858295592
 20
205.4493861770598
 42
1.0
 97
        1
330
1A37
 92
        7
 72
     1
 73
     1
 93
        2
 10
102.9640255485215
 20
205.6349388195831
 42
1.0
 10
90.96402554852152
 20
205.6349388195831
 42
1.0
 97
        1
330
1A38
 75
     0
 76
     1
 52
0.0
 41
0.25
 77
     0
 78
     1
 53
45.0
 43
-63.03745438219596
 44
22.37844651411987
 45
-0.5612660075668221
 46
0.5612660075668221
 79
     0
 47
0.1227233664169731
 98
        2
 10
113.5909960836617
 20
205.2118254190995
 10
97.26053720716198
 20
204.230039033814
  0
MTEXT
  5
1A56
102
{ACAD_REACTORS
330
1A57
102
}
330
21
100
AcDbEntity
  8
sumpo
 62
     4
100
AcDbMText
 10
131.0106358043089
 20
220.4128647491216
 30
0.0
 40
3.0
 41
0.0
 71
     1
 72
     1
  1
内部編組（赤色）
 73
     1
 44
1.0
  0
LEADER
  5
1A57
330
21
100
AcDbEntity
  8
sumpo
100
AcDbLeader
  3
ISO-25-4mm
 73
     0
 40
3.0
 41
28.17142857142858
 76
     3
 10
121.9592665339284
 20
208.4967043283731
 30
0.0
 10
127.9730395567699
 20
218.9128647491216
 30
0.0
 10
130.0106358043089
 20
218.9128647491216
 30
0.0
340
1A56
213
0.0
223
-1.5
233
0.0
1001
ACAD
1000
DSTYLE
1002
{
1070
   147
1040
1.0
1070
    77
1070
     0
1002
}
  0
DIMENSION
  5
1A72
102
{ACAD_XDICTIONARY
360
1A7F
102
}
102
{ACAD_REACTORS
330
1A89
102
}
330
21
100
AcDbEntity
  8
sumpo
100
AcDbDimension
  2
*D1
 10
125.9642807825806
 20
177.3276821977649
 30
0.0
 11
105.9642807825806
 21
179.8276821977649
 31
0.0
 70
    32
  1
3.5±0.5mm
 71
     5
 42
40.0
  3
ISO-25-4mm
100
AcDbAlignedDimension
 13
85.96428078258066
 23
205.7027189635788
 33
0.0
 14
125.9642807825806
 24
205.7027189635788
 34
0.0
100
AcDbRotatedDimension
  0
LEADER
  5
1A8A
330
21
100
AcDbEntity
  8
sumpo
100
AcDbLeader
  3
ISO-25-4mm
 73
     0
 40
3.0
 41
6.600000000000001
 76
     2
 10
116.8875517368939
 20
205.1893986568749
 30
0.0
 10
133.0861025227412
 20
205.1893986568749
 30
0.0
340
1A8B
213
0.0
223
-1.5
233
0.0
1001
ACAD
1000
DSTYLE
1002
{
1070
   147
1040
1.0
1070
    77
1070
     0
1002
}
  0
MTEXT
  5
1A8B
102
{ACAD_REACTORS
330
1A8A
102
}
330
21
100
AcDbEntity
  8
sumpo
 62
     4
100
AcDbMText
 10
134.0861025227412
 20
206.6893986568749
 30
0.0
 40
3.0
 41
0.0
 71
     1
 72
     1
  1
電極
 73
     1
 44
1.0
  0
LINE
  5
1AA0
102
{ACAD_REACTORS
330
1AC6
102
}
330
21
100
AcDbEntity
  8
gaikei
100
AcDbLine
 10
47.27907767618489
 20
267.5802504418019
 30
0.0
 11
47.27907767618489
 21
268.5802504418019
 31
0.0
  0
LINE
  5
1AA1
102
{ACAD_REACTORS
330
1AC6
102
}
330
21
100
AcDbEntity
  8
gaikei
100
AcDbLine
 10
51.2790776761849
 20
268.5802504418019
 30
0.0
 11
47.27907767618489
 21
268.5802504418019
 31
0.0
  0
LINE
  5
1AA2
102
{ACAD_REACTORS
330
1AC6
102
}
330
21
100
AcDbEntity
  8
gaikei
100
AcDbLine
 10
51.2790776761849
 20
267.5802504418019
 30
0.0
 11
47.27907767618489
 21
267.5802504418019
 31
0.0
  0
LINE
  5
1AA3
102
{ACAD_REACTORS
330
1AC6
102
}
330
21
100
AcDbEntity
  8
gaikei
100
AcDbLine
 10
51.2790776761849
 20
266.8302504418019
 30
0.0
 11
51.2790776761849
 21
269.3302504418019
 31
0.0
  0
LINE
  5
1AA4
330
21
100
AcDbEntity
  8
gaikei
100
AcDbLine
 10
61.2790776761849
 20
269.3302504418019
 30
0.0
 11
51.2790776761849
 21
269.3302504418019
 31
0.0
  0
LINE
  5
1AA5
330
21
100
AcDbEntity
  8
gaikei
100
AcDbLine
 10
61.2790776761849
 20
266.8302504418019
 30
0.0
 11
51.2790776761849
 21
266.8302504418019
 31
0.0
  0
HATCH
  5
1AC6
330
21
100
AcDbEntity
  8
hacchi
100
AcDbHatch
 10
0.0
 20
0.0
 30
0.0
210
0.0
220
0.0
230
1.0
  2
SOLID
 70
     1
 71
     1
 91
        2
 92
        7
 72
     0
 73
     1
 93
        4
 10
47.27907767618488
 20
268.5802504418019
 10
47.27907767618489
 20
267.5802504418019
 10
51.2790776761849
 20
267.580250441802
 10
51.27907767618489
 20
268.5802504418019
 97
        4
330
1AA1
330
1AA0
330
1AA2
330
1AA3
 92
        7
 72
     0
 73
     1
 93
        4
 10
47.2790776761849
 20
265.0802504418019
 10
47.27907767618489
 20
264.0802504418019
 10
51.2790776761849
 20
264.080250441802
 10
51.27907767618489
 20
265.0802504418019
 97
        4
330
182E
330
1830
330
182F
330
1805
 75
     0
 76
     1
 47
0.063530816689122
 98
        2
 10
49.0914709372355
 20
268.2761518237661
 10
49.15503318393803
 20
264.6548950473108
450
        0
451
        0
460
0.0
461
0.0
452
        1
462
1.0
453
        2
463
0.0
 63
     5
421
      255
463
1.0
 63
    51
421
 16777113
470
LINEAR
  0
MTEXT
  5
1AC7
102
{ACAD_REACTORS
330
1AC8
102
}
330
21
100
AcDbEntity
  8
sumpo
 62
     4
100
AcDbMText
 10
113.207397789673
 20
280.3601787450228
 30
0.0
 40
3.0
 41
0.0
 71
     1
 72
     1
  1
内部編組
 73
     1
 44
1.0
  0
LEADER
  5
1AC8
330
21
100
AcDbEntity
  8
sumpo
100
AcDbLeader
  3
ISO-25-4mm
 73
     0
 40
3.0
 41
13.62857142857142
 76
     3
 10
103.8114224970791
 20
268.1537919809206
 30
0.0
 10
109.9927577773817
 20
278.8601787450228
 30
0.0
 10
112.207397789673
 20
278.8601787450228
 30
0.0
340
1AC7
213
0.0
223
-1.5
233
0.0
1001
ACAD
1000
DSTYLE
1002
{
1070
   147
1040
1.0
1070
    77
1070
     0
1002
}
  0
LINE
  5
1AD3
330
21
100
AcDbEntity
  8
shiyouwaku
100
AcDbLine
 10
18.86920042624118
 20
78.50841603680322
 30
0.0
 11
198.8692004262413
 21
78.50841603680322
 31
0.0
  0
TEXT
  5
1AD4
330
21
100
AcDbEntity
  8
moji
100
AcDbText
 10
34.56920042624118
 20
74.50841603680323
 30
0.0
 40
3.0
  1
復帰特性
 72
     4
 11
41.36920042624118
 21
76.00841603680322
 31
0.0
100
AcDbText
  0
VIEWPORT
  5
17AD
330
17A6
100
AcDbEntity
 67
     1
  8
0
100
AcDbViewport
 10
100.8062472343445
 20
142.6527438163757
 30
0.0
 40
505.8960447012031
 41
314.1924854736328
 68
     1
 69
     1
 12
100.8062472343445
 22
142.6527438163757
 13
0.0
 23
0.0
 14
10.0
 24
10.0
 15
10.0
 25
10.0
 16
0.0
 26
0.0
 36
1.0
 17
0.0
 27
0.0
 37
0.0
 42
50.0
 43
0.0
 44
0.0
 45
314.1924854736328
 50
0.0
 51
0.0
 72
  1000
 90
    32800
  1

281
     0
 71
     1
 74
     0
110
0.0
120
0.0
130
0.0
111
1.0
121
0.0
131
0.0
112
0.0
122
1.0
132
0.0
 79
     0
146
0.0
170
     0
  0
VIEWPORT
  5
17AF
330
17A6
100
AcDbEntity
 67
     1
  8
moji
100
AcDbViewport
 10
101.2253826490373
 20
146.2135919136789
 30
0.0
 40
184.4194364075515
 41
268.1109212418202
 68
     2
 69
     2
 12
107.6172238237136
 22
147.1243299939954
 13
0.0
 23
0.0
 14
10.0
 24
10.0
 15
10.0
 25
10.0
 16
0.0
 26
0.0
 36
1.0
 17
0.0
 27
0.0
 37
0.0
 42
50.0
 43
0.0
 44
0.0
 45
317.2777898680465
 50
0.0
 51
0.0
 72
  1000
 90
    32864
  1

281
     0
 71
     1
 74
     0
110
0.0
120
0.0
130
0.0
111
1.0
121
0.0
131
0.0
112
0.0
122
1.0
132
0.0
 79
     0
146
0.0
170
     0
  0
ENDSEC
  0
SECTION
  2
OBJECTS
  0
DICTIONARY
  5
C
330
0
100
AcDbDictionary
281
     1
  3
ACAD_COLOR
350
1C
  3
ACAD_GROUP
350
D
  3
ACAD_LAYOUT
350
1A
  3
ACAD_MATERIAL
350
1B
  3
ACAD_MLEADERSTYLE
350
1B2C
  3
ACAD_MLINESTYLE
350
17
  3
ACAD_PLOTSETTINGS
350
19
  3
ACAD_PLOTSTYLENAME
350
E
  3
ACAD_SCALELIST
350
1B0A
  3
ACAD_TABLESTYLE
350
1B08
  3
ACAD_VISUALSTYLE
350
1AF7
  3
AcadDim
350
1A06
  3
ACDB_RECOMPOSE_DATA
350
1B59
  3
AcDbVariableDictionary
350
1B53
  0
DICTIONARY
  5
5C
330
2
100
AcDbDictionary
280
     1
281
     1
  3
ACAD_LAYERFILTERS
360
89B
  3
ACAD_LAYERSTATES
360
5D
  0
DICTIONARY
  5
1B37
330
10
100
AcDbDictionary
280
     1
281
     1
  3
ADSK_XREC_LAYER_RECONCILED
360
1B38
  0
DICTIONARY
  5
1B39
330
2D
100
AcDbDictionary
280
     1
281
     1
  3
ADSK_XREC_LAYER_RECONCILED
360
1B3A
  0
DICTIONARY
  5
1B3B
330
2E
100
AcDbDictionary
280
     1
281
     1
  3
ADSK_XREC_LAYER_RECONCILED
360
1B3C
  0
DICTIONARY
  5
1B3D
330
2F
100
AcDbDictionary
280
     1
281
     1
  3
ADSK_XREC_LAYER_RECONCILED
360
1B3E
  0
DICTIONARY
  5
1B3F
330
30
100
AcDbDictionary
280
     1
281
     1
  3
ADSK_XREC_LAYER_RECONCILED
360
1B40
  0
DICTIONARY
  5
1B41
330
48
100
AcDbDictionary
280
     1
281
     1
  3
ADSK_XREC_LAYER_RECONCILED
360
1B42
  0
DICTIONARY
  5
1B43
330
B26
100
AcDbDictionary
280
     1
281
     1
  3
ADSK_XREC_LAYER_RECONCILED
360
1B44
  0
DICTIONARY
  5
1B45
330
B29
100
AcDbDictionary
280
     1
281
     1
  3
ADSK_XREC_LAYER_RECONCILED
360
1B46
  0
DICTIONARY
  5
1B47
330
B2A
100
AcDbDictionary
280
     1
281
     1
  3
ADSK_XREC_LAYER_RECONCILED
360
1B48
  0
DICTIONARY
  5
1B49
330
1832
100
AcDbDictionary
280
     1
281
     1
  3
ADSK_XREC_LAYER_RECONCILED
360
1B4A
  0
DICTIONARY
  5
1A7F
330
1A72
100
AcDbDictionary
280
     1
281
     1
  3
ACAD_DIMASSOC
360
1A89
  0
DICTIONARY
  5
1C
102
{ACAD_REACTORS
330
C
102
}
330
C
100
AcDbDictionary
281
     1
  0
DICTIONARY
  5
D
102
{ACAD_REACTORS
330
C
102
}
330
C
100
AcDbDictionary
281
     1
  3
*A1
350
AE8
  0
DICTIONARY
  5
1A
102
{ACAD_REACTORS
330
C
102
}
330
C
100
AcDbDictionary
281
     1
  3
Model
350
24
  3
レイアウト1
350
17A7
  0
DICTIONARY
  5
1B
102
{ACAD_REACTORS
330
C
102
}
330
C
100
AcDbDictionary
281
     1
  3
ByBlock
350
1AEF
  3
ByLayer
350
1AE7
  3
Global
350
55
  0
DICTIONARY
  5
1B2C
102
{ACAD_REACTORS
330
C
102
}
330
C
100
AcDbDictionary
281
     1
  3
Standard
350
1B2D
  0
DICTIONARY
  5
17
102
{ACAD_REACTORS
330
C
102
}
330
C
100
AcDbDictionary
281
     1
  3
Standard
350
18
  0
DICTIONARY
  5
19
102
{ACAD_REACTORS
330
C
102
}
330
C
100
AcDbDictionary
281
     1
  0
ACDBDICTIONARYWDFLT
  5
E
102
{ACAD_REACTORS
330
C
102
}
330
C
100
AcDbDictionary
281
     1
  3
Normal
350
F
100
AcDbDictionaryWithDefault
340
F
  0
DICTIONARY
  5
1B0A
102
{ACAD_REACTORS
330
C
102
}
330
C
100
AcDbDictionary
281
     1
  3
A0
350
1B0B
  3
A1
350
1B0C
  3
A2
350
1B0D
  3
A3
350
1B0E
  3
A4
350
1B0F
  3
A5
350
1B10
  3
A6
350
1B11
  3
A7
350
1B12
  3
A8
350
1B13
  3
A9
350
1B14
  3
B0
350
1B15
  3
B1
350
1B16
  3
B2
350
1B17
  3
B3
350
1B18
  3
B4
350
1B19
  3
B5
350
1B1A
  3
B6
350
1B1B
  3
B7
350
1B1C
  3
B8
350
1B1D
  3
B9
350
1B1E
  3
C0
350
1B1F
  3
C1
350
1B20
  3
C2
350
1B21
  3
C3
350
1B22
  3
C4
350
1B23
  3
C5
350
1B24
  3
C6
350
1B25
  3
C7
350
1B26
  3
C8
350
1B27
  3
C9
350
1B28
  3
D0
350
1B29
  3
D1
350
1B2A
  3
D2
350
1B2B
  0
DICTIONARY
  5
1B08
102
{ACAD_REACTORS
330
C
102
}
330
C
100
AcDbDictionary
281
     1
  3
Standard
350
1B09
  0
DICTIONARY
  5
1AF7
102
{ACAD_REACTORS
330
C
102
}
330
C
100
AcDbDictionary
281
     1
  3
2dWireframe
350
1AFD
  3
3D Hidden
350
1AFF
  3
3dWireframe
350
1AFE
  3
Basic
350
1AFC
  3
Brighten
350
1B03
  3
ColorChange
350
1B07
  3
Conceptual
350
1B00
  3
Dim
350
1B02
  3
Facepattern
350
1B06
  3
Flat
350
1AF8
  3
FlatWithEdges
350
1AF9
  3
Gouraud
350
1AFA
  3
GouraudWithEdges
350
1AFB
  3
Linepattern
350
1B05
  3
Realistic
350
1B01
  3
Thicken
350
1B04
  0
XRECORD
  5
1A06
102
{ACAD_REACTORS
330
C
102
}
330
C
100
AcDbXrecord
280
     1
 90
   990106
  3

 60
     0
 61
     0
 62
     1
 63
     3
 64
     0
 65
     0
 66
     0
 67
     3
 68
     1
 69
     0
 70
     0
 71
     0
 72
     0
 40
0.0
170
     0
340
1A8B
  0
XRECORD
  5
1B59
102
{ACAD_REACTORS
330
C
102
}
330
C
100
AcDbXrecord
280
     1
 90
        1
330
1B09
  0
DICTIONARY
  5
1B53
102
{ACAD_REACTORS
330
C
102
}
330
C
100
AcDbDictionary
281
     1
  3
CANNOSCALE
350
1B56
  3
CMLEADERSTYLE
350
1B55
  3
CTABLESTYLE
350
1B54
  0
DICTIONARY
  5
89B
102
{ACAD_REACTORS
330
5C
102
}
330
5C
100
AcDbDictionary
281
     1
  0
DICTIONARY
  5
5D
102
{ACAD_REACTORS
330
5C
102
}
330
5C
100
AcDbDictionary
281
     1
  0
XRECORD
  5
1B38
102
{ACAD_REACTORS
330
1B37
102
}
330
1B37
100
AcDbXrecord
280
     1
290
     1
  0
XRECORD
  5
1B3A
102
{ACAD_REACTORS
330
1B39
102
}
330
1B39
100
AcDbXrecord
280
     1
290
     1
  0
XRECORD
  5
1B3C
102
{ACAD_REACTORS
330
1B3B
102
}
330
1B3B
100
AcDbXrecord
280
     1
290
     1
  0
XRECORD
  5
1B3E
102
{ACAD_REACTORS
330
1B3D
102
}
330
1B3D
100
AcDbXrecord
280
     1
290
     1
  0
XRECORD
  5
1B40
102
{ACAD_REACTORS
330
1B3F
102
}
330
1B3F
100
AcDbXrecord
280
     1
290
     1
  0
XRECORD
  5
1B42
102
{ACAD_REACTORS
330
1B41
102
}
330
1B41
100
AcDbXrecord
280
     1
290
     1
  0
XRECORD
  5
1B44
102
{ACAD_REACTORS
330
1B43
102
}
330
1B43
100
AcDbXrecord
280
     1
290
     1
  0
XRECORD
  5
1B46
102
{ACAD_REACTORS
330
1B45
102
}
330
1B45
100
AcDbXrecord
280
     1
290
     1
  0
XRECORD
  5
1B48
102
{ACAD_REACTORS
330
1B47
102
}
330
1B47
100
AcDbXrecord
280
     1
290
     1
  0
XRECORD
  5
1B4A
102
{ACAD_REACTORS
330
1B49
102
}
330
1B49
100
AcDbXrecord
280
     1
290
     1
  0
DIMASSOC
  5
1A89
102
{ACAD_REACTORS
330
1A7F
102
}
330
1A7F
100
AcDbDimAssoc
330
1A72
 90
        3
 70
     0
 71
     0
  1
AcDbOsnapPointRef
 72
     5
331
1A32
 73
     2
 91
        0
 40
0.0
 10
0.0
 20
6.283185307179586
 30
2.000000000000000E+50
 75
     0
  1
AcDbOsnapPointRef
 72
     5
331
1A32
 73
     2
 91
        0
 40
3.141592653589793
 10
0.0
 20
6.283185307179586
 30
2.000000000000000E+50
 75
     0
  0
GROUP
  5
AE8
102
{ACAD_REACTORS
330
D
102
}
330
D
100
AcDbGroup
300

 70
     1
 71
     1
  0
LAYOUT
  5
24
102
{ACAD_REACTORS
330
1A
102
}
330
1A
100
AcDbPlotSettings
  1

  2
none_device
  4
Letter_(8.50_x_11.00_Inches)
  6

 40
6.349999904632568
 41
6.349999904632568
 42
6.350006103515625
 43
6.350006103515625
 44
215.8999938964844
 45
279.3999938964844
 46
0.0
 47
0.0
 48
0.0
 49
0.0
140
0.0
141
0.0
142
1.0
143
1.0
 70
 11952
 72
     1
 73
     1
 74
     0
  7

 75
     0
147
1.0
 76
     0
 77
     2
 78
   300
148
-83.36161879895561
149
0.0
100
AcDbLayout
  1
Model
 70
     1
 71
     0
 10
0.0
 20
0.0
 11
12.0
 21
9.0
 12
0.0
 22
0.0
 32
0.0
 14
0.0
 24
0.0
 34
0.0
 15
0.0
 25
0.0
 35
0.0
146
0.0
 13
0.0
 23
0.0
 33
0.0
 16
1.0
 26
0.0
 36
0.0
 17
0.0
 27
1.0
 37
0.0
 76
     0
330
21
331
1AE5
  0
LAYOUT
  5
17A7
102
{ACAD_REACTORS
330
1A
102
}
330
1A
100
AcDbPlotSettings
  1

  2
Canon MP990 series Printer
  4
A4
  6

 40
4.180416584014892
 41
5.831417560577392
 42
4.180404663085937
 43
3.757080078125
 44
209.9733276367187
 45
296.9683227539062
 46
0.0
 47
0.0
 48
0.0
 49
0.0
140
0.0
141
0.0
142
1.0
143
1.0
 70
   688
 72
     1
 73
     0
 74
     5
  7

 75
    16
147
1.0
 76
     1
 77
     2
 78
   300
148
0.0
149
0.0
100
AcDbLayout
  1
レイアウト1
 70
     1
 71
     1
 10
-4.180416584014892
 20
-5.831417560577392
 11
205.7929110527039
 21
291.1369051933288
 12
0.0
 22
0.0
 32
0.0
 14
9.015664445261563
 24
12.15813129276887
 34
0.0
 15
193.4351008528131
 25
280.2690525345891
 35
0.0
146
0.0
 13
0.0
 23
0.0
 33
0.0
 16
1.0
 26
0.0
 36
0.0
 17
0.0
 27
1.0
 37
0.0
 76
     0
330
17A6
331
17AD
  0
MATERIAL
  5
1AEF
102
{ACAD_XDICTIONARY
360
1AF0
102
}
102
{ACAD_REACTORS
330
1B
102
}
330
1B
100
AcDbMaterial
  1
ByBlock
 72
     0
 43
0.0008202099737533
 43
0.0
 43
0.0
 43
0.0
 43
0.0
 43
0.0008202099737533
 43
0.0
 43
0.0
 43
0.0
 43
0.0
 43
1.0
 43
0.0
 43
0.0
 43
0.0
 43
0.0
 43
1.0
 77
     0
 47
0.0008202099737533
 47
0.0
 47
0.0
 47
0.0
 47
0.0
 47
0.0008202099737533
 47
0.0
 47
0.0
 47
0.0
 47
0.0
 47
1.0
 47
0.0
 47
0.0
 47
0.0
 47
0.0
 47
1.0
171
     0
 49
0.0008202099737533
 49
0.0
 49
0.0
 49
0.0
 49
0.0
 49
0.0008202099737533
 49
0.0
 49
0.0
 49
0.0
 49
0.0
 49
1.0
 49
0.0
 49
0.0
 49
0.0
 49
0.0
 49
1.0
175
     0
142
0.0008202099737533
142
0.0
142
0.0
142
0.0
142
0.0
142
0.0008202099737533
142
0.0
142
0.0
142
0.0
142
0.0
142
1.0
142
0.0
142
0.0
142
0.0
142
0.0
142
1.0
179
     0
144
0.0008202099737533
144
0.0
144
0.0
144
0.0
144
0.0
144
0.0008202099737533
144
0.0
144
0.0
144
0.0
144
0.0
144
1.0
144
0.0
144
0.0
144
0.0
144
0.0
144
1.0
147
0.0008202099737533
147
0.0
147
0.0
147
0.0
147
0.0
147
0.0008202099737533
147
0.0
147
0.0
147
0.0
147
0.0
147
1.0
147
0.0
147
0.0
147
0.0
147
0.0
147
1.0
  0
MATERIAL
  5
1AE7
102
{ACAD_XDICTIONARY
360
1AE8
102
}
102
{ACAD_REACTORS
330
1B
102
}
330
1B
100
AcDbMaterial
  1
ByLayer
 72
     0
 43
0.0008202099737533
 43
0.0
 43
0.0
 43
0.0
 43
0.0
 43
0.0008202099737533
 43
0.0
 43
0.0
 43
0.0
 43
0.0
 43
1.0
 43
0.0
 43
0.0
 43
0.0
 43
0.0
 43
1.0
 77
     0
 47
0.0008202099737533
 47
0.0
 47
0.0
 47
0.0
 47
0.0
 47
0.0008202099737533
 47
0.0
 47
0.0
 47
0.0
 47
0.0
 47
1.0
 47
0.0
 47
0.0
 47
0.0
 47
0.0
 47
1.0
171
     0
 49
0.0008202099737533
 49
0.0
 49
0.0
 49
0.0
 49
0.0
 49
0.0008202099737533
 49
0.0
 49
0.0
 49
0.0
 49
0.0
 49
1.0
 49
0.0
 49
0.0
 49
0.0
 49
0.0
 49
1.0
175
     0
142
0.0008202099737533
142
0.0
142
0.0
142
0.0
142
0.0
142
0.0008202099737533
142
0.0
142
0.0
142
0.0
142
0.0
142
1.0
142
0.0
142
0.0
142
0.0
142
0.0
142
1.0
179
     0
144
0.0008202099737533
144
0.0
144
0.0
144
0.0
144
0.0
144
0.0008202099737533
144
0.0
144
0.0
144
0.0
144
0.0
144
1.0
144
0.0
144
0.0
144
0.0
144
0.0
144
1.0
147
0.0008202099737533
147
0.0
147
0.0
147
0.0
147
0.0
147
0.0008202099737533
147
0.0
147
0.0
147
0.0
147
0.0
147
1.0
147
0.0
147
0.0
147
0.0
147
0.0
147
1.0
  0
MATERIAL
  5
55
102
{ACAD_XDICTIONARY
360
56
102
}
102
{ACAD_REACTORS
330
1B
102
}
330
1B
100
AcDbMaterial
  1
Global
 43
0.0208000000566244
 43
0.0
 43
0.0
 43
0.0
 43
0.0
 43
0.0208000000566244
 43
0.0
 43
0.0
 43
0.0
 43
0.0
 43
1.0
 43
0.0
 43
0.0
 43
0.0
 43
0.0
 43
1.0
 49
0.0208000000566244
 49
0.0
 49
0.0
 49
0.0
 49
0.0
 49
0.0208000000566244
 49
0.0
 49
0.0
 49
0.0
 49
0.0
 49
1.0
 49
0.0
 49
0.0
 49
0.0
 49
0.0
 49
1.0
142
0.0208000000566244
142
0.0
142
0.0
142
0.0
142
0.0
142
0.0208000000566244
142
0.0
142
0.0
142
0.0
142
0.0
142
1.0
142
0.0
142
0.0
142
0.0
142
0.0
142
1.0
144
0.0208000000566244
144
0.0
144
0.0
144
0.0
144
0.0
144
0.0208000000566244
144
0.0
144
0.0
144
0.0
144
0.0
144
1.0
144
0.0
144
0.0
144
0.0
144
0.0
144
1.0
1001
ACAD
1070
    -1
1070
     3
1070
     0
1000

1071
        0
1070
     0
  0
MLEADERSTYLE
  5
1B2D
102
{ACAD_REACTORS
330
1B2C
102
}
330
1B2C
100
AcDbMLeaderStyle
170
     2
171
     1
172
     0
 90
        2
 40
0.0
 41
0.0
173
     1
 91
-1056964608
340
14
 92
       -2
290
     1
 42
2.0
291
     1
 43
0.36
  3
Standard
 44
4.0
300

342
11
174
     1
178
     6
175
     1
176
     0
 93
-1056964608
 45
4.0
292
     0
297
     0
 46
4.0
 94
-1056964608
 47
1.0
 49
1.0
140
1.0
293
     1
141
0.0
294
     1
177
     0
142
1.0
295
     0
296
     0
143
0.125
1001
ACAD_MLEADERVER
1070
     2
  0
MLINESTYLE
  5
18
102
{ACAD_REACTORS
330
17
102
}
330
17
100
AcDbMlineStyle
  2
STANDARD
 70
     0
  3

 62
   256
 51
90.0
 52
90.0
 71
     2
 49
0.5
 62
   256
  6
BYLAYER
 49
-0.5
 62
   256
  6
BYLAYER
  0
ACDBPLACEHOLDER
  5
F
102
{ACAD_REACTORS
330
E
102
}
330
E
  0
SCALE
  5
1B0B
102
{ACAD_REACTORS
330
1B0A
102
}
330
1B0A
100
AcDbScale
 70
     0
300
1:1
140
1.0
141
1.0
290
     1
  0
SCALE
  5
1B0C
102
{ACAD_REACTORS
330
1B0A
102
}
330
1B0A
100
AcDbScale
 70
     0
300
1:2
140
1.0
141
2.0
290
     0
  0
SCALE
  5
1B0D
102
{ACAD_REACTORS
330
1B0A
102
}
330
1B0A
100
AcDbScale
 70
     0
300
1:4
140
1.0
141
4.0
290
     0
  0
SCALE
  5
1B0E
102
{ACAD_REACTORS
330
1B0A
102
}
330
1B0A
100
AcDbScale
 70
     0
300
1:5
140
1.0
141
5.0
290
     0
  0
SCALE
  5
1B0F
102
{ACAD_REACTORS
330
1B0A
102
}
330
1B0A
100
AcDbScale
 70
     0
300
1:8
140
1.0
141
8.0
290
     0
  0
SCALE
  5
1B10
102
{ACAD_REACTORS
330
1B0A
102
}
330
1B0A
100
AcDbScale
 70
     0
300
1:10
140
1.0
141
10.0
290
     0
  0
SCALE
  5
1B11
102
{ACAD_REACTORS
330
1B0A
102
}
330
1B0A
100
AcDbScale
 70
     0
300
1:16
140
1.0
141
16.0
290
     0
  0
SCALE
  5
1B12
102
{ACAD_REACTORS
330
1B0A
102
}
330
1B0A
100
AcDbScale
 70
     0
300
1:20
140
1.0
141
20.0
290
     0
  0
SCALE
  5
1B13
102
{ACAD_REACTORS
330
1B0A
102
}
330
1B0A
100
AcDbScale
 70
     0
300
1:30
140
1.0
141
30.0
290
     0
  0
SCALE
  5
1B14
102
{ACAD_REACTORS
330
1B0A
102
}
330
1B0A
100
AcDbScale
 70
     0
300
1:40
140
1.0
141
40.0
290
     0
  0
SCALE
  5
1B15
102
{ACAD_REACTORS
330
1B0A
102
}
330
1B0A
100
AcDbScale
 70
     0
300
1:50
140
1.0
141
50.0
290
     0
  0
SCALE
  5
1B16
102
{ACAD_REACTORS
330
1B0A
102
}
330
1B0A
100
AcDbScale
 70
     0
300
1:100
140
1.0
141
100.0
290
     0
  0
SCALE
  5
1B17
102
{ACAD_REACTORS
330
1B0A
102
}
330
1B0A
100
AcDbScale
 70
     0
300
2:1
140
2.0
141
1.0
290
     0
  0
SCALE
  5
1B18
102
{ACAD_REACTORS
330
1B0A
102
}
330
1B0A
100
AcDbScale
 70
     0
300
4:1
140
4.0
141
1.0
290
     0
  0
SCALE
  5
1B19
102
{ACAD_REACTORS
330
1B0A
102
}
330
1B0A
100
AcDbScale
 70
     0
300
8:1
140
8.0
141
1.0
290
     0
  0
SCALE
  5
1B1A
102
{ACAD_REACTORS
330
1B0A
102
}
330
1B0A
100
AcDbScale
 70
     0
300
10:1
140
10.0
141
1.0
290
     0
  0
SCALE
  5
1B1B
102
{ACAD_REACTORS
330
1B0A
102
}
330
1B0A
100
AcDbScale
 70
     0
300
100:1
140
100.0
141
1.0
290
     0
  0
SCALE
  5
1B1C
102
{ACAD_REACTORS
330
1B0A
102
}
330
1B0A
100
AcDbScale
 70
     0
300
1/128" = 1'-0"
140
0.0078125
141
12.0
290
     0
  0
SCALE
  5
1B1D
102
{ACAD_REACTORS
330
1B0A
102
}
330
1B0A
100
AcDbScale
 70
     0
300
1/64" = 1'-0"
140
0.015625
141
12.0
290
     0
  0
SCALE
  5
1B1E
102
{ACAD_REACTORS
330
1B0A
102
}
330
1B0A
100
AcDbScale
 70
     0
300
1/32" = 1'-0"
140
0.03125
141
12.0
290
     0
  0
SCALE
  5
1B1F
102
{ACAD_REACTORS
330
1B0A
102
}
330
1B0A
100
AcDbScale
 70
     0
300
1/16" = 1'-0"
140
0.0625
141
12.0
290
     0
  0
SCALE
  5
1B20
102
{ACAD_REACTORS
330
1B0A
102
}
330
1B0A
100
AcDbScale
 70
     0
300
3/32" = 1'-0"
140
0.09375
141
12.0
290
     0
  0
SCALE
  5
1B21
102
{ACAD_REACTORS
330
1B0A
102
}
330
1B0A
100
AcDbScale
 70
     0
300
1/8" = 1'-0"
140
0.125
141
12.0
290
     0
  0
SCALE
  5
1B22
102
{ACAD_REACTORS
330
1B0A
102
}
330
1B0A
100
AcDbScale
 70
     0
300
3/16" = 1'-0"
140
0.1875
141
12.0
290
     0
  0
SCALE
  5
1B23
102
{ACAD_REACTORS
330
1B0A
102
}
330
1B0A
100
AcDbScale
 70
     0
300
1/4" = 1'-0"
140
0.25
141
12.0
290
     0
  0
SCALE
  5
1B24
102
{ACAD_REACTORS
330
1B0A
102
}
330
1B0A
100
AcDbScale
 70
     0
300
3/8" = 1'-0"
140
0.375
141
12.0
290
     0
  0
SCALE
  5
1B25
102
{ACAD_REACTORS
330
1B0A
102
}
330
1B0A
100
AcDbScale
 70
     0
300
1/2" = 1'-0"
140
0.5
141
12.0
290
     0
  0
SCALE
  5
1B26
102
{ACAD_REACTORS
330
1B0A
102
}
330
1B0A
100
AcDbScale
 70
     0
300
3/4" = 1'-0"
140
0.75
141
12.0
290
     0
  0
SCALE
  5
1B27
102
{ACAD_REACTORS
330
1B0A
102
}
330
1B0A
100
AcDbScale
 70
     0
300
1" = 1'-0"
140
1.0
141
12.0
290
     0
  0
SCALE
  5
1B28
102
{ACAD_REACTORS
330
1B0A
102
}
330
1B0A
100
AcDbScale
 70
     0
300
1-1/2" = 1'-0"
140
1.5
141
12.0
290
     0
  0
SCALE
  5
1B29
102
{ACAD_REACTORS
330
1B0A
102
}
330
1B0A
100
AcDbScale
 70
     0
300
3" = 1'-0"
140
3.0
141
12.0
290
     0
  0
SCALE
  5
1B2A
102
{ACAD_REACTORS
330
1B0A
102
}
330
1B0A
100
AcDbScale
 70
     0
300
6" = 1'-0"
140
6.0
141
12.0
290
     0
  0
SCALE
  5
1B2B
102
{ACAD_REACTORS
330
1B0A
102
}
330
1B0A
100
AcDbScale
 70
     0
300
1'-0" = 1'-0"
140
12.0
141
12.0
290
     0
  0
TABLESTYLE
  5
1B09
102
{ACAD_XDICTIONARY
360
1B57
102
}
102
{ACAD_REACTORS
330
1B08
102
}
330
1B08
100
AcDbTableStyle
  3
Standard
 70
     0
 71
     0
 40
1.5
 41
1.5
280
     0
281
     0
  7
Standard
140
4.5
170
     2
 62
     0
 63
     7
283
     0
274
    -2
284
     1
 64
     0
275
    -2
285
     1
 65
     0
276
    -2
286
     1
 66
     0
277
    -2
287
     1
 67
     0
278
    -2
288
     1
 68
     0
279
    -2
289
     1
 69
     0
  7
Standard
140
6.0
170
     5
 62
     0
 63
     7
283
     0
274
    -2
284
     1
 64
     0
275
    -2
285
     1
 65
     0
276
    -2
286
     1
 66
     0
277
    -2
287
     1
 67
     0
278
    -2
288
     1
 68
     0
279
    -2
289
     1
 69
     0
  7
Standard
140
4.5
170
     5
 62
     0
 63
     7
283
     0
274
    -2
284
     1
 64
     0
275
    -2
285
     1
 65
     0
276
    -2
286
     1
 66
     0
277
    -2
287
     1
 67
     0
278
    -2
288
     1
 68
     0
279
    -2
289
     1
 69
     0
  0
VISUALSTYLE
  5
1AFD
102
{ACAD_REACTORS
330
1AF7
102
}
330
1AF7
100
AcDbVisualStyle
  2
2dWireframe
 70
     4
 71
     0
 72
     2
 73
     0
 90
        0
 40
-0.6
 41
-30.0
 62
     5
 63
     7
421
 16777215
 74
     1
 91
        4
 64
     7
 65
   257
 75
     1
175
     1
 42
1.0
 92
        0
 66
   257
 43
1.0
 76
     1
 77
     6
 78
     2
 67
     7
 79
     5
170
     0
171
     0
290
     0
174
     0
 93
        1
 44
0.0
173
     0
291
     0
 45
0.0
1001
ACAD
1000
AcDbSavedByObjectVersion
1070
     0
  0
VISUALSTYLE
  5
1AFF
102
{ACAD_REACTORS
330
1AF7
102
}
330
1AF7
100
AcDbVisualStyle
  2
3D Hidden
 70
     6
 71
     1
 72
     2
 73
     2
 90
        0
 40
-0.6
 41
-30.0
 62
     5
 63
     7
421
 16777215
 74
     2
 91
        2
 64
     7
 65
   257
 75
     2
175
     1
 42
40.0
 92
        0
 66
   257
 43
1.0
 76
     1
 77
     6
 78
     2
 67
     7
 79
     3
170
     0
171
     0
290
     0
174
     0
 93
        1
 44
0.0
173
     0
291
     0
 45
0.0
1001
ACAD
1000
AcDbSavedByObjectVersion
1070
     0
  0
VISUALSTYLE
  5
1AFE
102
{ACAD_REACTORS
330
1AF7
102
}
330
1AF7
100
AcDbVisualStyle
  2
3dWireframe
 70
     5
 71
     0
 72
     2
 73
     0
 90
        0
 40
-0.6
 41
-30.0
 62
     5
 63
     7
421
 16777215
 74
     1
 91
        4
 64
     7
 65
   257
 75
     1
175
     1
 42
1.0
 92
        0
 66
   257
 43
1.0
 76
     1
 77
     6
 78
     2
 67
     7
 79
     5
170
     0
171
     0
290
     0
174
     0
 93
        1
 44
0.0
173
     0
291
     0
 45
0.0
1001
ACAD
1000
AcDbSavedByObjectVersion
1070
     0
  0
VISUALSTYLE
  5
1AFC
102
{ACAD_REACTORS
330
1AF7
102
}
330
1AF7
100
AcDbVisualStyle
  2
Basic
 70
     7
 71
     1
 72
     0
 73
     1
 90
        0
 40
-0.6
 41
-30.0
 62
     5
 63
     7
421
 16777215
 74
     0
 91
        4
 64
     7
 65
   257
 75
     1
175
     1
 42
1.0
 92
        8
 66
     7
 43
1.0
 76
     1
 77
     6
 78
     2
 67
     7
 79
     5
170
     0
171
     0
290
     0
174
     0
 93
        1
 44
0.0
173
     0
291
     1
 45
0.0
1001
ACAD
1000
AcDbSavedByObjectVersion
1070
     0
  0
VISUALSTYLE
  5
1B03
102
{ACAD_REACTORS
330
1AF7
102
}
330
1AF7
100
AcDbVisualStyle
  2
Brighten
 70
    12
 71
     2
 72
     2
 73
     0
 90
        0
 40
-0.6
 41
-30.0
 62
     5
 63
     7
421
 16777215
 74
     1
 91
        4
 64
     7
 65
   257
 75
     1
175
     1
 42
1.0
 92
        8
 66
     7
 43
1.0
 76
     1
 77
     6
 78
     2
 67
     7
 79
     5
170
     0
171
     0
290
     0
174
     0
 93
        1
 44
50.0
173
     0
291
     1
 45
0.0
1001
ACAD
1000
AcDbSavedByObjectVersion
1070
     0
  0
VISUALSTYLE
  5
1B07
102
{ACAD_REACTORS
330
1AF7
102
}
330
1AF7
100
AcDbVisualStyle
  2
ColorChange
 70
    16
 71
     2
 72
     2
 73
     3
 90
        0
 40
-0.6
 41
-30.0
 62
     5
 63
     8
421
  8421504
 74
     1
 91
        4
 64
     7
 65
   257
 75
     1
175
     1
 42
1.0
 92
        8
 66
     8
424
  8421504
 43
1.0
 76
     1
 77
     6
 78
     2
 67
     7
 79
     5
170
     0
171
     0
290
     0
174
     0
 93
        1
 44
0.0
173
     0
291
     1
 45
0.0
1001
ACAD
1000
AcDbSavedByObjectVersion
1070
     0
  0
VISUALSTYLE
  5
1B00
102
{ACAD_REACTORS
330
1AF7
102
}
330
1AF7
100
AcDbVisualStyle
  2
Conceptual
 70
     9
 71
     3
 72
     2
 73
     0
 90
        0
 40
-0.6
 41
-30.0
 62
     5
 63
     7
421
 16777215
 74
     2
 91
        2
 64
     7
 65
   257
 75
     1
175
     1
 42
40.0
 92
        8
 66
     7
 43
1.0
 76
     1
 77
     6
 78
     2
 67
     7
 79
     3
170
     0
171
     0
290
     0
174
     0
 93
        1
 44
0.0
173
     0
291
     0
 45
0.0
1001
ACAD
1000
AcDbSavedByObjectVersion
1070
     0
  0
VISUALSTYLE
  5
1B02
102
{ACAD_REACTORS
330
1AF7
102
}
330
1AF7
100
AcDbVisualStyle
  2
Dim
 70
    11
 71
     2
 72
     2
 73
     0
 90
        0
 40
-0.6
 41
-30.0
 62
     5
 63
     7
421
 16777215
 74
     1
 91
        4
 64
     7
 65
   257
 75
     1
175
     1
 42
1.0
 92
        8
 66
     7
 43
1.0
 76
     1
 77
     6
 78
     2
 67
     7
 79
     5
170
     0
171
     0
290
     0
174
     0
 93
        1
 44
-50.0
173
     0
291
     1
 45
0.0
1001
ACAD
1000
AcDbSavedByObjectVersion
1070
     0
  0
VISUALSTYLE
  5
1B06
102
{ACAD_REACTORS
330
1AF7
102
}
330
1AF7
100
AcDbVisualStyle
  2
Facepattern
 70
    15
 71
     2
 72
     2
 73
     0
 90
        0
 40
-0.6
 41
-30.0
 62
     5
 63
     7
421
 16777215
 74
     1
 91
        4
 64
     7
 65
   257
 75
     1
175
     1
 42
1.0
 92
        8
 66
     7
 43
1.0
 76
     1
 77
     6
 78
     2
 67
     7
 79
     5
170
     0
171
     0
290
     0
174
     0
 93
        1
 44
0.0
173
     0
291
     1
 45
0.0
1001
ACAD
1000
AcDbSavedByObjectVersion
1070
     0
  0
VISUALSTYLE
  5
1AF8
102
{ACAD_REACTORS
330
1AF7
102
}
330
1AF7
100
AcDbVisualStyle
  2
Flat
 70
     0
 71
     2
 72
     1
 73
     1
 90
        2
 40
-0.6
 41
30.0
 62
     5
 63
     7
421
 16777215
 74
     0
 91
        4
 64
     7
 65
   257
 75
     1
175
     1
 42
1.0
 92
        8
 66
     7
 43
1.0
 76
     1
 77
     6
 78
     2
 67
     7
 79
     5
170
     0
171
     0
290
     0
174
     0
 93
       13
 44
0.0
173
     0
291
     1
 45
0.0
1001
ACAD
1000
AcDbSavedByObjectVersion
1070
     0
  0
VISUALSTYLE
  5
1AF9
102
{ACAD_REACTORS
330
1AF7
102
}
330
1AF7
100
AcDbVisualStyle
  2
FlatWithEdges
 70
     1
 71
     2
 72
     1
 73
     1
 90
        2
 40
-0.6
 41
30.0
 62
     5
 63
     7
421
 16777215
 74
     1
 91
        4
 64
     7
 65
   257
 75
     1
175
     1
 42
1.0
 92
        0
 66
   257
 43
1.0
 76
     1
 77
     6
 78
     2
 67
     7
 79
     5
170
     0
171
     0
290
     0
174
     0
 93
       13
 44
0.0
173
     0
291
     1
 45
0.0
1001
ACAD
1000
AcDbSavedByObjectVersion
1070
     0
  0
VISUALSTYLE
  5
1AFA
102
{ACAD_REACTORS
330
1AF7
102
}
330
1AF7
100
AcDbVisualStyle
  2
Gouraud
 70
     2
 71
     2
 72
     2
 73
     1
 90
        2
 40
-0.6
 41
30.0
 62
     5
 63
     7
421
 16777215
 74
     0
 91
        4
 64
     7
 65
   257
 75
     1
175
     1
 42
1.0
 92
        0
 66
     7
 43
1.0
 76
     1
 77
     6
 78
     2
 67
     7
 79
     5
170
     0
171
     0
290
     0
174
     0
 93
       13
 44
0.0
173
     0
291
     1
 45
0.0
1001
ACAD
1000
AcDbSavedByObjectVersion
1070
     0
  0
VISUALSTYLE
  5
1AFB
102
{ACAD_REACTORS
330
1AF7
102
}
330
1AF7
100
AcDbVisualStyle
  2
GouraudWithEdges
 70
     3
 71
     2
 72
     2
 73
     1
 90
        2
 40
-0.6
 41
30.0
 62
     5
 63
     7
421
 16777215
 74
     1
 91
        4
 64
     7
 65
   257
 75
     1
175
     1
 42
1.0
 92
        0
 66
   257
 43
1.0
 76
     1
 77
     6
 78
     2
 67
     7
 79
     5
170
     0
171
     0
290
     0
174
     0
 93
       13
 44
0.0
173
     0
291
     1
 45
0.0
1001
ACAD
1000
AcDbSavedByObjectVersion
1070
     0
  0
VISUALSTYLE
  5
1B05
102
{ACAD_REACTORS
330
1AF7
102
}
330
1AF7
100
AcDbVisualStyle
  2
Linepattern
 70
    14
 71
     2
 72
     2
 73
     0
 90
        0
 40
-0.6
 41
-30.0
 62
     5
 63
     7
421
 16777215
 74
     1
 91
        4
 64
     7
 65
   257
 75
     7
175
     7
 42
1.0
 92
        8
 66
     7
 43
1.0
 76
     1
 77
     6
 78
     2
 67
     7
 79
     5
170
     0
171
     0
290
     0
174
     0
 93
        1
 44
0.0
173
     0
291
     1
 45
0.0
1001
ACAD
1000
AcDbSavedByObjectVersion
1070
     0
  0
VISUALSTYLE
  5
1B01
102
{ACAD_REACTORS
330
1AF7
102
}
330
1AF7
100
AcDbVisualStyle
  2
Realistic
 70
     8
 71
     2
 72
     2
 73
     0
 90
        0
 40
-0.6
 41
-30.0
 62
     5
 63
     7
421
 16777215
 74
     1
 91
        0
 64
     7
 65
   257
 75
     1
175
     1
 42
1.0
 92
        8
 66
     8
424
  7895160
 43
1.0
 76
     1
 77
     6
 78
     2
 67
     7
 79
     5
170
     0
171
     0
290
     0
174
     0
 93
       13
 44
0.0
173
     0
291
     0
 45
0.0
1001
ACAD
1000
AcDbSavedByObjectVersion
1070
     0
  0
VISUALSTYLE
  5
1B04
102
{ACAD_REACTORS
330
1AF7
102
}
330
1AF7
100
AcDbVisualStyle
  2
Thicken
 70
    13
 71
     2
 72
     2
 73
     0
 90
        0
 40
-0.6
 41
-30.0
 62
     5
 63
     7
421
 16777215
 74
     1
 91
        4
 64
     7
 65
   257
 75
     1
175
     1
 42
1.0
 92
       12
 66
     7
 43
1.0
 76
     1
 77
     6
 78
     2
 67
     7
 79
     5
170
     0
171
     0
290
     0
174
     0
 93
        1
 44
0.0
173
     0
291
     1
 45
0.0
1001
ACAD
1000
AcDbSavedByObjectVersion
1070
     0
  0
DICTIONARYVAR
  5
1B56
102
{ACAD_REACTORS
330
1B53
102
}
330
1B53
100
DictionaryVariables
280
     0
  1
1:1
  0
DICTIONARYVAR
  5
1B55
102
{ACAD_REACTORS
330
1B53
102
}
330
1B53
100
DictionaryVariables
280
     0
  1
STANDARD
  0
DICTIONARYVAR
  5
1B54
102
{ACAD_REACTORS
330
1B53
102
}
330
1B53
100
DictionaryVariables
280
     0
  1
STANDARD
  0
DICTIONARY
  5
1AF0
330
1AEF
100
AcDbDictionary
280
     1
281
     1
  3
ACAD_XREC_ROUNDTRIP
360
1B5C
  3
BUMPTILE
360
1AF2
  3
DIFFUSETILE
360
1AF1
  3
OPACITYTILE
360
1AF5
  3
REFLECTIONTILE
360
1AF4
  3
REFRACTIONTILE
360
1AF6
  3
SPECULARTILE
360
1AF3
  0
DICTIONARY
  5
1AE8
330
1AE7
100
AcDbDictionary
280
     1
281
     1
  3
ACAD_XREC_ROUNDTRIP
360
1B5B
  3
BUMPTILE
360
1AEA
  3
DIFFUSETILE
360
1AE9
  3
OPACITYTILE
360
1AED
  3
REFLECTIONTILE
360
1AEC
  3
REFRACTIONTILE
360
1AEE
  3
SPECULARTILE
360
1AEB
  0
DICTIONARY
  5
56
330
55
100
AcDbDictionary
280
     1
281
     1
  3
ACAD_XREC_ROUNDTRIP
360
1B5A
  3
BUMPTILE
360
58
  3
DIFFUSETILE
360
59
  3
OPACITYTILE
360
5A
  3
REFLECTIONTILE
360
5B
  0
DICTIONARY
  5
1B57
330
1B09
100
AcDbDictionary
280
     1
281
     1
  3
ACAD_ROUNDTRIP_2008_TABLESTYLE_CELLSTYLEMAP
360
1B58
  3
ACAD_XREC_ROUNDTRIP
360
1B5D
  0
XRECORD
  5
1B5C
102
{ACAD_REACTORS
330
1AF0
102
}
330
1AF0
100
AcDbXrecord
280
     1
102
MATERIAL
148
0.0
149
0.0
149
0.0
 93
        0
 94
      127
282
     0
 72
     0
 77
     0
171
     0
175
     0
179
     0
273
     0
  0
XRECORD
  5
1AF2
102
{ACAD_REACTORS
330
1AF0
102
}
330
1AF0
100
AcDbXrecord
280
     1
270
     1
271
     1
  0
XRECORD
  5
1AF1
102
{ACAD_REACTORS
330
1AF0
102
}
330
1AF0
100
AcDbXrecord
280
     1
270
     1
271
     1
  0
XRECORD
  5
1AF5
102
{ACAD_REACTORS
330
1AF0
102
}
330
1AF0
100
AcDbXrecord
280
     1
270
     1
271
     1
  0
XRECORD
  5
1AF4
102
{ACAD_REACTORS
330
1AF0
102
}
330
1AF0
100
AcDbXrecord
280
     1
270
     1
271
     1
  0
XRECORD
  5
1AF6
102
{ACAD_REACTORS
330
1AF0
102
}
330
1AF0
100
AcDbXrecord
280
     1
270
     1
271
     1
  0
XRECORD
  5
1AF3
102
{ACAD_REACTORS
330
1AF0
102
}
330
1AF0
100
AcDbXrecord
280
     1
270
     1
271
     1
  0
XRECORD
  5
1B5B
102
{ACAD_REACTORS
330
1AE8
102
}
330
1AE8
100
AcDbXrecord
280
     1
102
MATERIAL
148
0.0
149
0.0
149
0.0
 93
        0
 94
      127
282
     0
 72
     0
 77
     0
171
     0
175
     0
179
     0
273
     0
  0
XRECORD
  5
1AEA
102
{ACAD_REACTORS
330
1AE8
102
}
330
1AE8
100
AcDbXrecord
280
     1
270
     1
271
     1
  0
XRECORD
  5
1AE9
102
{ACAD_REACTORS
330
1AE8
102
}
330
1AE8
100
AcDbXrecord
280
     1
270
     1
271
     1
  0
XRECORD
  5
1AED
102
{ACAD_REACTORS
330
1AE8
102
}
330
1AE8
100
AcDbXrecord
280
     1
270
     1
271
     1
  0
XRECORD
  5
1AEC
102
{ACAD_REACTORS
330
1AE8
102
}
330
1AE8
100
AcDbXrecord
280
     1
270
     1
271
     1
  0
XRECORD
  5
1AEE
102
{ACAD_REACTORS
330
1AE8
102
}
330
1AE8
100
AcDbXrecord
280
     1
270
     1
271
     1
  0
XRECORD
  5
1AEB
102
{ACAD_REACTORS
330
1AE8
102
}
330
1AE8
100
AcDbXrecord
280
     1
270
     1
271
     1
  0
XRECORD
  5
1B5A
102
{ACAD_REACTORS
330
56
102
}
330
56
100
AcDbXrecord
280
     1
102
MATERIAL
148
0.0
149
0.0
149
0.0
 93
        0
 94
       63
282
     0
 72
     1
 77
     1
171
     1
175
     1
179
     1
273
     0
  0
XRECORD
  5
58
102
{ACAD_REACTORS
330
56
102
}
330
56
100
AcDbXrecord
280
     1
270
     1
271
     1
  0
XRECORD
  5
59
102
{ACAD_REACTORS
330
56
102
}
330
56
100
AcDbXrecord
280
     1
270
     1
271
     1
  0
XRECORD
  5
5A
102
{ACAD_REACTORS
330
56
102
}
330
56
100
AcDbXrecord
280
     1
270
     1
271
     1
  0
XRECORD
  5
5B
102
{ACAD_REACTORS
330
56
102
}
330
56
100
AcDbXrecord
280
     1
270
     1
271
     1
  0
CELLSTYLEMAP
  5
1B58
102
{ACAD_REACTORS
330
1B57
102
}
330
1B57
100
AcDbCellStyleMap
 90
        3
300
CELLSTYLE
  1
TABLEFORMAT_BEGIN
 90
        5
170
     1
 91
        0
 92
    32768
 62
   257
 93
        1
300
CONTENTFORMAT
  1
CONTENTFORMAT_BEGIN
 90
        0
 91
        0
 92
      512
 93
        0
300

 40
0.0
140
1.0
 94
        5
 62
     0
340
11
144
6.0
309
CONTENTFORMAT_END
171
     1
301
MARGIN
  1
CELLMARGIN_BEGIN
 40
1.5
 40
1.5
 40
1.5
 40
1.5
 40
4.5
 40
4.5
309
CELLMARGIN_END
 94
        6
 95
        1
302
GRIDFORMAT
  1
GRIDFORMAT_BEGIN
 90
        0
 91
        1
 62
     0
 92
       -2
340
0
 93
        0
 40
1.125
309
GRIDFORMAT_END
 95
        2
302
GRIDFORMAT
  1
GRIDFORMAT_BEGIN
 90
        0
 91
        1
 62
     0
 92
       -2
340
0
 93
        0
 40
1.125
309
GRIDFORMAT_END
 95
        4
302
GRIDFORMAT
  1
GRIDFORMAT_BEGIN
 90
        0
 91
        1
 62
     0
 92
       -2
340
0
 93
        0
 40
1.125
309
GRIDFORMAT_END
 95
        8
302
GRIDFORMAT
  1
GRIDFORMAT_BEGIN
 90
        0
 91
        1
 62
     0
 92
       -2
340
0
 93
        0
 40
1.125
309
GRIDFORMAT_END
 95
       16
302
GRIDFORMAT
  1
GRIDFORMAT_BEGIN
 90
        0
 91
        1
 62
     0
 92
       -2
340
0
 93
        0
 40
1.125
309
GRIDFORMAT_END
 95
       32
302
GRIDFORMAT
  1
GRIDFORMAT_BEGIN
 90
        0
 91
        1
 62
     0
 92
       -2
340
0
 93
        0
 40
1.125
309
GRIDFORMAT_END
309
TABLEFORMAT_END
  1
CELLSTYLE_BEGIN
 90
        1
 91
        1
300
_TITLE
309
CELLSTYLE_END
300
CELLSTYLE
  1
TABLEFORMAT_BEGIN
 90
        5
170
     1
 91
        0
 92
        0
 62
   257
 93
        1
300
CONTENTFORMAT
  1
CONTENTFORMAT_BEGIN
 90
        0
 91
        0
 92
      512
 93
        0
300

 40
0.0
140
1.0
 94
        5
 62
     0
340
11
144
4.5
309
CONTENTFORMAT_END
171
     1
301
MARGIN
  1
CELLMARGIN_BEGIN
 40
1.5
 40
1.5
 40
1.5
 40
1.5
 40
4.5
 40
4.5
309
CELLMARGIN_END
 94
        6
 95
        1
302
GRIDFORMAT
  1
GRIDFORMAT_BEGIN
 90
        0
 91
        1
 62
     0
 92
       -2
340
0
 93
        0
 40
1.125
309
GRIDFORMAT_END
 95
        2
302
GRIDFORMAT
  1
GRIDFORMAT_BEGIN
 90
        0
 91
        1
 62
     0
 92
       -2
340
0
 93
        0
 40
1.125
309
GRIDFORMAT_END
 95
        4
302
GRIDFORMAT
  1
GRIDFORMAT_BEGIN
 90
        0
 91
        1
 62
     0
 92
       -2
340
0
 93
        0
 40
1.125
309
GRIDFORMAT_END
 95
        8
302
GRIDFORMAT
  1
GRIDFORMAT_BEGIN
 90
        0
 91
        1
 62
     0
 92
       -2
340
0
 93
        0
 40
1.125
309
GRIDFORMAT_END
 95
       16
302
GRIDFORMAT
  1
GRIDFORMAT_BEGIN
 90
        0
 91
        1
 62
     0
 92
       -2
340
0
 93
        0
 40
1.125
309
GRIDFORMAT_END
 95
       32
302
GRIDFORMAT
  1
GRIDFORMAT_BEGIN
 90
        0
 91
        1
 62
     0
 92
       -2
340
0
 93
        0
 40
1.125
309
GRIDFORMAT_END
309
TABLEFORMAT_END
  1
CELLSTYLE_BEGIN
 90
        2
 91
        1
300
_HEADER
309
CELLSTYLE_END
300
CELLSTYLE
  1
TABLEFORMAT_BEGIN
 90
        5
170
     1
 91
        0
 92
        0
 62
   257
 93
        1
300
CONTENTFORMAT
  1
CONTENTFORMAT_BEGIN
 90
        0
 91
        0
 92
      512
 93
        0
300

 40
0.0
140
1.0
 94
        2
 62
     0
340
11
144
4.5
309
CONTENTFORMAT_END
171
     1
301
MARGIN
  1
CELLMARGIN_BEGIN
 40
1.5
 40
1.5
 40
1.5
 40
1.5
 40
4.5
 40
4.5
309
CELLMARGIN_END
 94
        6
 95
        1
302
GRIDFORMAT
  1
GRIDFORMAT_BEGIN
 90
        0
 91
        1
 62
     0
 92
       -2
340
0
 93
        0
 40
1.125
309
GRIDFORMAT_END
 95
        2
302
GRIDFORMAT
  1
GRIDFORMAT_BEGIN
 90
        0
 91
        1
 62
     0
 92
       -2
340
0
 93
        0
 40
1.125
309
GRIDFORMAT_END
 95
        4
302
GRIDFORMAT
  1
GRIDFORMAT_BEGIN
 90
        0
 91
        1
 62
     0
 92
       -2
340
0
 93
        0
 40
1.125
309
GRIDFORMAT_END
 95
        8
302
GRIDFORMAT
  1
GRIDFORMAT_BEGIN
 90
        0
 91
        1
 62
     0
 92
       -2
340
0
 93
        0
 40
1.125
309
GRIDFORMAT_END
 95
       16
302
GRIDFORMAT
  1
GRIDFORMAT_BEGIN
 90
        0
 91
        1
 62
     0
 92
       -2
340
0
 93
        0
 40
1.125
309
GRIDFORMAT_END
 95
       32
302
GRIDFORMAT
  1
GRIDFORMAT_BEGIN
 90
        0
 91
        1
 62
     0
 92
       -2
340
0
 93
        0
 40
1.125
309
GRIDFORMAT_END
309
TABLEFORMAT_END
  1
CELLSTYLE_BEGIN
 90
        3
 91
        2
300
_DATA
309
CELLSTYLE_END
  0
XRECORD
  5
1B5D
102
{ACAD_REACTORS
330
1B57
102
}
330
1B57
100
AcDbXrecord
280
     1
102
ACAD_ROUNDTRIP_PRE2007_TABLESTYLE
 90
      512
 91
        0
  1

 92
      512
 93
        0
  2

 94
      512
 95
        0
  3

  0
ENDSEC
  0
EOF
