  0
SECTION
  2
HEADER
  9
$ACADVER
  1
AC1018
  9
$ACADMAINTVER
 70
   104
  9
$DWGCODEPAGE
  3
ANSI_932
  9
$LASTSAVEDBY
  1
t-hayashi
  9
$INSBASE
 10
0.0
 20
0.0
 30
0.0
  9
$EXTMIN
 10
18.86920042624118
 20
-2.817490366776844
 30
0.0
  9
$EXTMAX
 10
198.8692004262413
 20
283.9651034373638
 30
0.0
  9
$LIMMIN
 10
0.0
 20
0.0
  9
$LIMMAX
 10
210.0
 20
297.0
  9
$ORTHOMODE
 70
     0
  9
$REGENMODE
 70
     1
  9
$FILLMODE
 70
     1
  9
$QTEXTMODE
 70
     0
  9
$MIRRTEXT
 70
     0
  9
$LTSCALE
 40
1.0
  9
$ATTMODE
 70
     1
  9
$TEXTSIZE
 40
3.0
  9
$TRACEWID
 40
1.0
  9
$TEXTSTYLE
  7
Standard
  9
$CLAYER
  8
sumpo
  9
$CELTYPE
  6
ByLayer
  9
$CECOLOR
 62
   256
  9
$CELTSCALE
 40
1.0
  9
$DISPSILH
 70
     0
  9
$DIMSCALE
 40
1.0
  9
$DIMASZ
 40
3.0
  9
$DIMEXO
 40
15.0
  9
$DIMDLI
 40
3.75
  9
$DIMRND
 40
0.0
  9
$DIMDLE
 40
0.0
  9
$DIMEXE
 40
2.0
  9
$DIMTP
 40
0.0
  9
$DIMTM
 40
0.0
  9
$DIMTXT
 40
3.0
  9
$DIMCEN
 40
2.5
  9
$DIMTSZ
 40
0.0
  9
$DIMTOL
 70
     0
  9
$DIMLIM
 70
     0
  9
$DIMTIH
 70
     0
  9
$DIMTOH
 70
     0
  9
$DIMSE1
 70
     0
  9
$DIMSE2
 70
     0
  9
$DIMTAD
 70
     1
  9
$DIMZIN
 70
     8
  9
$DIMBLK
  1
Open30
  9
$DIMASO
 70
     1
  9
$DIMSHO
 70
     1
  9
$DIMPOST
  1

  9
$DIMAPOST
  1

  9
$DIMALT
 70
     0
  9
$DIMALTD
 70
     3
  9
$DIMALTF
 40
0.03937007874016
  9
$DIMLFAC
 40
1.0
  9
$DIMTOFL
 70
     1
  9
$DIMTVP
 40
0.0
  9
$DIMTIX
 70
     0
  9
$DIMSOXD
 70
     0
  9
$DIMSAH
 70
     0
  9
$DIMBLK1
  1

  9
$DIMBLK2
  1

  9
$DIMSTYLE
  2
ISO-25-4mm
  9
$DIMCLRD
 70
   256
  9
$DIMCLRE
 70
   256
  9
$DIMCLRT
 70
     4
  9
$DIMTFAC
 40
1.0
  9
$DIMGAP
 40
1.0
  9
$DIMJUST
 70
     0
  9
$DIMSD1
 70
     0
  9
$DIMSD2
 70
     0
  9
$DIMTOLJ
 70
     0
  9
$DIMTZIN
 70
     8
  9
$DIMALTZ
 70
     0
  9
$DIMALTTZ
 70
     0
  9
$DIMUPT
 70
     0
  9
$DIMDEC
 70
     2
  9
$DIMTDEC
 70
     2
  9
$DIMALTU
 70
     2
  9
$DIMALTTD
 70
     3
  9
$DIMTXSTY
  7
Standard
  9
$DIMAUNIT
 70
     0
  9
$DIMADEC
 70
     0
  9
$DIMALTRND
 40
0.0
  9
$DIMAZIN
 70
     0
  9
$DIMDSEP
 70
    46
  9
$DIMATFIT
 70
     3
  9
$DIMFRAC
 70
     0
  9
$DIMLDRBLK
  1

  9
$DIMLUNIT
 70
     2
  9
$DIMLWD
 70
    -2
  9
$DIMLWE
 70
    -2
  9
$DIMTMOVE
 70
     0
  9
$LUNITS
 70
     2
  9
$LUPREC
 70
     4
  9
$SKETCHINC
 40
1.0
  9
$FILLETRAD
 40
20.0
  9
$AUNITS
 70
     0
  9
$AUPREC
 70
     0
  9
$MENU
  1
.
  9
$ELEVATION
 40
0.0
  9
$PELEVATION
 40
0.0
  9
$THICKNESS
 40
0.0
  9
$LIMCHECK
 70
     0
  9
$CHAMFERA
 40
0.0
  9
$CHAMFERB
 40
0.0
  9
$CHAMFERC
 40
0.0
  9
$CHAMFERD
 40
0.0
  9
$SKPOLY
 70
     0
  9
$TDCREATE
 40
2455497.994904688
  9
$TDUCREATE
 40
2455497.619904688
  9
$TDUPDATE
 40
2455623.600310139
  9
$TDUUPDATE
 40
2455623.225310139
  9
$TDINDWG
 40
1.2274326736
  9
$TDUSRTIMER
 40
1.2274326736
  9
$USRTIMER
 70
     1
  9
$ANGBASE
 50
0.0
  9
$ANGDIR
 70
     0
  9
$PDMODE
 70
     0
  9
$PDSIZE
 40
0.0
  9
$PLINEWID
 40
0.0
  9
$SPLFRAME
 70
     0
  9
$SPLINETYPE
 70
     6
  9
$SPLINESEGS
 70
     8
  9
$HANDSEED
  5
1E03
  9
$SURFTAB1
 70
     6
  9
$SURFTAB2
 70
     6
  9
$SURFTYPE
 70
     6
  9
$SURFU
 70
     6
  9
$SURFV
 70
     6
  9
$UCSBASE
  2

  9
$UCSNAME
  2

  9
$UCSORG
 10
0.0
 20
0.0
 30
0.0
  9
$UCSXDIR
 10
1.0
 20
0.0
 30
0.0
  9
$UCSYDIR
 10
0.0
 20
1.0
 30
0.0
  9
$UCSORTHOREF
  2

  9
$UCSORTHOVIEW
 70
     0
  9
$UCSORGTOP
 10
0.0
 20
0.0
 30
0.0
  9
$UCSORGBOTTOM
 10
0.0
 20
0.0
 30
0.0
  9
$UCSORGLEFT
 10
0.0
 20
0.0
 30
0.0
  9
$UCSORGRIGHT
 10
0.0
 20
0.0
 30
0.0
  9
$UCSORGFRONT
 10
0.0
 20
0.0
 30
0.0
  9
$UCSORGBACK
 10
0.0
 20
0.0
 30
0.0
  9
$PUCSBASE
  2

  9
$PUCSNAME
  2

  9
$PUCSORG
 10
0.0
 20
0.0
 30
0.0
  9
$PUCSXDIR
 10
1.0
 20
0.0
 30
0.0
  9
$PUCSYDIR
 10
0.0
 20
1.0
 30
0.0
  9
$PUCSORTHOREF
  2

  9
$PUCSORTHOVIEW
 70
     0
  9
$PUCSORGTOP
 10
0.0
 20
0.0
 30
0.0
  9
$PUCSORGBOTTOM
 10
0.0
 20
0.0
 30
0.0
  9
$PUCSORGLEFT
 10
0.0
 20
0.0
 30
0.0
  9
$PUCSORGRIGHT
 10
0.0
 20
0.0
 30
0.0
  9
$PUCSORGFRONT
 10
0.0
 20
0.0
 30
0.0
  9
$PUCSORGBACK
 10
0.0
 20
0.0
 30
0.0
  9
$USERI1
 70
     0
  9
$USERI2
 70
     0
  9
$USERI3
 70
     0
  9
$USERI4
 70
     0
  9
$USERI5
 70
     0
  9
$USERR1
 40
0.0
  9
$USERR2
 40
0.0
  9
$USERR3
 40
0.0
  9
$USERR4
 40
0.0
  9
$USERR5
 40
0.0
  9
$WORLDVIEW
 70
     1
  9
$SHADEDGE
 70
     3
  9
$SHADEDIF
 70
    70
  9
$TILEMODE
 70
     1
  9
$MAXACTVP
 70
    64
  9
$PINSBASE
 10
0.0
 20
0.0
 30
0.0
  9
$PLIMCHECK
 70
     0
  9
$PEXTMIN
 10
9.015664445261563
 20
12.15813129276887
 30
0.0
  9
$PEXTMAX
 10
193.4351008528131
 20
280.2690525345891
 30
0.0
  9
$PLIMMIN
 10
-4.180416584014892
 20
-5.831417560577392
  9
$PLIMMAX
 10
205.7929110527039
 20
291.1369051933288
  9
$UNITMODE
 70
     0
  9
$VISRETAIN
 70
     1
  9
$PLINEGEN
 70
     0
  9
$PSLTSCALE
 70
     1
  9
$TREEDEPTH
 70
  3020
  9
$CMLSTYLE
  2
Standard
  9
$CMLJUST
 70
     0
  9
$CMLSCALE
 40
20.0
  9
$PROXYGRAPHICS
 70
     1
  9
$MEASUREMENT
 70
     1
  9
$CELWEIGHT
370
    -1
  9
$ENDCAPS
280
     0
  9
$JOINSTYLE
280
     0
  9
$LWDISPLAY
290
     0
  9
$INSUNITS
 70
     4
  9
$HYPERLINKBASE
  1

  9
$STYLESHEET
  1

  9
$XEDIT
290
     1
  9
$CEPSNTYPE
380
     0
  9
$PSTYLEMODE
290
     1
  9
$FINGERPRINTGUID
  2
{03A8F9F0-C856-470B-BDF9-D9C40928B69F}
  9
$VERSIONGUID
  2
{09CB00B8-B92C-4556-B319-F1BF2D68DFB1}
  9
$EXTNAMES
290
     1
  9
$PSVPSCALE
 40
0.0
  9
$OLESTARTUP
290
     0
  9
$SORTENTS
280
   127
  9
$INDEXCTL
280
     0
  9
$HIDETEXT
280
     1
  9
$XCLIPFRAME
290
     0
  9
$HALOGAP
280
     0
  9
$OBSCOLOR
 70
   257
  9
$OBSLTYPE
280
     0
  9
$INTERSECTIONDISPLAY
280
     0
  9
$INTERSECTIONCOLOR
 70
   257
  9
$DIMASSOC
280
     2
  9
$PROJECTNAME
  1

  0
ENDSEC
  0
SECTION
  2
CLASSES
  0
CLASS
  1
ACDBDICTIONARYWDFLT
  2
AcDbDictionaryWithDefault
  3
ObjectDBX Classes
 90
        0
 91
        1
280
     0
281
     0
  0
CLASS
  1
MATERIAL
  2
AcDbMaterial
  3
ObjectDBX Classes
 90
     1153
 91
        3
280
     0
281
     0
  0
CLASS
  1
DIMASSOC
  2
AcDbDimAssoc
  3
"AcDbDimAssoc|Product Desc:     AcDim ARX App For Dimension|Company:          Autodesk, Inc.|WEB Address:      www.autodesk.com"
 90
        0
 91
        1
280
     0
281
     0
  0
CLASS
  1
VISUALSTYLE
  2
AcDbVisualStyle
  3
ObjectDBX Classes
 90
     4095
 91
       16
280
     0
281
     0
  0
CLASS
  1
TABLESTYLE
  2
AcDbTableStyle
  3
ObjectDBX Classes
 90
     4095
 91
        1
280
     0
281
     0
  0
CLASS
  1
SCALE
  2
AcDbScale
  3
ObjectDBX Classes
 90
     1153
 91
       33
280
     0
281
     0
  0
CLASS
  1
MLEADERSTYLE
  2
AcDbMLeaderStyle
  3
ACDB_MLEADERSTYLE_CLASS
 90
     4095
 91
        1
280
     0
281
     0
  0
CLASS
  1
CELLSTYLEMAP
  2
AcDbCellStyleMap
  3
ObjectDBX Classes
 90
     1152
 91
        2
280
     0
281
     0
  0
CLASS
  1
DICTIONARYVAR
  2
AcDbDictionaryVar
  3
ObjectDBX Classes
 90
        0
 91
        3
280
     0
281
     0
  0
CLASS
  1
ACAD_TABLE
  2
AcDbTable
  3
ObjectDBX Classes
 90
     1025
 91
        0
280
     0
281
     1
  0
CLASS
  1
SORTENTSTABLE
  2
AcDbSortentsTable
  3
ObjectDBX Classes
 90
        0
 91
        1
280
     0
281
     0
  0
ENDSEC
  0
SECTION
  2
TABLES
  0
TABLE
  2
VPORT
  5
8
102
{ACAD_XDICTIONARY
360
1BBC
102
}
330
0
100
AcDbSymbolTable
 70
     1
  0
VPORT
  5
1DF4
330
8
100
AcDbSymbolTableRecord
100
AcDbViewportTableRecord
  2
*Active
 70
     0
 10
0.0
 20
0.0
 11
1.0
 21
1.0
 12
207.3729963510134
 22
147.0821056713903
 13
0.0
 23
0.0
 14
10.0
 24
10.0
 15
10.0
 25
10.0
 16
0.0
 26
0.0
 36
1.0
 17
0.0
 27
0.0
 37
0.0
 40
302.2603368134773
 41
2.304913294797688
 42
50.0
 43
0.0
 44
0.0
 50
0.0
 51
0.0
 71
     0
 72
  1000
 73
     1
 74
     3
 75
     0
 76
     0
 77
     0
 78
     0
281
     0
 65
     1
110
0.0
120
0.0
130
0.0
111
1.0
121
0.0
131
0.0
112
0.0
122
1.0
132
0.0
 79
     0
146
0.0
  0
ENDTAB
  0
TABLE
  2
LTYPE
  5
5
330
0
100
AcDbSymbolTable
 70
     1
  0
LTYPE
  5
14
330
5
100
AcDbSymbolTableRecord
100
AcDbLinetypeTableRecord
  2
ByBlock
 70
     0
  3

 72
    65
 73
     0
 40
0.0
  0
LTYPE
  5
15
330
5
100
AcDbSymbolTableRecord
100
AcDbLinetypeTableRecord
  2
ByLayer
 70
     0
  3

 72
    65
 73
     0
 40
0.0
  0
LTYPE
  5
16
330
5
100
AcDbSymbolTableRecord
100
AcDbLinetypeTableRecord
  2
Continuous
 70
     0
  3
Solid line
 72
    65
 73
     0
 40
0.0
  0
ENDTAB
  0
TABLE
  2
LAYER
  5
2
102
{ACAD_XDICTIONARY
360
5C
102
}
330
0
100
AcDbSymbolTable
 70
    13
  0
LAYER
  5
10
102
{ACAD_XDICTIONARY
360
1B37
102
}
330
2
100
AcDbSymbolTableRecord
100
AcDbLayerTableRecord
  2
0
 70
     0
 62
     7
  6
Continuous
370
    -3
390
F
  0
LAYER
  5
2D
102
{ACAD_XDICTIONARY
360
1B39
102
}
330
2
100
AcDbSymbolTableRecord
100
AcDbLayerTableRecord
  2
gaikei
 70
     0
 62
     7
  6
Continuous
370
    -3
390
F
  0
LAYER
  5
2E
102
{ACAD_XDICTIONARY
360
1B3B
102
}
330
2
100
AcDbSymbolTableRecord
100
AcDbLayerTableRecord
  2
sumpo
 70
     0
 62
     4
  6
Continuous
370
    -3
390
F
  0
LAYER
  5
2F
102
{ACAD_XDICTIONARY
360
1B3D
102
}
330
2
100
AcDbSymbolTableRecord
100
AcDbLayerTableRecord
  2
fuzoku
 70
     0
 62
     3
  6
Continuous
370
    -3
390
F
  0
LAYER
  5
30
102
{ACAD_XDICTIONARY
360
1B3F
102
}
330
2
100
AcDbSymbolTableRecord
100
AcDbLayerTableRecord
  2
moji
 70
     0
 62
     2
  6
Continuous
370
    -3
390
F
  0
LAYER
  5
48
102
{ACAD_XDICTIONARY
360
1B41
102
}
330
2
100
AcDbSymbolTableRecord
100
AcDbLayerTableRecord
  2
hojo
 70
     0
 62
     6
  6
Continuous
370
    -3
390
F
  0
LAYER
  5
8F4
330
2
100
AcDbSymbolTableRecord
100
AcDbLayerTableRecord
  2
Defpoints
 70
     0
 62
     7
  6
Continuous
290
     0
370
    -3
390
F
  0
LAYER
  5
B26
102
{ACAD_XDICTIONARY
360
1B43
102
}
330
2
100
AcDbSymbolTableRecord
100
AcDbLayerTableRecord
  2
shiyouwaku
 70
     0
 62
     7
  6
Continuous
370
    -3
390
F
  0
LAYER
  5
B29
102
{ACAD_XDICTIONARY
360
1B45
102
}
330
2
100
AcDbSymbolTableRecord
100
AcDbLayerTableRecord
  2
zubanwaku
 70
     0
 62
     7
  6
Continuous
370
    -3
390
F
  0
LAYER
  5
B2A
102
{ACAD_XDICTIONARY
360
1B47
102
}
330
2
100
AcDbSymbolTableRecord
100
AcDbLayerTableRecord
  2
zubanmoji
 70
     0
 62
     3
  6
Continuous
370
    -3
390
F
  0
LAYER
  5
1832
102
{ACAD_XDICTIONARY
360
1B49
102
}
330
2
100
AcDbSymbolTableRecord
100
AcDbLayerTableRecord
  2
hacchi
 70
     0
 62
     6
  6
Continuous
370
    -3
390
F
  0
LAYER
  5
1D48
330
2
100
AcDbSymbolTableRecord
100
AcDbLayerTableRecord
  2
hacchi2
 70
     0
 62
    17
  6
Continuous
370
    -3
390
F
  0
LAYER
  5
1D49
330
2
100
AcDbSymbolTableRecord
100
AcDbLayerTableRecord
  2
hacchi3
 70
     0
 62
   250
  6
Continuous
370
    -3
390
F
  0
ENDTAB
  0
TABLE
  2
STYLE
  5
3
330
0
100
AcDbSymbolTable
 70
     2
  0
STYLE
  5
11
330
3
100
AcDbSymbolTableRecord
100
AcDbTextStyleTableRecord
  2
Standard
 70
     0
 40
0.0
 41
1.0
 50
0.0
 71
     0
 42
3.0
  3
romans.shx
  4
extfont.shx
  0
STYLE
  5
425
330
3
100
AcDbSymbolTableRecord
100
AcDbTextStyleTableRecord
  2
KKZ-Y
 70
     0
 40
0.0
 41
1.0
 50
0.0
 71
     0
 42
10.0
  3
TXT
  4
EXTFONT
  0
ENDTAB
  0
TABLE
  2
VIEW
  5
6
330
0
100
AcDbSymbolTable
 70
     0
  0
ENDTAB
  0
TABLE
  2
UCS
  5
7
330
0
100
AcDbSymbolTable
 70
     0
  0
ENDTAB
  0
TABLE
  2
APPID
  5
9
330
0
100
AcDbSymbolTable
 70
     7
  0
APPID
  5
12
330
9
100
AcDbSymbolTableRecord
100
AcDbRegAppTableRecord
  2
ACAD
 70
     0
  0
APPID
  5
51
330
9
100
AcDbSymbolTableRecord
100
AcDbRegAppTableRecord
  2
AcadAnnotative
 70
     0
  0
APPID
  5
52
330
9
100
AcDbSymbolTableRecord
100
AcDbRegAppTableRecord
  2
ACAD_DSTYLE_DIMJAG
 70
     0
  0
APPID
  5
53
330
9
100
AcDbSymbolTableRecord
100
AcDbRegAppTableRecord
  2
ACAD_DSTYLE_DIMTALN
 70
     0
  0
APPID
  5
54
330
9
100
AcDbSymbolTableRecord
100
AcDbRegAppTableRecord
  2
ACAD_PSEXT
 70
     0
  0
APPID
  5
1B2E
330
9
100
AcDbSymbolTableRecord
100
AcDbRegAppTableRecord
  2
ACAD_MLEADERVER
 70
     0
  0
APPID
  5
1B7D
330
9
100
AcDbSymbolTableRecord
100
AcDbRegAppTableRecord
  2
ACAD_EXEMPT_FROM_CAD_STANDARDS
 70
     0
  0
ENDTAB
  0
TABLE
  2
DIMSTYLE
  5
A
330
0
100
AcDbSymbolTable
 70
     4
100
AcDbDimStyleTable
 71
     4
340
1439
340
29
340
4F
340
50
  0
DIMSTYLE
105
29
330
A
100
AcDbSymbolTableRecord
100
AcDbDimStyleTableRecord
  2
ISO-25
 70
     0
 41
8.0
 42
10.0
 43
3.75
 44
10.0
 73
     0
 74
     0
 77
     1
 78
     8
140
8.0
141
2.5
143
0.03937007874016
147
4.0
171
     3
172
     1
176
   256
177
   256
178
     4
271
     2
272
     2
274
     3
283
     0
284
     8
340
11
341
8EC
342
8EC
  0
DIMSTYLE
105
4F
330
A
100
AcDbSymbolTableRecord
100
AcDbDimStyleTableRecord
  2
Standard
 70
     0
340
11
  0
DIMSTYLE
105
50
330
A
100
AcDbSymbolTableRecord
100
AcDbDimStyleTableRecord
  2
Annotative
 70
     0
 40
0.0
340
11
1001
AcadAnnotative
1000
AnnotativeData
1002
{
1070
     1
1070
     1
1002
}
1001
ACAD_DSTYLE_DIMJAG
1070
   388
1040
1.5
1001
ACAD_DSTYLE_DIMTALN
1070
   392
1070
     0
  0
DIMSTYLE
105
1439
102
{ACAD_REACTORS
330
1DC7
330
1C5C
330
1C5E
330
1C60
330
1C62
330
1C64
330
1D29
330
1D2B
330
1D2D
102
}
330
A
100
AcDbSymbolTableRecord
100
AcDbDimStyleTableRecord
  2
ISO-25-4mm
 70
     0
 41
3.0
 42
15.0
 43
3.75
 44
2.0
 73
     0
 74
     0
 77
     1
 78
     8
140
3.0
141
2.5
143
0.03937007874016
147
1.0
171
     3
172
     1
176
   256
177
   256
178
     4
271
     2
272
     2
274
     3
283
     0
284
     8
340
11
342
8EC
  0
ENDTAB
  0
TABLE
  2
BLOCK_RECORD
  5
1
330
0
100
AcDbSymbolTable
 70
     5
  0
BLOCK_RECORD
  5
21
102
{ACAD_XDICTIONARY
360
1DF1
102
}
330
1
100
AcDbSymbolTableRecord
100
AcDbBlockTableRecord
  2
*Model_Space
340
24
  0
BLOCK_RECORD
  5
17A6
330
1
100
AcDbSymbolTableRecord
100
AcDbBlockTableRecord
  2
*Paper_Space
340
17A7
  0
BLOCK_RECORD
  5
8EC
330
1
100
AcDbSymbolTableRecord
100
AcDbBlockTableRecord
  2
_Open30
340
0
102
{BLKREFS
331
1ACD
331
1ACE
331
1BF5
331
1BF6
331
1D1A
331
1D1B
331
1DEB
331
1DEC
102
}
  0
BLOCK_RECORD
  5
1DC8
330
1
100
AcDbSymbolTableRecord
100
AcDbBlockTableRecord
  2
*D4
340
0
  0
ENDTAB
  0
ENDSEC
  0
SECTION
  2
BLOCKS
  0
BLOCK
  5
22
330
21
100
AcDbEntity
  8
0
100
AcDbBlockBegin
  2
*Model_Space
 70
     0
 10
0.0
 20
0.0
 30
0.0
  3
*Model_Space
  1

  0
ENDBLK
  5
23
330
21
100
AcDbEntity
  8
0
100
AcDbBlockEnd
  0
BLOCK
  5
17A8
330
17A6
100
AcDbEntity
 67
     1
  8
0
100
AcDbBlockBegin
  2
*Paper_Space
 70
     0
 10
0.0
 20
0.0
 30
0.0
  3
*Paper_Space
  1

  0
ENDBLK
  5
17A9
330
17A6
100
AcDbEntity
 67
     1
  8
0
100
AcDbBlockEnd
  0
BLOCK
  5
8F0
330
8EC
100
AcDbEntity
  8
0
100
AcDbBlockBegin
  2
_Open30
 70
     0
 10
0.0
 20
0.0
 30
0.0
  3
_Open30
  1

  0
LINE
  5
8ED
330
8EC
100
AcDbEntity
  8
0
  6
ByBlock
 62
     0
370
    -2
100
AcDbLine
 10
-1.0
 20
0.26794919
 30
0.0
 11
0.0
 21
0.0
 31
0.0
  0
LINE
  5
8EE
330
8EC
100
AcDbEntity
  8
0
  6
ByBlock
 62
     0
370
    -2
100
AcDbLine
 10
0.0
 20
0.0
 30
0.0
 11
-1.0
 21
-0.26794919
 31
0.0
  0
LINE
  5
8EF
330
8EC
100
AcDbEntity
  8
0
  6
ByBlock
 62
     0
370
    -2
100
AcDbLine
 10
0.0
 20
0.0
 30
0.0
 11
-1.0
 21
0.0
 31
0.0
  0
ENDBLK
  5
8F1
330
8EC
100
AcDbEntity
  8
0
100
AcDbBlockEnd
  0
BLOCK
  5
1DD2
330
1DC8
100
AcDbEntity
  8
0
100
AcDbBlockBegin
  2
*D4
 70
     1
 10
0.0
 20
0.0
 30
0.0
  3
*D4
  1

  0
LINE
  5
1DE8
330
1DC8
100
AcDbEntity
  8
sumpo
370
    -2
100
AcDbLine
 10
82.31326298521761
 20
184.8530663590327
 30
0.0
 11
82.31326298521761
 21
164.8318866605235
 31
0.0
  0
LINE
  5
1DE9
330
1DC8
100
AcDbEntity
  8
sumpo
370
    -2
100
AcDbLine
 10
123.6204223298013
 20
184.8530663590327
 30
0.0
 11
123.6204223298013
 21
164.8318866605235
 31
0.0
  0
LINE
  5
1DEA
330
1DC8
100
AcDbEntity
  8
sumpo
370
    -2
100
AcDbLine
 10
85.3132629852176
 20
166.8318866605235
 30
0.0
 11
120.6204223298013
 21
166.8318866605235
 31
0.0
  0
INSERT
  5
1DEB
330
1DC8
100
AcDbEntity
  8
sumpo
370
    -2
100
AcDbBlockReference
  2
_Open30
 10
82.31326298521761
 20
166.8318866605235
 30
0.0
 41
3.0
 42
3.0
 43
3.0
 50
180.0
  0
INSERT
  5
1DEC
330
1DC8
100
AcDbEntity
  8
sumpo
370
    -2
100
AcDbBlockReference
  2
_Open30
 10
123.6204223298013
 20
166.8318866605235
 30
0.0
 41
3.0
 42
3.0
 43
3.0
  0
MTEXT
  5
1DED
330
1DC8
100
AcDbEntity
  8
sumpo
 62
     4
100
AcDbMText
 10
102.9668426575094
 20
169.3318866605235
 30
0.0
 40
3.0
 41
0.0
 71
     5
 72
     1
  1
3.5±0.5mm
 73
     1
 44
1.0
  0
POINT
  5
1DEE
330
1DC8
100
AcDbEntity
  8
Defpoints
 62
     0
100
AcDbPoint
 10
82.31326298521761
 20
199.8530663590327
 30
0.0
  0
POINT
  5
1DEF
330
1DC8
100
AcDbEntity
  8
Defpoints
 62
     0
100
AcDbPoint
 10
123.6204223298013
 20
199.8530663590327
 30
0.0
  0
POINT
  5
1DF0
330
1DC8
100
AcDbEntity
  8
Defpoints
 62
     0
100
AcDbPoint
 10
123.6204223298013
 20
166.8318866605235
 30
0.0
  0
ENDBLK
  5
1DD3
330
1DC8
100
AcDbEntity
  8
0
100
AcDbBlockEnd
  0
ENDSEC
  0
SECTION
  2
ENTITIES
  0
TEXT
  5
12A3
330
21
100
AcDbEntity
  8
zubanmoji
100
AcDbText
 10
387.5794558289331
 20
727.3666329742143
 30
0.0
 40
8.0
  1
 
100
AcDbText
  0
TEXT
  5
12A5
330
21
100
AcDbEntity
  8
zubanmoji
100
AcDbText
 10
396.3118100227534
 20
658.3374339419963
 30
0.0
 40
5.0
  1

100
AcDbText
  0
LINE
  5
168E
330
21
100
AcDbEntity
  8
shiyouwaku
100
AcDbLine
 10
18.86920042624118
 20
133.5084160368033
 30
0.0
 11
18.86920042624118
 21
38.50841603680331
 31
0.0
  0
LINE
  5
1690
330
21
100
AcDbEntity
  8
shiyouwaku
100
AcDbLine
 10
63.86920042624118
 20
133.5084160368033
 30
0.0
 11
63.86920042624118
 21
38.50841603680329
 31
0.0
  0
LINE
  5
1692
330
21
100
AcDbEntity
  8
shiyouwaku
100
AcDbLine
 10
18.86920042624118
 20
133.5084160368033
 30
0.0
 11
198.8692004262413
 21
133.5084160368032
 31
0.0
  0
LINE
  5
1694
330
21
100
AcDbEntity
  8
shiyouwaku
100
AcDbLine
 10
18.86920042624118
 20
128.5084160368033
 30
0.0
 11
198.8692004262413
 21
128.5084160368033
 31
0.0
  0
LINE
  5
1696
330
21
100
AcDbEntity
  8
shiyouwaku
100
AcDbLine
 10
18.86920042624118
 20
118.5084160368033
 30
0.0
 11
198.8692004262412
 21
118.5084160368032
 31
0.0
  0
TEXT
  5
169B
330
21
100
AcDbEntity
  8
moji
100
AcDbText
 10
32.96920042624118
 20
129.6084160368033
 30
0.0
 40
3.0
  1
項　　　目
 72
     4
 11
41.36920042624118
 21
131.0084160368033
 31
0.0
100
AcDbText
  0
TEXT
  5
169C
330
21
100
AcDbEntity
  8
moji
100
AcDbText
 10
115.9692004262412
 20
129.5084160368033
 30
0.0
 40
3.0
  1
仕　　　　様
 72
     4
 11
126.3692004262412
 21
131.0084160368033
 31
0.0
100
AcDbText
  0
TEXT
  5
169E
330
21
100
AcDbEntity
  8
moji
100
AcDbText
 10
34.56920042624118
 20
124.5084160368033
 30
0.0
 40
3.0
  1
絶縁性能
 72
     4
 11
41.36920042624118
 21
126.0084160368033
 31
0.0
100
AcDbText
  0
TEXT
  5
16A5
330
21
100
AcDbEntity
  8
moji
100
AcDbText
 10
65.70792146355237
 20
99.50841603680331
 30
0.0
 40
3.0
  1
・導電率　水温：24℃、200μS/cm［5.0kΩ・cm］
 11
65.70792146355237
 21
101.0084160368033
 31
0.0
100
AcDbText
 73
     2
  0
TEXT
  5
16AB
330
21
100
AcDbEntity
  8
moji
100
AcDbText
 10
34.56920042624118
 20
54.50841603680331
 30
0.0
 40
3.0
  1
耐湿特性
 72
     4
 11
41.36920042624118
 21
56.0084160368033
 31
0.0
100
AcDbText
  0
TEXT
  5
16AC
330
21
100
AcDbEntity
  8
moji
100
AcDbText
 10
41.36920042624118
 20
46.00841603680329
 30
0.0
 40
3.0
  1

 72
     4
 11
41.36920042624118
 21
46.00841603680329
 31
0.0
100
AcDbText
  0
TEXT
  5
16B0
330
21
100
AcDbEntity
  8
moji
100
AcDbText
 10
65.70792146355237
 20
94.45543582836561
 30
0.0
 40
3.0
  1
・試験器　当社検知器　AD-AS-1ＬＭ
 11
65.70792146355237
 21
95.9554358283656
 31
0.0
100
AcDbText
 73
     2
  0
TEXT
  5
16B2
330
21
100
AcDbEntity
  8
moji
100
AcDbText
 10
65.70792146355237
 20
69.50841603680331
 30
0.0
 40
3.0
  1
※センサの敷設面の状態、環境、水質により検知水量は変化します
 11
65.70792146355237
 21
71.00841603680331
 31
0.0
100
AcDbText
 73
     2
  0
TEXT
  5
16B3
330
21
100
AcDbEntity
  8
moji
100
AcDbText
 10
65.70792146355237
 20
64.50841603680331
 30
0.0
 40
3.0
  1
漏水検知後、自然状態（センサに給水が無い状態）で30分以内に復帰、
 11
65.70792146355237
 21
66.00841603680331
 31
0.0
100
AcDbText
 73
     2
  0
TEXT
  5
16B5
330
21
100
AcDbEntity
  8
moji
100
AcDbText
 10
36.36920042624118
 20
44.4084160368033
 30
0.0
 40
3.0
  1
耐熱性
 72
     4
 11
41.36920042624118
 21
46.0084160368033
 31
0.0
100
AcDbText
  0
TEXT
  5
16B6
330
21
100
AcDbEntity
  8
moji
100
AcDbText
 10
38.16920042624118
 20
39.50841603680331
 30
0.0
 40
3.0
  1
重量
 72
     4
 11
41.36920042624118
 21
41.0084160368033
 31
0.0
100
AcDbText
  0
TEXT
  5
175C
330
21
100
AcDbEntity
  8
zubanmoji
100
AcDbText
 10
125.9658668796702
 20
-0.8297189947439704
 30
0.0
 40
2.0
  1
TATSUTA ELECTRIC WIRE & CABLE CO., LTD. 
 72
     1
 11
158.2134859272892
 21
0.1702810052560295
 31
0.0
100
AcDbText
 73
     2
  0
TEXT
  5
175F
330
21
100
AcDbEntity
  8
zubanmoji
100
AcDbText
 10
187.0629369420027
 20
10.68250963322315
 30
0.0
 40
3.0
  1
mm
 72
     1
 11
191.348651227717
 21
12.18250963322315
 31
0.0
100
AcDbText
 73
     2
  0
TEXT
  5
1760
330
21
100
AcDbEntity
  8
zubanmoji
100
AcDbText
 10
176.148651227717
 20
10.68250963322315
 30
0.0
 40
3.0
  1
単位
 72
     1
 11
179.348651227717
 21
12.18250963322315
 31
0.0
100
AcDbText
 73
     2
  0
TEXT
  5
1761
330
21
100
AcDbEntity
  8
zubanmoji
100
AcDbText
 10
142.2057940848598
 20
10.68250963322315
 30
0.0
 40
3.0
  1
AD-LS
 72
     1
 11
149.348651227717
 21
12.18250963322315
 31
0.0
100
AcDbText
 73
     2
  0
TEXT
  5
1762
330
21
100
AcDbEntity
  8
zubanmoji
100
AcDbText
 10
118.148651227717
 20
10.68250963322315
 30
0.0
 40
3.0
  1
型式
 72
     1
 11
121.348651227717
 21
12.18250963322315
 31
0.0
100
AcDbText
 73
     2
  0
TEXT
  5
1765
330
21
100
AcDbEntity
  8
zubanmoji
100
AcDbText
 10
145.448651227717
 20
16.68250963322316
 30
0.0
 40
3.0
  1
位置検知型漏水センサ
 72
     1
 11
162.848651227717
 21
18.18250963322316
 31
0.0
100
AcDbText
 73
     2
  0
TEXT
  5
1766
330
21
100
AcDbEntity
  8
zubanmoji
100
AcDbText
 10
118.148651227717
 20
16.68250963322315
 30
0.0
 40
3.0
  1
名称
 72
     1
 11
121.348651227717
 21
18.18250963322315
 31
0.0
100
AcDbText
 73
     2
  0
LINE
  5
1767
330
21
100
AcDbEntity
  8
zubanwaku
100
AcDbLine
 10
198.348651227717
 20
21.18250963322315
 30
0.0
 11
198.348651227717
 21
-2.817490366776844
 31
0.0
  0
LINE
  5
1768
330
21
100
AcDbEntity
  8
zubanwaku
100
AcDbLine
 10
185.348651227717
 20
15.18250963322316
 30
0.0
 11
185.348651227717
 21
9.182509633223162
 31
0.0
  0
LINE
  5
1769
330
21
100
AcDbEntity
  8
zubanwaku
100
AcDbLine
 10
173.3486512277169
 20
15.18250963322316
 30
0.0
 11
173.348651227717
 21
9.182509633223162
 31
0.0
  0
LINE
  5
176A
330
21
100
AcDbEntity
  8
zubanwaku
100
AcDbLine
 10
127.348651227717
 20
21.18250963322315
 30
0.0
 11
127.348651227717
 21
3.182509633223157
 31
0.0
  0
LINE
  5
176C
330
21
100
AcDbEntity
  8
zubanwaku
100
AcDbLine
 10
115.348651227717
 20
-2.817490366776844
 30
0.0
 11
198.348651227717
 21
-2.817490366776844
 31
0.0
  0
LINE
  5
176D
330
21
100
AcDbEntity
  8
zubanwaku
100
AcDbLine
 10
115.348651227717
 20
9.182509633223155
 30
0.0
 11
198.348651227717
 21
9.182509633223162
 31
0.0
  0
LINE
  5
176E
330
21
100
AcDbEntity
  8
zubanwaku
100
AcDbLine
 10
115.348651227717
 20
15.18250963322315
 30
0.0
 11
198.348651227717
 21
15.18250963322316
 31
0.0
  0
LINE
  5
176F
330
21
100
AcDbEntity
  8
zubanwaku
100
AcDbLine
 10
115.348651227717
 20
21.18250963322315
 30
0.0
 11
198.348651227717
 21
21.18250963322316
 31
0.0
  0
LINE
  5
1770
330
21
100
AcDbEntity
  8
zubanwaku
100
AcDbLine
 10
115.348651227717
 20
21.18250963322315
 30
0.0
 11
115.348651227717
 21
-2.817490366776844
 31
0.0
  0
TEXT
  5
1964
330
21
100
AcDbEntity
  8
moji
100
AcDbText
 10
65.70792146355237
 20
124.5084160368033
 30
0.0
 40
3.0
  1
各電極間、ＤＣ１００Ｖメガーにて電極間の絶縁抵抗１０ＭΩ以上/100ｍ
 11
65.70792146355237
 21
126.0084160368033
 31
0.0
100
AcDbText
 73
     2
  0
TEXT
  5
1965
330
21
100
AcDbEntity
  8
moji
100
AcDbText
 10
65.70792146355237
 20
109.5084160368033
 30
0.0
 40
3.0
  1

 11
65.70792146355237
 21
111.0084160368034
 31
0.0
100
AcDbText
 73
     2
  0
TEXT
  5
1967
330
21
100
AcDbEntity
  8
moji
100
AcDbText
 10
65.70792146355237
 20
114.5084160368033
 30
0.0
 40
3.0
  1
滴下水が3.0ml以下の水量（市水）で漏水検知
 11
65.70792146355237
 21
116.0084160368033
 31
0.0
100
AcDbText
 73
     2
  0
TEXT
  5
1968
330
21
100
AcDbEntity
  8
moji
100
AcDbText
 10
65.70792146355238
 20
109.5084160368033
 30
0.0
 40
3.0
  1
・滴下量　センサに直接滴下（0.05ml/秒）
 11
65.70792146355238
 21
111.0084160368033
 31
0.0
100
AcDbText
 73
     2
  0
TEXT
  5
1969
330
21
100
AcDbEntity
  8
moji
100
AcDbText
 10
65.70792146355238
 20
104.5084160368033
 30
0.0
 40
3.0
  1
・測定環境　温度：24℃、湿度：60％RH
 11
65.70792146355238
 21
106.0084160368033
 31
0.0
100
AcDbText
 73
     2
  0
LINE
  5
198D
330
21
100
AcDbEntity
  8
shiyouwaku
100
AcDbLine
 10
198.8692004262413
 20
133.5084160368032
 30
0.0
 11
198.8692004262411
 21
38.50841603680326
 31
0.0
  0
LINE
  5
198F
330
21
100
AcDbEntity
  8
shiyouwaku
100
AcDbLine
 10
18.86920042624118
 20
58.5084160368033
 30
0.0
 11
198.8692004262412
 21
58.50841603680327
 31
0.0
  0
LINE
  5
1991
330
21
100
AcDbEntity
  8
shiyouwaku
100
AcDbLine
 10
18.86920042624118
 20
48.5084160368033
 30
0.0
 11
198.8692004262412
 21
48.50841603680327
 31
0.0
  0
LINE
  5
1992
330
21
100
AcDbEntity
  8
shiyouwaku
100
AcDbLine
 10
18.86920042624118
 20
43.5084160368033
 30
0.0
 11
198.8692004262412
 21
43.50841603680327
 31
0.0
  0
LINE
  5
1993
330
21
100
AcDbEntity
  8
shiyouwaku
100
AcDbLine
 10
18.86920042624118
 20
38.50841603680331
 30
0.0
 11
198.8692004262411
 21
38.50841603680326
 31
0.0
  0
TEXT
  5
1994
330
21
100
AcDbEntity
  8
moji
100
AcDbText
 10
65.70792146355237
 20
59.50841603680329
 30
0.0
 40
3.0
  1
但し、漏水の中に導電性、撥水性等の汚染物質が含まれている場合は再使用不可
 11
65.70792146355237
 21
61.00841603680329
 31
0.0
100
AcDbText
 73
     2
  0
TEXT
  5
1995
330
21
100
AcDbEntity
  8
moji
100
AcDbText
 10
65.70792146355237
 20
44.45543582836558
 30
0.0
 40
3.0
  1

 11
65.70792146355237
 21
45.95543582836557
 31
0.0
100
AcDbText
 73
     2
  0
TEXT
  5
1996
330
21
100
AcDbEntity
  8
moji
100
AcDbText
 10
65.70792146355237
 20
54.50841603680329
 30
0.0
 40
3.0
  1
高湿雰囲気中でも結露が無い限り電極1－電極2の電極間抵抗は
 11
65.70792146355237
 21
56.00841603680329
 31
0.0
100
AcDbText
 73
     2
  0
TEXT
  5
1997
330
21
100
AcDbEntity
  8
moji
100
AcDbText
 10
65.70792146355237
 20
49.50841603680329
 30
0.0
 40
3.0
  1
600kΩ以上/100m　（測定環境　温度：60℃、湿度：95％RH）
 11
65.70792146355237
 21
51.00841603680329
 31
0.0
100
AcDbText
 73
     2
  0
TEXT
  5
1999
330
21
100
AcDbEntity
  8
moji
100
AcDbText
 10
65.70792146355237
 20
44.5084160368033
 30
0.0
 40
3.0
  1
連続使用温度　60℃以下（材料耐熱温度：80℃）
 11
65.70792146355237
 21
46.0084160368033
 31
0.0
100
AcDbText
 73
     2
  0
TEXT
  5
199A
330
21
100
AcDbEntity
  8
moji
100
AcDbText
 10
65.70792146355237
 20
39.50841603680331
 30
0.0
 40
3.0
  1
12.8±1.0g/m
 11
65.70792146355237
 21
41.0084160368033
 31
0.0
100
AcDbText
 73
     2
  0
TEXT
  5
199B
330
21
100
AcDbEntity
  8
moji
100
AcDbText
 10
27.36920042624117
 20
114.5084160368033
 30
0.0
 40
3.0
  1
吸水（感度）特性
 72
     4
 11
41.36920042624118
 21
116.0084160368033
 31
0.0
100
AcDbText
  0
LINE
  5
199D
330
21
100
AcDbEntity
  8
zubanwaku
100
AcDbLine
 10
115.348651227717
 20
3.182509633223155
 30
0.0
 11
198.348651227717
 21
3.182509633223162
 31
0.0
  0
TEXT
  5
199E
330
21
100
AcDbEntity
  8
zubanmoji
100
AcDbText
 10
118.048651227717
 20
4.682509633223155
 30
0.0
 40
3.0
  1
図番
 72
     1
 11
121.348651227717
 21
6.182509633223155
 31
0.0
100
AcDbText
 73
     2
  0
TEXT
  5
199F
330
21
100
AcDbEntity
  8
zubanmoji
100
AcDbText
 10
143.0629369420027
 20
4.68250963322316
 30
0.0
 40
3.0
  1
TS-KS-W1609-0
 72
     1
 11
162.848651227717
 21
6.18250963322316
 31
0.0
100
AcDbText
 73
     2
  0
TEXT
  5
19D2
330
21
100
AcDbEntity
  8
moji
100
AcDbText
 10
86.52421148240012
 20
243.8002690662063
 30
0.0
 40
3.0
  1
AD-ＬSセンサ姿図
 11
86.52421148240012
 21
245.3002690662064
 31
0.0
100
AcDbText
 73
     2
  0
LINE
  5
19D4
330
21
100
AcDbEntity
  8
shiyouwaku
100
AcDbLine
 10
85.22791087969528
 20
242.6559394596655
 30
0.0
 11
120.6704351942361
 21
242.6559394596655
 31
0.0
  0
TEXT
  5
19D5
330
21
100
AcDbEntity
  8
moji
100
AcDbText
 10
86.02247834607043
 20
147.1618955053607
 30
0.0
 40
3.0
  1
AD-ＬSセンサ断面図
 11
86.02247834607043
 21
148.6618955053607
 31
0.0
100
AcDbText
 73
     2
  0
LINE
  5
19D6
330
21
100
AcDbEntity
  8
shiyouwaku
100
AcDbLine
 10
84.7261777433656
 20
146.0175658988197
 30
0.0
 11
124.2491116429381
 21
146.0175658988197
 31
0.0
  0
LINE
  5
1AD3
330
21
100
AcDbEntity
  8
shiyouwaku
100
AcDbLine
 10
18.86920042624118
 20
68.50841603680322
 30
0.0
 11
198.8692004262413
 21
68.50841603680322
 31
0.0
  0
TEXT
  5
1AD4
330
21
100
AcDbEntity
  8
moji
100
AcDbText
 10
34.56920042624118
 20
64.50841603680323
 30
0.0
 40
3.0
  1
復帰特性
 72
     4
 11
41.36920042624118
 21
66.00841603680322
 31
0.0
100
AcDbText
  0
TEXT
  5
1BDF
330
21
100
AcDbEntity
  8
moji
100
AcDbText
 10
65.70792146355237
 20
79.45543582836561
 30
0.0
 40
3.0
  1
            　：　101m以上の場合　接続センサ長の±1％
 11
65.70792146355237
 21
80.9554358283656
 31
0.0
100
AcDbText
 73
     2
  0
TEXT
  5
1BE0
330
21
100
AcDbEntity
  8
moji
100
AcDbText
 10
65.70792146355237
 20
84.50841603680331
 30
0.0
 40
3.0
  1
接続センサ長　：　100m以内の場合　±1m
 11
65.70792146355237
 21
86.00841603680331
 31
0.0
100
AcDbText
 73
     2
  0
TEXT
  5
1BE1
330
21
100
AcDbEntity
  8
moji
100
AcDbText
 10
65.70792146355237
 20
89.50841603680334
 30
0.0
 40
3.0
  1
漏水検知位置の特定は
 11
65.70792146355237
 21
91.00841603680335
 31
0.0
100
AcDbText
 73
     2
  0
TEXT
  5
1BE3
330
21
100
AcDbEntity
  8
moji
100
AcDbText
 10
65.70792146355237
 20
74.50841603680328
 30
0.0
 40
3.0
  1
　　　　　　　　　※センサの接続長は250m以内
 11
65.70792146355237
 21
76.00841603680328
 31
0.0
100
AcDbText
 73
     2
  0
MTEXT
  5
1C5B
102
{ACAD_REACTORS
330
1C5C
102
}
330
21
100
AcDbEntity
  8
sumpo
 62
     4
100
AcDbMText
 10
117.6718119183853
 20
227.360198113277
 30
0.0
 40
3.0
 41
0.0
 71
     1
 72
     1
  1
外部編組
 73
     1
 44
1.0
  0
LEADER
  5
1C5C
330
21
100
AcDbEntity
  8
sumpo
100
AcDbLeader
  3
ISO-25-4mm
 73
     0
 40
3.0
 41
13.82857142857143
 76
     3
 10
110.7930353270173
 20
217.6665089076191
 30
0.0
 10
115.52366399556
 20
225.860198113277
 30
0.0
 10
116.6718119183853
 20
225.860198113277
 30
0.0
340
1C5B
213
0.0
223
-1.5
233
0.0
1001
ACAD
1000
DSTYLE
1002
{
1070
   147
1040
1.0
1070
    77
1070
     0
1002
}
  0
MTEXT
  5
1C5D
102
{ACAD_REACTORS
330
1C5E
102
}
330
21
100
AcDbEntity
  8
sumpo
 62
     4
100
AcDbMText
 10
161.0361214807096
 20
280.2668821158238
 30
0.0
 40
3.0
 41
0.0
 71
     1
 72
     1
  1
外部編組
 73
     1
 44
1.0
  0
LEADER
  5
1C5E
330
21
100
AcDbEntity
  8
sumpo
100
AcDbLeader
  3
ISO-25-4mm
 73
     0
 40
3.0
 41
13.82857142857143
 76
     3
 10
151.6401461881157
 20
268.0604953517216
 30
0.0
 10
157.8214814684183
 20
278.7668821158238
 30
0.0
 10
160.0361214807096
 20
278.7668821158238
 30
0.0
340
1C5D
213
0.0
223
-1.5
233
0.0
1001
ACAD
1000
DSTYLE
1002
{
1070
   147
1040
1.0
1070
    77
1070
     0
1002
}
  0
MTEXT
  5
1C5F
102
{ACAD_REACTORS
330
1C60
102
}
330
21
100
AcDbEntity
  8
sumpo
 62
     4
100
AcDbMText
 10
48.32740116136893
 20
257.2788108087437
 30
0.0
 40
3.0
 41
0.0
 71
     1
 72
     1
  1
電極1
 73
     1
 44
1.0
  0
LEADER
  5
1C60
330
21
100
AcDbEntity
  8
sumpo
100
AcDbLeader
  3
ISO-25-4mm
 73
     0
 40
3.0
 41
8.771428571428572
 76
     3
 10
39.83560752704216
 20
265.8332638052054
 30
0.0
 10
45.64054867110371
 20
255.7788108087438
 30
0.0
 10
47.32740116136892
 20
255.7788108087438
 30
0.0
340
1C5F
213
0.0
223
-1.5
233
0.0
1001
ACAD
1000
DSTYLE
1002
{
1070
   147
1040
1.0
1070
    77
1070
     0
1002
}
  0
MTEXT
  5
1C61
102
{ACAD_REACTORS
330
1C62
102
}
330
21
100
AcDbEntity
  8
sumpo
 62
     4
100
AcDbMText
 10
47.89358431303116
 20
277.3453416078261
 30
0.0
 40
3.0
 41
0.0
 71
     1
 72
     1
  1
電極3
 73
     1
 44
1.0
  0
LEADER
  5
1C62
330
21
100
AcDbEntity
  8
sumpo
100
AcDbLeader
  3
ISO-25-4mm
 73
     0
 40
3.0
 41
9.628571428571429
 76
     3
 10
40.69348005678625
 20
267.8284818059895
 30
0.0
 10
45.32201622143204
 20
275.8453416078261
 30
0.0
 10
46.89358431303117
 20
275.8453416078261
 30
0.0
340
1C61
213
0.0
223
-1.5
233
0.0
1001
ACAD
1000
DSTYLE
1002
{
1070
   147
1040
1.0
1070
    77
1070
     0
1002
}
  0
MTEXT
  5
1C63
102
{ACAD_REACTORS
330
1C64
102
}
330
21
100
AcDbEntity
  8
sumpo
 62
     4
100
AcDbMText
 10
48.00402503478681
 20
283.9651034373637
 30
0.0
 40
3.0
 41
0.0
 71
     1
 72
     1
  1
電極2
 73
     1
 44
1.0
  0
LEADER
  5
1C64
330
21
100
AcDbEntity
  8
sumpo
100
AcDbLeader
  3
ISO-25-4mm
 73
     0
 40
3.0
 41
9.628571428571428
 76
     3
 10
37.96220505315186
 20
269.787879494942
 30
0.0
 10
45.28140370888623
 20
282.4651034373637
 30
0.0
 10
47.0040250347868
 20
282.4651034373637
 30
0.0
340
1C63
213
0.0
223
-1.5
233
0.0
1001
ACAD
1000
DSTYLE
1002
{
1070
   147
1040
1.0
1070
    77
1070
     0
1002
}
  0
ARC
  5
1C8C
330
21
100
AcDbEntity
  8
gaikei
100
AcDbCircle
 10
86.6670206697575
 20
265.4439356945933
 30
0.0
 40
1.0
100
AcDbArc
 50
258.6900675259808
 51
281.3099324740193
  0
HATCH
  5
1C8D
330
21
100
AcDbEntity
  8
hacchi
100
AcDbHatch
 10
0.0
 20
0.0
 30
0.0
210
0.0
220
0.0
230
1.0
  2
SOLID
 70
     1
 71
     0
 91
        3
 92
        7
 72
     0
 73
     1
 93
        4
 10
36.66702066181029
 20
269.1741317918747
 10
36.66702066181029
 20
270.1741317918747
 10
32.66702066181029
 20
270.1741317918747
 10
32.66702066181029
 20
269.1741317918747
 97
        0
 92
        7
 72
     0
 73
     1
 93
        4
 10
36.66702066181029
 20
267.6741317918748
 10
36.66702066181029
 20
268.1741317918747
 10
32.66702066181029
 20
268.1741317918747
 10
32.66702066181029
 20
267.6741317918748
 97
        0
 92
        7
 72
     0
 73
     1
 93
        4
 10
32.66702066181029
 20
266.1741317918747
 10
32.66702066181029
 20
265.1741317918748
 10
36.66702066181029
 20
265.1741317918748
 10
36.66702066181029
 20
266.1741317918747
 97
        0
 75
     0
 76
     1
 47
0.049351321747972
 98
        3
 10
35.19126723590535
 20
269.672328537283
 10
35.240642988937
 20
267.8463298623404
 10
35.0925144863395
 20
265.8229258853074
450
        0
451
        0
460
0.0
461
0.0
452
        1
462
1.0
453
        2
463
0.0
 63
     5
421
      255
463
1.0
 63
    51
421
 16777113
470
LINEAR
  0
LINE
  5
1C8E
330
21
100
AcDbEntity
  8
gaikei
100
AcDbLine
 10
32.66702066181029
 20
268.1741317918747
 30
0.0
 11
32.66702066181029
 21
267.6741317918748
 31
0.0
  0
LINE
  5
1C8F
330
21
100
AcDbEntity
  8
gaikei
100
AcDbLine
 10
32.66702066181029
 20
266.1741317918747
 30
0.0
 11
32.66702066181029
 21
265.1741317918748
 31
0.0
  0
LINE
  5
1C90
330
21
100
AcDbEntity
  8
gaikei
100
AcDbLine
 10
36.66702066181029
 20
265.1741317918748
 30
0.0
 11
32.66702066181029
 21
265.1741317918748
 31
0.0
  0
LINE
  5
1C91
330
21
100
AcDbEntity
  8
gaikei
100
AcDbLine
 10
36.66702066181029
 20
266.1741317918747
 30
0.0
 11
32.66702066181029
 21
266.1741317918747
 31
0.0
  0
LINE
  5
1C92
330
21
100
AcDbEntity
  8
gaikei
100
AcDbLine
 10
36.66702066181029
 20
268.1741317918747
 30
0.0
 11
32.66702066181029
 21
268.1741317918747
 31
0.0
  0
LINE
  5
1C93
330
21
100
AcDbEntity
  8
gaikei
100
AcDbLine
 10
36.66702066181029
 20
267.6741317918748
 30
0.0
 11
32.66702066181029
 21
267.6741317918748
 31
0.0
  0
LINE
  5
1C94
330
21
100
AcDbEntity
  8
gaikei
100
AcDbLine
 10
36.66702066181029
 20
269.1741317918747
 30
0.0
 11
32.66702066181029
 21
269.1741317918747
 31
0.0
  0
LINE
  5
1C95
330
21
100
AcDbEntity
  8
gaikei
100
AcDbLine
 10
36.66702066181029
 20
270.1741317918747
 30
0.0
 11
32.66702066181029
 21
270.1741317918747
 31
0.0
  0
LINE
  5
1C96
330
21
100
AcDbEntity
  8
gaikei
100
AcDbLine
 10
141.6670206474538
 20
264.4241317918747
 30
0.0
 11
71.66702066181028
 21
264.4241317918747
 31
0.0
  0
LINE
  5
1C99
330
21
100
AcDbEntity
  8
gaikei
100
AcDbLine
 10
141.6670206474538
 20
270.4241317918747
 30
0.0
 11
71.66702066181028
 21
270.4241317918747
 31
0.0
  0
LINE
  5
1C9A
102
{ACAD_REACTORS
330
1D8E
102
}
330
21
100
AcDbEntity
  8
gaikei
100
AcDbLine
 10
36.66702066181029
 20
266.9241317918747
 30
0.0
 11
36.66702066181029
 21
264.4241317918747
 31
0.0
  0
LINE
  5
1C9B
330
21
100
AcDbEntity
  8
gaikei
100
AcDbLine
 10
36.66702066181029
 20
268.4241317918747
 30
0.0
 11
36.66702066181029
 21
267.4241317918748
 31
0.0
  0
LINE
  5
1C9C
102
{ACAD_REACTORS
330
1D8E
102
}
330
21
100
AcDbEntity
  8
gaikei
100
AcDbLine
 10
46.66702066181028
 20
264.4241317918747
 30
0.0
 11
36.66702066181029
 21
264.4241317918747
 31
0.0
  0
LINE
  5
1C9D
102
{ACAD_REACTORS
330
1D80
102
}
330
21
100
AcDbEntity
  8
gaikei
100
AcDbLine
 10
46.66702066181028
 20
270.4241317918747
 30
0.0
 11
36.66702066181029
 21
270.4241317918747
 31
0.0
  0
LINE
  5
1C9E
102
{ACAD_REACTORS
330
1D8E
102
}
330
21
100
AcDbEntity
  8
gaikei
100
AcDbLine
 10
46.66702066181028
 20
266.9241317918747
 30
0.0
 11
36.66702066181029
 21
266.9241317918747
 31
0.0
  0
LINE
  5
1C9F
102
{ACAD_REACTORS
330
1D80
102
}
330
21
100
AcDbEntity
  8
gaikei
100
AcDbLine
 10
46.66702066181028
 20
268.9241317918747
 30
0.0
 11
36.66702066181029
 21
268.9241317918747
 31
0.0
  0
LINE
  5
1CA0
330
21
100
AcDbEntity
  8
gaikei
100
AcDbLine
 10
46.66702066181028
 20
268.4241317918747
 30
0.0
 11
36.66702066181029
 21
268.4241317918747
 31
0.0
  0
LINE
  5
1CA1
330
21
100
AcDbEntity
  8
gaikei
100
AcDbLine
 10
46.66702066181028
 20
267.4241317918748
 30
0.0
 11
36.66702066181029
 21
267.4241317918748
 31
0.0
  0
LINE
  5
1CA2
330
21
100
AcDbEntity
  8
gaikei
100
AcDbLine
 10
32.66702066181029
 20
270.1741317918747
 30
0.0
 11
32.66702066181029
 21
269.1741317918747
 31
0.0
  0
LINE
  5
1CA3
102
{ACAD_REACTORS
330
1D80
102
}
330
21
100
AcDbEntity
  8
gaikei
100
AcDbLine
 10
36.66702066181029
 20
270.4241317918747
 30
0.0
 11
36.66702066181029
 21
268.9241317918747
 31
0.0
  0
LINE
  5
1CA4
102
{ACAD_REACTORS
330
1D88
330
1D9A
102
}
330
21
100
AcDbEntity
  8
gaikei
100
AcDbLine
 10
71.66702066181028
 20
271.4241317918748
 30
0.0
 11
71.66702066181028
 21
263.4241317918748
 31
0.0
  0
LINE
  5
1CA5
102
{ACAD_REACTORS
330
1DBC
102
}
330
21
100
AcDbEntity
  8
gaikei
100
AcDbLine
 10
141.6670206474538
 20
263.4241317918748
 30
0.0
 11
141.6670206474538
 21
271.4241317918748
 31
0.0
  0
LINE
  5
1CA6
102
{ACAD_REACTORS
330
1D80
330
1D8E
102
}
330
21
100
AcDbEntity
  8
gaikei
100
AcDbLine
 10
46.66702066181028
 20
271.4241317918748
 30
0.0
 11
46.66702066181028
 21
263.4241317918748
 31
0.0
  0
LINE
  5
1CA7
330
21
100
AcDbEntity
  8
gaikei
100
AcDbLine
 10
161.6670206474538
 20
271.4241317918748
 30
0.0
 11
46.66702066181028
 21
271.4241317918748
 31
0.0
  0
LINE
  5
1CA8
330
21
100
AcDbEntity
  8
gaikei
100
AcDbLine
 10
161.6670206474538
 20
263.4241317918748
 30
0.0
 11
161.6670206474538
 21
271.4241317918748
 31
0.0
  0
LINE
  5
1CA9
330
21
100
AcDbEntity
  8
gaikei
100
AcDbLine
 10
46.66702066181028
 20
263.4241317918748
 30
0.0
 11
161.6670206474538
 21
263.4241317918748
 31
0.0
  0
LINE
  5
1CCB
330
21
100
AcDbEntity
  8
gaikei
100
AcDbLine
 10
97.7446979579463
 20
270.0357453060981
 30
0.0
 11
93.31987763135748
 21
269.3920092557982
 31
0.0
  0
ARC
  5
1CCC
330
21
100
AcDbEntity
  8
gaikei
100
AcDbCircle
 10
101.6670206586854
 20
250.4241317918747
 30
0.0
 40
20.0
100
AcDbArc
 50
78.69006751399069
 51
101.3099324681053
  0
LINE
  5
1CCE
330
21
100
AcDbEntity
  8
gaikei
100
AcDbLine
 10
112.7446979691778
 20
264.8125182776514
 30
0.0
 11
90.58934326375151
 21
270.035745327479
 31
0.0
  0
LINE
  5
1CCF
330
21
100
AcDbEntity
  8
gaikei
100
AcDbLine
 10
120.5893433767843
 20
264.8125182788771
 30
0.0
 11
124.1670206676133
 21
265.6559722013437
 31
0.0
  0
ARC
  5
1CD0
330
21
100
AcDbEntity
  8
gaikei
100
AcDbCircle
 10
116.6670206699169
 20
284.4241317918747
 30
0.0
 40
20.0
100
AcDbArc
 50
258.6900675318947
 51
281.3099324860093
  0
LINE
  5
1CD1
102
{ACAD_REACTORS
330
1D88
330
1D9A
102
}
330
21
100
AcDbEntity
  8
gaikei
100
AcDbLine
 10
97.74469796917788
 20
264.8125182776514
 30
0.0
 11
75.58934332657099
 21
270.0357453126688
 31
0.0
  0
LINE
  5
1CD2
102
{ACAD_REACTORS
330
1D9A
102
}
330
21
100
AcDbEntity
  8
gaikei
100
AcDbLine
 10
105.5893433767843
 20
264.8125182788771
 30
0.0
 11
109.1670206676133
 21
265.6559722013437
 31
0.0
  0
ARC
  5
1CD3
102
{ACAD_REACTORS
330
1D9A
102
}
330
21
100
AcDbEntity
  8
gaikei
100
AcDbCircle
 10
101.6670206699169
 20
284.4241317918747
 30
0.0
 40
20.0
100
AcDbArc
 50
258.6900675318947
 51
281.3099324860093
  0
LINE
  5
1CD4
102
{ACAD_REACTORS
330
1D88
102
}
330
21
100
AcDbEntity
  8
gaikei
100
AcDbLine
 10
90.58934337678431
 20
264.8125182788771
 30
0.0
 11
94.16702066761331
 21
265.6559722013436
 31
0.0
  0
ARC
  5
1CD5
102
{ACAD_REACTORS
330
1D9A
102
}
330
21
100
AcDbEntity
  8
gaikei
100
AcDbCircle
 10
71.66702065868531
 20
284.4241317918747
 30
0.0
 40
20.0
100
AcDbArc
 50
270.0000000089525
 51
281.3099324860097
  0
LINE
  5
1CD6
102
{ACAD_REACTORS
330
1D9A
102
}
330
21
100
AcDbEntity
  8
gaikei
100
AcDbLine
 10
75.58934336555285
 20
264.8125182788771
 30
0.0
 11
79.16702066381126
 21
265.65597220224
 31
0.0
  0
ARC
  5
1CD7
102
{ACAD_REACTORS
330
1D88
102
}
330
21
100
AcDbEntity
  8
gaikei
100
AcDbCircle
 10
71.66702065868543
 20
250.4241317918747
 30
0.0
 40
20.0
100
AcDbArc
 50
78.69006751399069
 51
89.99999999104799
  0
LINE
  5
1CD8
102
{ACAD_REACTORS
330
1D9A
102
}
330
21
100
AcDbEntity
  8
gaikei
100
AcDbLine
 10
82.74469796917784
 20
270.0357453060981
 30
0.0
 11
78.31987764258906
 21
269.3920092557982
 31
0.0
  0
LINE
  5
1CD9
102
{ACAD_REACTORS
330
1D88
330
1D9A
102
}
330
21
100
AcDbEntity
  8
gaikei
100
AcDbLine
 10
82.74469796917784
 20
264.8125182776514
 30
0.0
 11
71.66702066181028
 21
267.4241317918748
 31
0.0
  0
ARC
  5
1CDA
102
{ACAD_REACTORS
330
1D9A
102
}
330
21
100
AcDbEntity
  8
gaikei
100
AcDbCircle
 10
86.66702066991694
 20
250.4241317918747
 30
0.0
 40
20.0
100
AcDbArc
 50
78.69006751399069
 51
101.3099324681053
  0
ARC
  5
1CDB
102
{ACAD_REACTORS
330
1D88
102
}
330
21
100
AcDbEntity
  8
gaikei
100
AcDbCircle
 10
86.66702066991694
 20
284.4241317918747
 30
0.0
 40
20.0
100
AcDbArc
 50
258.6900675318947
 51
281.3099324860093
  0
LINE
  5
1CDD
102
{ACAD_REACTORS
330
1D9A
102
}
330
21
100
AcDbEntity
  8
gaikei
100
AcDbLine
 10
112.7446979548214
 20
264.8125182776514
 30
0.0
 11
90.58934331221456
 21
270.0357453126688
 31
0.0
  0
CIRCLE
  5
1D0C
102
{ACAD_REACTORS
330
1D47
330
1D5E
102
}
330
21
100
AcDbEntity
  8
gaikei
100
AcDbCircle
 10
111.4526611645349
 20
197.0020966874145
 30
0.0
 40
5.499895618903522
  0
CIRCLE
  5
1D0E
102
{ACAD_REACTORS
330
1D47
330
1D57
102
}
330
21
100
AcDbEntity
  8
gaikei
100
AcDbCircle
 10
94.4526611645349
 20
197.0020966874145
 30
0.0
 40
5.499895618903522
  0
CIRCLE
  5
1D13
102
{ACAD_REACTORS
330
1D57
102
}
330
21
100
AcDbEntity
  8
gaikei
100
AcDbCircle
 10
102.9194318840547
 20
206.8455666648594
 30
0.0
 40
4.499895618903522
  0
CIRCLE
  5
1D16
102
{ACAD_REACTORS
330
1D47
102
}
330
21
100
AcDbEntity
  8
gaikei
100
AcDbCircle
 10
102.9194318840547
 20
206.8455666648594
 30
0.0
 40
2.999895618903522
  0
CIRCLE
  5
1D23
102
{ACAD_REACTORS
330
1D5E
102
}
330
21
100
AcDbEntity
  8
gaikei
100
AcDbCircle
 10
111.4526611645349
 20
197.0020966874145
 30
0.0
 40
8.499895618903522
  0
CIRCLE
  5
1D24
102
{ACAD_REACTORS
330
1D57
102
}
330
21
100
AcDbEntity
  8
gaikei
100
AcDbCircle
 10
94.4526611645349
 20
197.0020966874145
 30
0.0
 40
8.499895618903522
  0
CIRCLE
  5
1D26
330
21
100
AcDbEntity
  8
gaikei
100
AcDbCircle
 10
102.9668426575094
 20
199.8530663590327
 30
0.0
 40
17.65357967229185
  0
CIRCLE
  5
1D27
102
{ACAD_REACTORS
330
1DDE
102
}
330
21
100
AcDbEntity
  8
gaikei
100
AcDbCircle
 10
102.9668426575094
 20
199.8530663590327
 30
0.0
 40
20.65357967229186
  0
LEADER
  5
1D29
330
21
100
AcDbEntity
  8
sumpo
100
AcDbLeader
  3
ISO-25-4mm
 73
     0
 40
3.0
 41
8.771428571428572
 76
     3
 10
114.5514122101754
 20
195.4221081576611
 30
0.0
 10
123.1541775742893
 20
210.3225348539003
 30
0.0
 10
126.8554679083386
 20
210.3225348539003
 30
0.0
340
1D2A
213
0.0
223
-1.5
233
0.0
1001
ACAD
1000
DSTYLE
1002
{
1070
   147
1040
1.0
1070
    77
1070
     0
1002
}
  0
MTEXT
  5
1D2A
102
{ACAD_REACTORS
330
1D29
102
}
330
21
100
AcDbEntity
  8
sumpo
 62
     4
100
AcDbMText
 10
127.8554679083386
 20
211.8225348539003
 30
0.0
 40
3.0
 41
0.0
 71
     1
 72
     1
  1
電極1
 73
     1
 44
1.0
  0
LEADER
  5
1D2B
330
21
100
AcDbEntity
  8
sumpo
100
AcDbLeader
  3
ISO-25-4mm
 73
     0
 40
3.0
 41
9.628571428571429
 76
     3
 10
102.0036266837073
 20
207.3996856055021
 30
0.0
 10
94.93793121452814
 20
225.7852986021261
 30
0.0
 10
92.74512935878965
 20
225.7852986021261
 30
0.0
340
1D2C
213
0.0
223
1.5
233
0.0
1001
ACAD
1000
DSTYLE
1002
{
1070
   147
1040
1.0
1070
    77
1070
     0
1002
}
  0
MTEXT
  5
1D2C
102
{ACAD_REACTORS
330
1D2B
102
}
330
21
100
AcDbEntity
  8
sumpo
 62
     4
100
AcDbMText
 10
91.74512935878965
 20
224.2852986021261
 30
0.0
 40
3.0
 41
0.0
 71
     9
 72
     1
  1
電極3
 73
     1
 44
1.0
  0
LEADER
  5
1D2D
330
21
100
AcDbEntity
  8
sumpo
100
AcDbLeader
  3
ISO-25-4mm
 73
     0
 40
3.0
 41
9.628571428571428
 76
     3
 10
92.5017390397768
 20
195.2931348268263
 30
0.0
 10
84.58328705309032
 20
214.0440253296174
 30
0.0
 10
82.512307402533
 20
214.0440253296174
 30
0.0
340
1D2E
213
0.0
223
1.5
233
0.0
1001
ACAD
1000
DSTYLE
1002
{
1070
   147
1040
1.0
1070
    77
1070
     0
1002
}
  0
MTEXT
  5
1D2E
102
{ACAD_REACTORS
330
1D2D
102
}
330
21
100
AcDbEntity
  8
sumpo
 62
     4
100
AcDbMText
 10
81.512307402533
 20
212.5440253296174
 30
0.0
 40
3.0
 41
0.0
 71
     9
 72
     1
  1
電極2
 73
     1
 44
1.0
  0
HATCH
  5
1D47
330
21
100
AcDbEntity
  8
hacchi
100
AcDbHatch
 10
0.0
 20
0.0
 30
0.0
210
0.0
220
0.0
230
1.0
  2
ANSI31
 70
     0
 71
     1
 91
        3
 92
        7
 72
     1
 73
     1
 93
        2
 10
105.9193275029583
 20
206.8455666648594
 42
1.0
 10
99.91953626515124
 20
206.8455666648594
 42
1.0
 97
        1
330
1D16
 92
        7
 72
     1
 73
     1
 93
        2
 10
99.95255678343843
 20
197.0020966874145
 42
1.0
 10
88.95276554563137
 20
197.0020966874145
 42
1.0
 97
        1
330
1D0E
 92
        7
 72
     1
 73
     1
 93
        2
 10
116.9525567834384
 20
197.0020966874145
 42
1.0
 10
105.9527655456313
 20
197.0020966874145
 42
1.0
 97
        1
330
1D0C
 75
     0
 76
     1
 52
0.0
 41
0.25
 77
     0
 78
     1
 53
45.0
 43
0.0
 44
6.925102325424404
 45
-0.5612660075668221
 46
0.5612660075668221
 79
     0
 47
0.1217675303591694
 98
        3
 10
104.561929754662
 20
206.5481250118162
 10
91.64786019537428
 20
195.2237443739924
 10
111.9936108344804
 20
194.6149064552704
  0
HATCH
  5
1D57
330
21
100
AcDbEntity
  8
hacchi3
100
AcDbHatch
 10
0.0
 20
0.0
 30
0.0
210
0.0
220
0.0
230
1.0
  2
SOLID
 70
     1
 71
     1
 91
        2
 92
        7
 72
     1
 73
     1
 93
        4
 10
85.95276554563138
 20
197.0020966874145
 42
1.0
 10
102.9525567834384
 20
197.0020966874145
 42
0.2090707411091638
 10
100.2240192675483
 20
203.2422610425447
 42
-0.0340667589558777
 10
99.75968088866759
 20
203.6416574545077
 42
0.6287313092992415
 97
        2
330
1D13
330
1D24
 92
       22
 72
     1
 73
     1
 93
        2
 10
99.95255678343843
 20
197.0020966874145
 42
-1.0
 10
88.95276554563137
 20
197.0020966874145
 42
-1.0
 97
        1
330
1D0E
 75
     0
 76
     1
 47
0.121776034352348
 98
        2
 10
92.49969765906531
 20
203.0171341424863
 10
92.49969765906531
 20
203.0171341424863
450
        0
451
        0
460
0.0
461
0.0
452
        1
462
1.0
453
        2
463
0.0
 63
     5
421
      255
463
1.0
 63
    51
421
 16777113
470
LINEAR
  0
HATCH
  5
1D5E
330
21
100
AcDbEntity
  8
hacchi2
100
AcDbHatch
 10
0.0
 20
0.0
 30
0.0
210
0.0
220
0.0
230
1.0
  2
SOLID
 70
     1
 71
     1
 91
        2
 92
        7
 72
     1
 73
     1
 93
        2
 10
102.9527655456313
 20
197.0020966874145
 42
1.0
 10
119.9525567834384
 20
197.0020966874145
 42
1.0
 97
        1
330
1D23
 92
       22
 72
     1
 73
     1
 93
        2
 10
116.9525567834384
 20
197.0020966874145
 42
-1.0
 10
105.9527655456313
 20
197.0020966874145
 42
-1.0
 97
        1
330
1D0C
 75
     0
 76
     1
 47
0.121776034352348
 98
        2
 10
118.3296392043601
 20
198.2678688619058
 10
118.3296392043601
 20
198.2678688619058
450
        0
451
        0
460
0.0
461
0.0
452
        1
462
1.0
453
        2
463
0.0
 63
     5
421
      255
463
1.0
 63
    51
421
 16777113
470
LINEAR
  0
HATCH
  5
1D80
330
21
100
AcDbEntity
  8
hacchi2
100
AcDbHatch
 10
0.0
 20
0.0
 30
0.0
210
0.0
220
0.0
230
1.0
  2
SOLID
 70
     1
 71
     1
 91
        1
 92
        7
 72
     0
 73
     1
 93
        4
 10
46.66702066181028
 20
270.4241317918747
 10
36.66702066181029
 20
270.4241317918747
 10
36.66702066181029
 20
268.9241317918747
 10
46.66702066181028
 20
268.9241317918747
 97
        4
330
1C9D
330
1CA3
330
1C9F
330
1CA6
 75
     0
 76
     1
 47
0.194743052316182
 98
        1
 10
41.37789895299488
 20
269.5695681088774
450
        0
451
        0
460
0.0
461
0.0
452
        1
462
1.0
453
        2
463
0.0
 63
     5
421
      255
463
1.0
 63
    51
421
 16777113
470
LINEAR
  0
HATCH
  5
1D88
330
21
100
AcDbEntity
  8
hacchi2
100
AcDbHatch
 10
0.0
 20
0.0
 30
0.0
210
0.0
220
0.0
230
1.0
  2
SOLID
 70
     1
 71
     1
 91
        1
 92
        7
 72
     1
 73
     1
 93
        6
 10
75.58934332657106
 20
270.0357453126688
 42
0.0493889885363511
 10
71.66702066181028
 20
270.4241317918747
 42
0.0
 10
71.66702066181028
 20
267.4241317918748
 42
0.0
 10
82.74469796917784
 20
264.8125182776514
 42
0.0990195136195545
 10
90.58934337678479
 20
264.8125182788772
 42
0.0
 10
94.16702066761338
 20
265.6559722013436
 42
0.0
 97
        6
330
1CD7
330
1CA4
330
1CD9
330
1CDB
330
1CD4
330
1CD1
 75
     0
 76
     1
 47
0.194743052316182
 98
        1
 10
82.10035828869195
 20
267.2326515974778
450
        0
451
        0
460
0.0
461
0.0
452
        1
462
1.0
453
        2
463
0.0
 63
     5
421
      255
463
1.0
 63
    51
421
 16777113
470
LINEAR
  0
HATCH
  5
1D8E
330
21
100
AcDbEntity
  8
hacchi3
100
AcDbHatch
 10
0.0
 20
0.0
 30
0.0
210
0.0
220
0.0
230
1.0
  2
SOLID
 70
     1
 71
     1
 91
        1
 92
        7
 72
     0
 73
     1
 93
        4
 10
46.66702066181028
 20
266.9241317918747
 10
36.66702066181029
 20
266.9241317918747
 10
36.66702066181029
 20
264.4241317918747
 10
46.66702066181028
 20
264.4241317918747
 97
        4
330
1C9E
330
1C9A
330
1C9C
330
1CA6
 75
     0
 76
     1
 47
0.1326975379374129
 98
        1
 10
44.32972789311747
 20
265.8005826997439
450
        0
451
        0
460
0.0
461
0.0
452
        1
462
1.0
453
        2
463
0.0
 63
     5
421
      255
463
1.0
 63
    51
421
 16777113
470
LINEAR
  0
HATCH
  5
1D9A
330
21
100
AcDbEntity
  8
hacchi3
100
AcDbHatch
 10
0.0
 20
0.0
 30
0.0
210
0.0
220
0.0
230
1.0
  2
SOLID
 70
     1
 71
     1
 91
        2
 92
        7
 72
     1
 73
     1
 93
        4
 10
79.16702066381119
 20
265.65597220224
 42
0.0
 10
71.66702066181028
 20
267.4241317918748
 42
0.0
 10
71.66702066181028
 20
264.4241317918747
 42
0.0493889890344984
 10
75.58934336555386
 20
264.8125182788773
 42
0.0
 97
        4
330
1CD9
330
1CA4
330
1CD5
330
1CD6
 92
        7
 72
     1
 73
     1
 93
        6
 10
90.58934316908349
 20
270.0357453464126
 42
0.0990195109459078
 10
82.74469796917816
 20
270.0357453060981
 42
0.0
 10
78.31987763983429
 20
269.3920092553975
 42
0.0
 10
97.74469796917788
 20
264.8125182776514
 42
0.0990195136195528
 10
105.5893433767847
 20
264.8125182788772
 42
0.0
 10
109.167020660435
 20
265.6559721996513
 42
0.0
 97
        6
330
1CDA
330
1CD8
330
1CD1
330
1CD3
330
1CD2
330
1CDD
 75
     0
 76
     1
 47
0.1326975379374129
 98
        2
 10
74.06943033351422
 20
265.4024899292468
 10
89.60311466568692
 20
268.3218360271005
450
        0
451
        0
460
0.0
461
0.0
452
        1
462
1.0
453
        2
463
0.0
 63
     5
421
      255
463
1.0
 63
    51
421
 16777113
470
LINEAR
  0
LINE
  5
1DAC
102
{ACAD_REACTORS
330
1DC4
102
}
330
21
100
AcDbEntity
  8
gaikei
100
AcDbLine
 10
127.7446979691778
 20
264.8125182776514
 30
0.0
 11
105.5893433265709
 21
270.0357453126688
 31
0.0
  0
LINE
  5
1DAD
102
{ACAD_REACTORS
330
1DC4
102
}
330
21
100
AcDbEntity
  8
gaikei
100
AcDbLine
 10
112.7446979691778
 20
270.0357453060981
 30
0.0
 11
108.319877642589
 21
269.3920092557982
 31
0.0
  0
ARC
  5
1DAE
102
{ACAD_REACTORS
330
1DC4
102
}
330
21
100
AcDbEntity
  8
gaikei
100
AcDbCircle
 10
116.6670206699169
 20
250.4241317918747
 30
0.0
 40
20.0
100
AcDbArc
 50
78.69006751399069
 51
101.3099324681053
  0
LINE
  5
1DAF
102
{ACAD_REACTORS
330
1DBC
330
1DC4
102
}
330
21
100
AcDbEntity
  8
gaikei
100
AcDbLine
 10
141.6670206474538
 20
265.0665856729907
 30
0.0
 11
120.5893433122145
 21
270.0357453126688
 31
0.0
  0
ARC
  5
1DB0
102
{ACAD_REACTORS
330
1DC4
102
}
330
21
100
AcDbEntity
  8
gaikei
100
AcDbCircle
 10
131.6670206699169
 20
284.4241317918747
 30
0.0
 40
20.0
100
AcDbArc
 50
258.6900675318947
 51
281.3099324860093
  0
LINE
  5
1DB1
102
{ACAD_REACTORS
330
1DC4
102
}
330
21
100
AcDbEntity
  8
gaikei
100
AcDbLine
 10
135.5893433767842
 20
264.8125182788771
 30
0.0
 11
139.1670206676132
 21
265.6559722013437
 31
0.0
  0
LINE
  5
1DB2
102
{ACAD_REACTORS
330
1DBC
102
}
330
21
100
AcDbEntity
  8
gaikei
100
AcDbLine
 10
141.6670206474538
 20
268.6029048587426
 30
0.0
 11
135.5893434396037
 21
270.0357452900622
 31
0.0
  0
ARC
  5
1DB3
102
{ACAD_REACTORS
330
1DBC
102
}
330
21
100
AcDbEntity
  8
gaikei
100
AcDbCircle
 10
131.6670207717181
 20
250.4241317692682
 30
0.0
 40
20.0
100
AcDbArc
 50
78.69006751399069
 51
101.3099324681053
  0
LINE
  5
1DB4
102
{ACAD_REACTORS
330
1DBC
102
}
330
21
100
AcDbEntity
  8
gaikei
100
AcDbLine
 10
127.7446980709791
 20
270.0357452834915
 30
0.0
 11
123.3198777443902
 21
269.3920092331917
 31
0.0
  0
HATCH
  5
1DBC
330
21
100
AcDbEntity
  8
hacchi3
100
AcDbHatch
 10
0.0
 20
0.0
 30
0.0
210
0.0
220
0.0
230
1.0
  2
SOLID
 70
     1
 71
     1
 91
        1
 92
        7
 72
     1
 73
     1
 93
        5
 10
141.6670206474538
 20
268.6029048587425
 42
0.0
 10
135.5893434396034
 20
270.0357452900623
 42
0.0990195131177448
 10
127.7446980709794
 20
270.0357452834916
 42
0.0
 10
123.3198777291024
 20
269.3920092309675
 42
0.0
 10
141.6670206474538
 20
265.0665856729907
 42
0.0
 97
        5
330
1DB2
330
1DB3
330
1DB4
330
1DAF
330
1CA5
 75
     0
 76
     1
 47
0.1044261133378747
 98
        1
 10
130.4636385905946
 20
268.5576741067762
450
        0
451
        0
460
0.0
461
0.0
452
        1
462
1.0
453
        2
463
0.0
 63
     5
421
      255
463
1.0
 63
    51
421
 16777113
470
LINEAR
  0
HATCH
  5
1DC4
330
21
100
AcDbEntity
  8
hacchi2
100
AcDbHatch
 10
0.0
 20
0.0
 30
0.0
210
0.0
220
0.0
230
1.0
  2
SOLID
 70
     1
 71
     1
 91
        1
 92
        7
 72
     1
 73
     1
 93
        6
 10
120.5893431690834
 20
270.0357453464126
 42
0.0990195109459085
 10
112.744697969178
 20
270.0357453060981
 42
0.0
 10
108.319877639834
 20
269.3920092553975
 42
0.0
 10
127.7446979691778
 20
264.8125182776514
 42
0.0990195136195533
 10
135.5893433767846
 20
264.8125182788772
 42
0.0
 10
139.167020660435
 20
265.6559721996515
 42
0.0
 97
        6
330
1DAE
330
1DAD
330
1DAC
330
1DB0
330
1DB1
330
1DAF
 75
     0
 76
     1
 47
0.1044261133378747
 98
        1
 10
122.2096865489684
 20
267.6178388244001
450
        0
451
        0
460
0.0
461
0.0
452
        1
462
1.0
453
        2
463
0.0
 63
     5
421
      255
463
1.0
 63
    51
421
 16777113
470
LINEAR
  0
DIMENSION
  5
1DC7
102
{ACAD_XDICTIONARY
360
1DD4
102
}
102
{ACAD_REACTORS
330
1DDE
102
}
330
21
100
AcDbEntity
  8
sumpo
100
AcDbDimension
  2
*D4
 10
123.6204223298013
 20
166.8318866605235
 30
0.0
 11
102.9668426575094
 21
169.3318866605235
 31
0.0
 70
    32
  1
3.5±0.5mm
 71
     5
 42
41.30715934458371
  3
ISO-25-4mm
100
AcDbAlignedDimension
 13
82.31326298521761
 23
199.8530663590327
 33
0.0
 14
123.6204223298013
 24
199.8530663590327
 34
0.0
100
AcDbRotatedDimension
  0
VIEWPORT
  5
17AD
330
17A6
100
AcDbEntity
 67
     1
  8
0
100
AcDbViewport
 10
209.9514433305958
 20
142.6527438163757
 30
0.0
 40
724.1864368937057
 41
314.1924854736328
 68
     1
 69
     1
 12
209.9514433305958
 22
142.6527438163757
 13
0.0
 23
0.0
 14
10.0
 24
10.0
 15
10.0
 25
10.0
 16
0.0
 26
0.0
 36
1.0
 17
0.0
 27
0.0
 37
0.0
 42
50.0
 43
0.0
 44
0.0
 45
314.1924854736328
 50
0.0
 51
0.0
 72
  1000
 90
    32800
  1

281
     0
 71
     1
 74
     0
110
0.0
120
0.0
130
0.0
111
1.0
121
0.0
131
0.0
112
0.0
122
1.0
132
0.0
 79
     0
146
0.0
170
     0
  0
VIEWPORT
  5
17AF
330
17A6
100
AcDbEntity
 67
     1
  8
moji
100
AcDbViewport
 10
101.2253826490373
 20
146.2135919136789
 30
0.0
 40
184.4194364075515
 41
268.1109212418202
 68
     2
 69
     2
 12
107.6172238237136
 22
147.1243299939954
 13
0.0
 23
0.0
 14
10.0
 24
10.0
 15
10.0
 25
10.0
 16
0.0
 26
0.0
 36
1.0
 17
0.0
 27
0.0
 37
0.0
 42
50.0
 43
0.0
 44
0.0
 45
317.2777898680465
 50
0.0
 51
0.0
 72
  1000
 90
    32864
  1

281
     0
 71
     1
 74
     0
110
0.0
120
0.0
130
0.0
111
1.0
121
0.0
131
0.0
112
0.0
122
1.0
132
0.0
 79
     0
146
0.0
170
     0
  0
ENDSEC
  0
SECTION
  2
OBJECTS
  0
DICTIONARY
  5
C
330
0
100
AcDbDictionary
281
     1
  3
ACAD_COLOR
350
1C
  3
ACAD_GROUP
350
D
  3
ACAD_LAYOUT
350
1A
  3
ACAD_MATERIAL
350
1B
  3
ACAD_MLEADERSTYLE
350
1B2C
  3
ACAD_MLINESTYLE
350
17
  3
ACAD_PLOTSETTINGS
350
19
  3
ACAD_PLOTSTYLENAME
350
E
  3
ACAD_SCALELIST
350
1B0A
  3
ACAD_TABLESTYLE
350
1B08
  3
ACAD_VISUALSTYLE
350
1AF7
  3
AcadDim
350
1A06
  3
ACDB_RECOMPOSE_DATA
350
1BBB
  3
AcDbVariableDictionary
350
1BD2
  0
DICTIONARY
  5
1BBC
330
8
100
AcDbDictionary
280
     1
281
     1
  0
DICTIONARY
  5
5C
330
2
100
AcDbDictionary
280
     1
281
     1
  3
ACAD_LAYERFILTERS
360
89B
  3
ACAD_LAYERSTATES
360
5D
  0
DICTIONARY
  5
1B37
330
10
100
AcDbDictionary
280
     1
281
     1
  3
ADSK_XREC_LAYER_RECONCILED
360
1B38
  0
DICTIONARY
  5
1B39
330
2D
100
AcDbDictionary
280
     1
281
     1
  3
ADSK_XREC_LAYER_RECONCILED
360
1B3A
  0
DICTIONARY
  5
1B3B
330
2E
100
AcDbDictionary
280
     1
281
     1
  3
ADSK_XREC_LAYER_RECONCILED
360
1B3C
  0
DICTIONARY
  5
1B3D
330
2F
100
AcDbDictionary
280
     1
281
     1
  3
ADSK_XREC_LAYER_RECONCILED
360
1B3E
  0
DICTIONARY
  5
1B3F
330
30
100
AcDbDictionary
280
     1
281
     1
  3
ADSK_XREC_LAYER_RECONCILED
360
1B40
  0
DICTIONARY
  5
1B41
330
48
100
AcDbDictionary
280
     1
281
     1
  3
ADSK_XREC_LAYER_RECONCILED
360
1B42
  0
DICTIONARY
  5
1B43
330
B26
100
AcDbDictionary
280
     1
281
     1
  3
ADSK_XREC_LAYER_RECONCILED
360
1B44
  0
DICTIONARY
  5
1B45
330
B29
100
AcDbDictionary
280
     1
281
     1
  3
ADSK_XREC_LAYER_RECONCILED
360
1B46
  0
DICTIONARY
  5
1B47
330
B2A
100
AcDbDictionary
280
     1
281
     1
  3
ADSK_XREC_LAYER_RECONCILED
360
1B48
  0
DICTIONARY
  5
1B49
330
1832
100
AcDbDictionary
280
     1
281
     1
  3
ADSK_XREC_LAYER_RECONCILED
360
1B4A
  0
DICTIONARY
  5
1DF1
330
21
100
AcDbDictionary
280
     1
281
     1
  3
ACAD_SORTENTS
360
1DF2
  0
DICTIONARY
  5
1DD4
330
1DC7
100
AcDbDictionary
280
     1
281
     1
  3
ACAD_DIMASSOC
360
1DDE
  0
DICTIONARY
  5
1C
102
{ACAD_REACTORS
330
C
102
}
330
C
100
AcDbDictionary
281
     1
  0
DICTIONARY
  5
D
102
{ACAD_REACTORS
330
C
102
}
330
C
100
AcDbDictionary
281
     1
  3
*A1
350
AE8
  0
DICTIONARY
  5
1A
102
{ACAD_REACTORS
330
C
102
}
330
C
100
AcDbDictionary
281
     1
  3
Model
350
24
  3
レイアウト1
350
17A7
  0
DICTIONARY
  5
1B
102
{ACAD_REACTORS
330
C
102
}
330
C
100
AcDbDictionary
281
     1
  3
ByBlock
350
1AEF
  3
ByLayer
350
1AE7
  3
Global
350
55
  0
DICTIONARY
  5
1B2C
102
{ACAD_REACTORS
330
C
102
}
330
C
100
AcDbDictionary
281
     1
  3
Standard
350
1B2D
  0
DICTIONARY
  5
17
102
{ACAD_REACTORS
330
C
102
}
330
C
100
AcDbDictionary
281
     1
  3
Standard
350
18
  0
DICTIONARY
  5
19
102
{ACAD_REACTORS
330
C
102
}
330
C
100
AcDbDictionary
281
     1
  0
ACDBDICTIONARYWDFLT
  5
E
102
{ACAD_REACTORS
330
C
102
}
330
C
100
AcDbDictionary
281
     1
  3
Normal
350
F
100
AcDbDictionaryWithDefault
340
F
  0
DICTIONARY
  5
1B0A
102
{ACAD_REACTORS
330
C
102
}
330
C
100
AcDbDictionary
281
     1
  3
A0
350
1B0B
  3
A1
350
1B0C
  3
A2
350
1B0D
  3
A3
350
1B0E
  3
A4
350
1B0F
  3
A5
350
1B10
  3
A6
350
1B11
  3
A7
350
1B12
  3
A8
350
1B13
  3
A9
350
1B14
  3
B0
350
1B15
  3
B1
350
1B16
  3
B2
350
1B17
  3
B3
350
1B18
  3
B4
350
1B19
  3
B5
350
1B1A
  3
B6
350
1B1B
  3
B7
350
1B1C
  3
B8
350
1B1D
  3
B9
350
1B1E
  3
C0
350
1B1F
  3
C1
350
1B20
  3
C2
350
1B21
  3
C3
350
1B22
  3
C4
350
1B23
  3
C5
350
1B24
  3
C6
350
1B25
  3
C7
350
1B26
  3
C8
350
1B27
  3
C9
350
1B28
  3
D0
350
1B29
  3
D1
350
1B2A
  3
D2
350
1B2B
  0
DICTIONARY
  5
1B08
102
{ACAD_REACTORS
330
C
102
}
330
C
100
AcDbDictionary
281
     1
  3
Standard
350
1B09
  0
DICTIONARY
  5
1AF7
102
{ACAD_REACTORS
330
C
102
}
330
C
100
AcDbDictionary
281
     1
  3
2dWireframe
350
1AFD
  3
3D Hidden
350
1AFF
  3
3dWireframe
350
1AFE
  3
Basic
350
1AFC
  3
Brighten
350
1B03
  3
ColorChange
350
1B07
  3
Conceptual
350
1B00
  3
Dim
350
1B02
  3
Facepattern
350
1B06
  3
Flat
350
1AF8
  3
FlatWithEdges
350
1AF9
  3
Gouraud
350
1AFA
  3
GouraudWithEdges
350
1AFB
  3
Linepattern
350
1B05
  3
Realistic
350
1B01
  3
Thicken
350
1B04
  0
XRECORD
  5
1A06
102
{ACAD_REACTORS
330
C
102
}
330
C
100
AcDbXrecord
280
     1
 90
   990106
  3

 60
     0
 61
     0
 62
     1
 63
     3
 64
     0
 65
     0
 66
     0
 67
     3
 68
     1
 69
     0
 70
     0
 71
     0
 72
     0
 40
0.0
170
     0
340
1D2E
  0
XRECORD
  5
1BBB
102
{ACAD_REACTORS
330
C
102
}
330
C
100
AcDbXrecord
280
     1
 90
        1
330
1B09
  0
DICTIONARY
  5
1BD2
102
{ACAD_REACTORS
330
C
102
}
330
C
100
AcDbDictionary
281
     1
  3
CANNOSCALE
350
1BD5
  3
CMLEADERSTYLE
350
1BD4
  3
CTABLESTYLE
350
1BD3
  0
DICTIONARY
  5
89B
102
{ACAD_REACTORS
330
5C
102
}
330
5C
100
AcDbDictionary
281
     1
  0
DICTIONARY
  5
5D
102
{ACAD_REACTORS
330
5C
102
}
330
5C
100
AcDbDictionary
281
     1
  0
XRECORD
  5
1B38
102
{ACAD_REACTORS
330
1B37
102
}
330
1B37
100
AcDbXrecord
280
     1
290
     1
  0
XRECORD
  5
1B3A
102
{ACAD_REACTORS
330
1B39
102
}
330
1B39
100
AcDbXrecord
280
     1
290
     1
  0
XRECORD
  5
1B3C
102
{ACAD_REACTORS
330
1B3B
102
}
330
1B3B
100
AcDbXrecord
280
     1
290
     1
  0
XRECORD
  5
1B3E
102
{ACAD_REACTORS
330
1B3D
102
}
330
1B3D
100
AcDbXrecord
280
     1
290
     1
  0
XRECORD
  5
1B40
102
{ACAD_REACTORS
330
1B3F
102
}
330
1B3F
100
AcDbXrecord
280
     1
290
     1
  0
XRECORD
  5
1B42
102
{ACAD_REACTORS
330
1B41
102
}
330
1B41
100
AcDbXrecord
280
     1
290
     1
  0
XRECORD
  5
1B44
102
{ACAD_REACTORS
330
1B43
102
}
330
1B43
100
AcDbXrecord
280
     1
290
     1
  0
XRECORD
  5
1B46
102
{ACAD_REACTORS
330
1B45
102
}
330
1B45
100
AcDbXrecord
280
     1
290
     1
  0
XRECORD
  5
1B48
102
{ACAD_REACTORS
330
1B47
102
}
330
1B47
100
AcDbXrecord
280
     1
290
     1
  0
XRECORD
  5
1B4A
102
{ACAD_REACTORS
330
1B49
102
}
330
1B49
100
AcDbXrecord
280
     1
290
     1
  0
SORTENTSTABLE
  5
1DF2
102
{ACAD_REACTORS
330
1DF1
102
}
330
1DF1
100
AcDbSortentsTable
330
21
331
1D24
  5
1D13
331
1D2C
  5
1D26
331
1992
  5
1992
331
1694
  5
1694
331
1CA5
  5
1CA2
331
169C
  5
169C
331
199A
  5
199A
331
19D2
  5
19D2
331
1C5E
  5
1C5E
331
1CD5
  5
1CD2
331
1DB3
  5
1DAD
331
1CDD
  5
1CD9
331
16AC
  5
16AC
331
1C8E
  5
1C64
331
12A5
  5
12A5
331
175C
  5
175C
331
1C96
  5
1C93
331
1BDF
  5
1BDF
331
1C9E
  5
1C9B
331
1D2D
  5
1DC7
331
176C
  5
176C
331
1CA6
  5
1CA3
331
1993
  5
1993
331
199B
  5
199B
331
16A5
  5
16A5
331
1C5F
  5
1C5F
331
1CCE
  5
1CA9
331
1DAC
  5
1D57
331
1CD6
  5
1CD3
331
1DB4
  5
1DAE
331
1DBC
  5
1DAF
331
1DC4
  5
1DB0
331
1D0E
  5
1CDB
331
16B5
  5
16B5
331
1964
  5
1964
331
1C8F
  5
1C8C
331
1765
  5
1765
331
1C9F
  5
1C9C
331
1D16
  5
1D0C
331
1D26
  5
1D16
331
1D2E
  5
1D27
331
1AD3
  5
1AD3
331
168E
  5
168E
331
176D
  5
176D
331
1BE0
  5
1BE0
331
1994
  5
1994
331
1696
  5
1696
331
1CA7
  5
1CA4
331
169E
  5
169E
331
19D4
  5
19D4
331
1CCF
  5
1CCB
331
1DAD
  5
1D5E
331
1CD7
  5
1CD4
331
1D5E
  5
1D2B
331
1C60
  5
1DB2
331
16B6
  5
16B6
331
1965
  5
1965
331
1C90
  5
1C8D
331
1766
  5
1766
331
1D8E
  5
1D2E
331
1D27
  5
1D23
331
1BE1
  5
1BE1
331
1AD4
  5
1AD4
331
176E
  5
176E
331
198D
  5
198D
331
1CA0
  5
1C9D
331
1CA8
  5
1CA5
331
1995
  5
1995
331
199D
  5
199D
331
19D5
  5
19D5
331
1DAE
  5
1D80
331
1CD0
  5
1CCC
331
1D47
  5
1D29
331
1CD8
  5
1CD5
331
1D57
  5
1D2A
331
1C61
  5
1C60
331
175F
  5
175F
331
1C91
  5
1C8E
331
1C99
  5
1C94
331
1767
  5
1767
331
1CA1
  5
1C9E
331
1690
  5
1690
331
176F
  5
176F
331
1996
  5
1996
331
1CA9
  5
1CA6
331
199E
  5
199E
331
19D6
  5
19D6
331
1CD1
  5
1CCE
331
1DAF
  5
1D88
331
1CD9
  5
1CD6
331
1DC7
  5
1DB1
331
16B0
  5
16B0
331
1C62
  5
1DB3
331
1967
  5
1967
331
1C92
  5
1C8F
331
1760
  5
1760
331
1C9A
  5
1C95
331
1D80
  5
1D2C
331
1D88
  5
1D2D
331
1D29
  5
1DBC
331
1768
  5
1768
331
1CA2
  5
1C9F
331
1BE3
  5
1BE3
331
1770
  5
1770
331
198F
  5
198F
331
1997
  5
1997
331
199F
  5
199F
331
1C5B
  5
1C5B
331
1CD2
  5
1CCF
331
1DB0
  5
1D8E
331
1CDA
  5
1CD7
331
1C63
  5
1C61
331
1761
  5
1761
331
1968
  5
1968
331
1C93
  5
1C90
331
1C9B
  5
1C96
331
1D2A
  5
1D24
331
1769
  5
1769
331
1692
  5
1692
331
1CA3
  5
1CA0
331
1C5C
  5
1C5C
331
1CCB
  5
1CA7
331
1DB1
  5
1D9A
331
1CD3
  5
1CD0
331
1CDB
  5
1CD8
331
16B2
  5
16B2
331
1C64
  5
1DB4
331
1C8C
  5
1C62
331
12A3
  5
12A3
331
1969
  5
1969
331
1C94
  5
1C91
331
1762
  5
1762
331
1C9C
  5
1C99
331
1D13
  5
1CDD
331
1D23
  5
1D0E
331
1D9A
  5
1D47
331
1D2B
  5
1DC4
331
176A
  5
176A
331
1CA4
  5
1CA1
331
1991
  5
1991
331
169B
  5
169B
331
1999
  5
1999
331
1C5D
  5
1C5D
331
1CCC
  5
1CA8
331
1CD4
  5
1CD1
331
1DB2
  5
1DAC
331
1D0C
  5
1CDA
331
16AB
  5
16AB
331
16B3
  5
16B3
331
1C8D
  5
1C63
331
1C95
  5
1C92
331
1C9D
  5
1C9A
  0
DIMASSOC
  5
1DDE
102
{ACAD_REACTORS
330
1DD4
102
}
330
1DD4
100
AcDbDimAssoc
330
1DC7
 90
        3
 70
     0
 71
     0
  1
AcDbOsnapPointRef
 72
     5
331
1D27
 73
     2
 91
        0
 40
3.141592653589793
 10
0.0
 20
0.0
 30
0.0
 75
     0
  1
AcDbOsnapPointRef
 72
     5
331
1D27
 73
     2
 91
        0
 40
0.0
 10
0.0
 20
0.0
 30
0.0
 75
     0
  0
GROUP
  5
AE8
102
{ACAD_REACTORS
330
D
102
}
330
D
100
AcDbGroup
300

 70
     1
 71
     1
  0
LAYOUT
  5
24
102
{ACAD_REACTORS
330
1A
102
}
330
1A
100
AcDbPlotSettings
  1

  2
none_device
  4
Letter_(8.50_x_11.00_Inches)
  6

 40
6.349999904632568
 41
6.349999904632568
 42
6.350006103515625
 43
6.350006103515625
 44
215.8999938964844
 45
279.3999938964844
 46
0.0
 47
0.0
 48
0.0
 49
0.0
140
0.0
141
0.0
142
1.0
143
1.0
 70
 11952
 72
     1
 73
     1
 74
     0
  7

 75
     0
147
1.0
 76
     0
 77
     2
 78
   300
148
-83.36161879895561
149
0.0
100
AcDbLayout
  1
Model
 70
     1
 71
     0
 10
0.0
 20
0.0
 11
12.0
 21
9.0
 12
0.0
 22
0.0
 32
0.0
 14
0.0
 24
0.0
 34
0.0
 15
0.0
 25
0.0
 35
0.0
146
0.0
 13
0.0
 23
0.0
 33
0.0
 16
1.0
 26
0.0
 36
0.0
 17
0.0
 27
1.0
 37
0.0
 76
     0
330
21
331
1DF4
  0
LAYOUT
  5
17A7
102
{ACAD_XDICTIONARY
360
1BAE
102
}
102
{ACAD_REACTORS
330
1A
102
}
330
1A
100
AcDbPlotSettings
  1

  2
Canon MP990 series Printer
  4
A4
  6

 40
4.180416584014892
 41
5.831417560577392
 42
4.180404663085937
 43
3.757080078125
 44
209.9733276367187
 45
296.9683227539062
 46
0.0
 47
0.0
 48
0.0
 49
0.0
140
0.0
141
0.0
142
1.0
143
1.0
 70
   688
 72
     1
 73
     0
 74
     5
  7

 75
    16
147
1.0
 76
     1
 77
     2
 78
   300
148
0.0
149
0.0
100
AcDbLayout
  1
レイアウト1
 70
     1
 71
     1
 10
-4.180416584014892
 20
-5.831417560577392
 11
205.7929110527039
 21
291.1369051933288
 12
0.0
 22
0.0
 32
0.0
 14
9.015664445261563
 24
12.15813129276887
 34
0.0
 15
193.4351008528131
 25
280.2690525345891
 35
0.0
146
0.0
 13
0.0
 23
0.0
 33
0.0
 16
1.0
 26
0.0
 36
0.0
 17
0.0
 27
1.0
 37
0.0
 76
     0
330
17A6
331
17AD
  0
MATERIAL
  5
1AEF
102
{ACAD_XDICTIONARY
360
1AF0
102
}
102
{ACAD_REACTORS
330
1B
102
}
330
1B
100
AcDbMaterial
  1
ByBlock
 72
     0
 43
0.0008202099737533
 43
0.0
 43
0.0
 43
0.0
 43
0.0
 43
0.0008202099737533
 43
0.0
 43
0.0
 43
0.0
 43
0.0
 43
1.0
 43
0.0
 43
0.0
 43
0.0
 43
0.0
 43
1.0
 77
     0
 47
0.0008202099737533
 47
0.0
 47
0.0
 47
0.0
 47
0.0
 47
0.0008202099737533
 47
0.0
 47
0.0
 47
0.0
 47
0.0
 47
1.0
 47
0.0
 47
0.0
 47
0.0
 47
0.0
 47
1.0
171
     0
 49
0.0008202099737533
 49
0.0
 49
0.0
 49
0.0
 49
0.0
 49
0.0008202099737533
 49
0.0
 49
0.0
 49
0.0
 49
0.0
 49
1.0
 49
0.0
 49
0.0
 49
0.0
 49
0.0
 49
1.0
175
     0
142
0.0008202099737533
142
0.0
142
0.0
142
0.0
142
0.0
142
0.0008202099737533
142
0.0
142
0.0
142
0.0
142
0.0
142
1.0
142
0.0
142
0.0
142
0.0
142
0.0
142
1.0
179
     0
144
0.0008202099737533
144
0.0
144
0.0
144
0.0
144
0.0
144
0.0008202099737533
144
0.0
144
0.0
144
0.0
144
0.0
144
1.0
144
0.0
144
0.0
144
0.0
144
0.0
144
1.0
147
0.0008202099737533
147
0.0
147
0.0
147
0.0
147
0.0
147
0.0008202099737533
147
0.0
147
0.0
147
0.0
147
0.0
147
1.0
147
0.0
147
0.0
147
0.0
147
0.0
147
1.0
  0
MATERIAL
  5
1AE7
102
{ACAD_XDICTIONARY
360
1AE8
102
}
102
{ACAD_REACTORS
330
1B
102
}
330
1B
100
AcDbMaterial
  1
ByLayer
 72
     0
 43
0.0008202099737533
 43
0.0
 43
0.0
 43
0.0
 43
0.0
 43
0.0008202099737533
 43
0.0
 43
0.0
 43
0.0
 43
0.0
 43
1.0
 43
0.0
 43
0.0
 43
0.0
 43
0.0
 43
1.0
 77
     0
 47
0.0008202099737533
 47
0.0
 47
0.0
 47
0.0
 47
0.0
 47
0.0008202099737533
 47
0.0
 47
0.0
 47
0.0
 47
0.0
 47
1.0
 47
0.0
 47
0.0
 47
0.0
 47
0.0
 47
1.0
171
     0
 49
0.0008202099737533
 49
0.0
 49
0.0
 49
0.0
 49
0.0
 49
0.0008202099737533
 49
0.0
 49
0.0
 49
0.0
 49
0.0
 49
1.0
 49
0.0
 49
0.0
 49
0.0
 49
0.0
 49
1.0
175
     0
142
0.0008202099737533
142
0.0
142
0.0
142
0.0
142
0.0
142
0.0008202099737533
142
0.0
142
0.0
142
0.0
142
0.0
142
1.0
142
0.0
142
0.0
142
0.0
142
0.0
142
1.0
179
     0
144
0.0008202099737533
144
0.0
144
0.0
144
0.0
144
0.0
144
0.0008202099737533
144
0.0
144
0.0
144
0.0
144
0.0
144
1.0
144
0.0
144
0.0
144
0.0
144
0.0
144
1.0
147
0.0008202099737533
147
0.0
147
0.0
147
0.0
147
0.0
147
0.0008202099737533
147
0.0
147
0.0
147
0.0
147
0.0
147
1.0
147
0.0
147
0.0
147
0.0
147
0.0
147
1.0
  0
MATERIAL
  5
55
102
{ACAD_XDICTIONARY
360
56
102
}
102
{ACAD_REACTORS
330
1B
102
}
330
1B
100
AcDbMaterial
  1
Global
 43
0.0208000000566244
 43
0.0
 43
0.0
 43
0.0
 43
0.0
 43
0.0208000000566244
 43
0.0
 43
0.0
 43
0.0
 43
0.0
 43
1.0
 43
0.0
 43
0.0
 43
0.0
 43
0.0
 43
1.0
 49
0.0208000000566244
 49
0.0
 49
0.0
 49
0.0
 49
0.0
 49
0.0208000000566244
 49
0.0
 49
0.0
 49
0.0
 49
0.0
 49
1.0
 49
0.0
 49
0.0
 49
0.0
 49
0.0
 49
1.0
142
0.0208000000566244
142
0.0
142
0.0
142
0.0
142
0.0
142
0.0208000000566244
142
0.0
142
0.0
142
0.0
142
0.0
142
1.0
142
0.0
142
0.0
142
0.0
142
0.0
142
1.0
144
0.0208000000566244
144
0.0
144
0.0
144
0.0
144
0.0
144
0.0208000000566244
144
0.0
144
0.0
144
0.0
144
0.0
144
1.0
144
0.0
144
0.0
144
0.0
144
0.0
144
1.0
1001
ACAD
1070
    -1
1070
     3
1070
     0
1000

1071
        0
1070
     0
  0
MLEADERSTYLE
  5
1B2D
102
{ACAD_REACTORS
330
1B2C
102
}
330
1B2C
100
AcDbMLeaderStyle
170
     2
171
     1
172
     0
 90
        2
 40
0.0
 41
0.0
173
     1
 91
-1056964608
340
14
 92
       -2
290
     1
 42
2.0
291
     1
 43
0.36
  3
Standard
 44
4.0
300

342
11
174
     1
178
     6
175
     1
176
     0
 93
-1056964608
 45
4.0
292
     0
297
     0
 46
4.0
 94
-1056964608
 47
1.0
 49
1.0
140
1.0
293
     1
141
0.0
294
     1
177
     0
142
1.0
295
     0
296
     0
143
0.125
1001
ACAD_MLEADERVER
1070
     2
  0
MLINESTYLE
  5
18
102
{ACAD_REACTORS
330
17
102
}
330
17
100
AcDbMlineStyle
  2
STANDARD
 70
     0
  3

 62
   256
 51
90.0
 52
90.0
 71
     2
 49
0.5
 62
   256
  6
BYLAYER
 49
-0.5
 62
   256
  6
BYLAYER
  0
ACDBPLACEHOLDER
  5
F
102
{ACAD_REACTORS
330
E
102
}
330
E
  0
SCALE
  5
1B0B
102
{ACAD_REACTORS
330
1B0A
102
}
330
1B0A
100
AcDbScale
 70
     0
300
1:1
140
1.0
141
1.0
290
     1
  0
SCALE
  5
1B0C
102
{ACAD_REACTORS
330
1B0A
102
}
330
1B0A
100
AcDbScale
 70
     0
300
1:2
140
1.0
141
2.0
290
     0
  0
SCALE
  5
1B0D
102
{ACAD_REACTORS
330
1B0A
102
}
330
1B0A
100
AcDbScale
 70
     0
300
1:4
140
1.0
141
4.0
290
     0
  0
SCALE
  5
1B0E
102
{ACAD_REACTORS
330
1B0A
102
}
330
1B0A
100
AcDbScale
 70
     0
300
1:5
140
1.0
141
5.0
290
     0
  0
SCALE
  5
1B0F
102
{ACAD_REACTORS
330
1B0A
102
}
330
1B0A
100
AcDbScale
 70
     0
300
1:8
140
1.0
141
8.0
290
     0
  0
SCALE
  5
1B10
102
{ACAD_REACTORS
330
1B0A
102
}
330
1B0A
100
AcDbScale
 70
     0
300
1:10
140
1.0
141
10.0
290
     0
  0
SCALE
  5
1B11
102
{ACAD_REACTORS
330
1B0A
102
}
330
1B0A
100
AcDbScale
 70
     0
300
1:16
140
1.0
141
16.0
290
     0
  0
SCALE
  5
1B12
102
{ACAD_REACTORS
330
1B0A
102
}
330
1B0A
100
AcDbScale
 70
     0
300
1:20
140
1.0
141
20.0
290
     0
  0
SCALE
  5
1B13
102
{ACAD_REACTORS
330
1B0A
102
}
330
1B0A
100
AcDbScale
 70
     0
300
1:30
140
1.0
141
30.0
290
     0
  0
SCALE
  5
1B14
102
{ACAD_REACTORS
330
1B0A
102
}
330
1B0A
100
AcDbScale
 70
     0
300
1:40
140
1.0
141
40.0
290
     0
  0
SCALE
  5
1B15
102
{ACAD_REACTORS
330
1B0A
102
}
330
1B0A
100
AcDbScale
 70
     0
300
1:50
140
1.0
141
50.0
290
     0
  0
SCALE
  5
1B16
102
{ACAD_REACTORS
330
1B0A
102
}
330
1B0A
100
AcDbScale
 70
     0
300
1:100
140
1.0
141
100.0
290
     0
  0
SCALE
  5
1B17
102
{ACAD_REACTORS
330
1B0A
102
}
330
1B0A
100
AcDbScale
 70
     0
300
2:1
140
2.0
141
1.0
290
     0
  0
SCALE
  5
1B18
102
{ACAD_REACTORS
330
1B0A
102
}
330
1B0A
100
AcDbScale
 70
     0
300
4:1
140
4.0
141
1.0
290
     0
  0
SCALE
  5
1B19
102
{ACAD_REACTORS
330
1B0A
102
}
330
1B0A
100
AcDbScale
 70
     0
300
8:1
140
8.0
141
1.0
290
     0
  0
SCALE
  5
1B1A
102
{ACAD_REACTORS
330
1B0A
102
}
330
1B0A
100
AcDbScale
 70
     0
300
10:1
140
10.0
141
1.0
290
     0
  0
SCALE
  5
1B1B
102
{ACAD_REACTORS
330
1B0A
102
}
330
1B0A
100
AcDbScale
 70
     0
300
100:1
140
100.0
141
1.0
290
     0
  0
SCALE
  5
1B1C
102
{ACAD_REACTORS
330
1B0A
102
}
330
1B0A
100
AcDbScale
 70
     0
300
1/128" = 1'-0"
140
0.0078125
141
12.0
290
     0
  0
SCALE
  5
1B1D
102
{ACAD_REACTORS
330
1B0A
102
}
330
1B0A
100
AcDbScale
 70
     0
300
1/64" = 1'-0"
140
0.015625
141
12.0
290
     0
  0
SCALE
  5
1B1E
102
{ACAD_REACTORS
330
1B0A
102
}
330
1B0A
100
AcDbScale
 70
     0
300
1/32" = 1'-0"
140
0.03125
141
12.0
290
     0
  0
SCALE
  5
1B1F
102
{ACAD_REACTORS
330
1B0A
102
}
330
1B0A
100
AcDbScale
 70
     0
300
1/16" = 1'-0"
140
0.0625
141
12.0
290
     0
  0
SCALE
  5
1B20
102
{ACAD_REACTORS
330
1B0A
102
}
330
1B0A
100
AcDbScale
 70
     0
300
3/32" = 1'-0"
140
0.09375
141
12.0
290
     0
  0
SCALE
  5
1B21
102
{ACAD_REACTORS
330
1B0A
102
}
330
1B0A
100
AcDbScale
 70
     0
300
1/8" = 1'-0"
140
0.125
141
12.0
290
     0
  0
SCALE
  5
1B22
102
{ACAD_REACTORS
330
1B0A
102
}
330
1B0A
100
AcDbScale
 70
     0
300
3/16" = 1'-0"
140
0.1875
141
12.0
290
     0
  0
SCALE
  5
1B23
102
{ACAD_REACTORS
330
1B0A
102
}
330
1B0A
100
AcDbScale
 70
     0
300
1/4" = 1'-0"
140
0.25
141
12.0
290
     0
  0
SCALE
  5
1B24
102
{ACAD_REACTORS
330
1B0A
102
}
330
1B0A
100
AcDbScale
 70
     0
300
3/8" = 1'-0"
140
0.375
141
12.0
290
     0
  0
SCALE
  5
1B25
102
{ACAD_REACTORS
330
1B0A
102
}
330
1B0A
100
AcDbScale
 70
     0
300
1/2" = 1'-0"
140
0.5
141
12.0
290
     0
  0
SCALE
  5
1B26
102
{ACAD_REACTORS
330
1B0A
102
}
330
1B0A
100
AcDbScale
 70
     0
300
3/4" = 1'-0"
140
0.75
141
12.0
290
     0
  0
SCALE
  5
1B27
102
{ACAD_REACTORS
330
1B0A
102
}
330
1B0A
100
AcDbScale
 70
     0
300
1" = 1'-0"
140
1.0
141
12.0
290
     0
  0
SCALE
  5
1B28
102
{ACAD_REACTORS
330
1B0A
102
}
330
1B0A
100
AcDbScale
 70
     0
300
1-1/2" = 1'-0"
140
1.5
141
12.0
290
     0
  0
SCALE
  5
1B29
102
{ACAD_REACTORS
330
1B0A
102
}
330
1B0A
100
AcDbScale
 70
     0
300
3" = 1'-0"
140
3.0
141
12.0
290
     0
  0
SCALE
  5
1B2A
102
{ACAD_REACTORS
330
1B0A
102
}
330
1B0A
100
AcDbScale
 70
     0
300
6" = 1'-0"
140
6.0
141
12.0
290
     0
  0
SCALE
  5
1B2B
102
{ACAD_REACTORS
330
1B0A
102
}
330
1B0A
100
AcDbScale
 70
     0
300
1'-0" = 1'-0"
140
12.0
141
12.0
290
     0
  0
TABLESTYLE
  5
1B09
102
{ACAD_XDICTIONARY
360
1BB9
102
}
102
{ACAD_REACTORS
330
1B08
102
}
330
1B08
100
AcDbTableStyle
  3
Standard
 70
     0
 71
     0
 40
1.5
 41
1.5
280
     0
281
     0
  7
Standard
140
4.5
170
     2
 62
     0
 63
     7
283
     0
274
    -2
284
     1
 64
     0
275
    -2
285
     1
 65
     0
276
    -2
286
     1
 66
     0
277
    -2
287
     1
 67
     0
278
    -2
288
     1
 68
     0
279
    -2
289
     1
 69
     0
  7
Standard
140
6.0
170
     5
 62
     0
 63
     7
283
     0
274
    -2
284
     1
 64
     0
275
    -2
285
     1
 65
     0
276
    -2
286
     1
 66
     0
277
    -2
287
     1
 67
     0
278
    -2
288
     1
 68
     0
279
    -2
289
     1
 69
     0
  7
Standard
140
4.5
170
     5
 62
     0
 63
     7
283
     0
274
    -2
284
     1
 64
     0
275
    -2
285
     1
 65
     0
276
    -2
286
     1
 66
     0
277
    -2
287
     1
 67
     0
278
    -2
288
     1
 68
     0
279
    -2
289
     1
 69
     0
  0
VISUALSTYLE
  5
1AFD
102
{ACAD_REACTORS
330
1AF7
102
}
330
1AF7
100
AcDbVisualStyle
  2
2dWireframe
 70
     4
 71
     0
 72
     2
 73
     0
 90
        0
 40
-0.6
 41
-30.0
 62
     5
 63
     7
421
 16777215
 74
     1
 91
        4
 64
     7
 65
   257
 75
     1
175
     1
 42
1.0
 92
        0
 66
   257
 43
1.0
 76
     1
 77
     6
 78
     2
 67
     7
 79
     5
170
     0
171
     0
290
     0
174
     0
 93
        1
 44
0.0
173
     0
291
     0
 45
0.0
1001
ACAD
1000
AcDbSavedByObjectVersion
1070
     0
  0
VISUALSTYLE
  5
1AFF
102
{ACAD_REACTORS
330
1AF7
102
}
330
1AF7
100
AcDbVisualStyle
  2
3D Hidden
 70
     6
 71
     1
 72
     2
 73
     2
 90
        0
 40
-0.6
 41
-30.0
 62
     5
 63
     7
421
 16777215
 74
     2
 91
        2
 64
     7
 65
   257
 75
     2
175
     1
 42
40.0
 92
        0
 66
   257
 43
1.0
 76
     1
 77
     6
 78
     2
 67
     7
 79
     3
170
     0
171
     0
290
     0
174
     0
 93
        1
 44
0.0
173
     0
291
     0
 45
0.0
1001
ACAD
1000
AcDbSavedByObjectVersion
1070
     0
  0
VISUALSTYLE
  5
1AFE
102
{ACAD_REACTORS
330
1AF7
102
}
330
1AF7
100
AcDbVisualStyle
  2
3dWireframe
 70
     5
 71
     0
 72
     2
 73
     0
 90
        0
 40
-0.6
 41
-30.0
 62
     5
 63
     7
421
 16777215
 74
     1
 91
        4
 64
     7
 65
   257
 75
     1
175
     1
 42
1.0
 92
        0
 66
   257
 43
1.0
 76
     1
 77
     6
 78
     2
 67
     7
 79
     5
170
     0
171
     0
290
     0
174
     0
 93
        1
 44
0.0
173
     0
291
     0
 45
0.0
1001
ACAD
1000
AcDbSavedByObjectVersion
1070
     0
  0
VISUALSTYLE
  5
1AFC
102
{ACAD_REACTORS
330
1AF7
102
}
330
1AF7
100
AcDbVisualStyle
  2
Basic
 70
     7
 71
     1
 72
     0
 73
     1
 90
        0
 40
-0.6
 41
-30.0
 62
     5
 63
     7
421
 16777215
 74
     0
 91
        4
 64
     7
 65
   257
 75
     1
175
     1
 42
1.0
 92
        8
 66
     7
 43
1.0
 76
     1
 77
     6
 78
     2
 67
     7
 79
     5
170
     0
171
     0
290
     0
174
     0
 93
        1
 44
0.0
173
     0
291
     1
 45
0.0
1001
ACAD
1000
AcDbSavedByObjectVersion
1070
     0
  0
VISUALSTYLE
  5
1B03
102
{ACAD_REACTORS
330
1AF7
102
}
330
1AF7
100
AcDbVisualStyle
  2
Brighten
 70
    12
 71
     2
 72
     2
 73
     0
 90
        0
 40
-0.6
 41
-30.0
 62
     5
 63
     7
421
 16777215
 74
     1
 91
        4
 64
     7
 65
   257
 75
     1
175
     1
 42
1.0
 92
        8
 66
     7
 43
1.0
 76
     1
 77
     6
 78
     2
 67
     7
 79
     5
170
     0
171
     0
290
     0
174
     0
 93
        1
 44
50.0
173
     0
291
     1
 45
0.0
1001
ACAD
1000
AcDbSavedByObjectVersion
1070
     0
  0
VISUALSTYLE
  5
1B07
102
{ACAD_REACTORS
330
1AF7
102
}
330
1AF7
100
AcDbVisualStyle
  2
ColorChange
 70
    16
 71
     2
 72
     2
 73
     3
 90
        0
 40
-0.6
 41
-30.0
 62
     5
 63
     8
421
  8421504
 74
     1
 91
        4
 64
     7
 65
   257
 75
     1
175
     1
 42
1.0
 92
        8
 66
     8
424
  8421504
 43
1.0
 76
     1
 77
     6
 78
     2
 67
     7
 79
     5
170
     0
171
     0
290
     0
174
     0
 93
        1
 44
0.0
173
     0
291
     1
 45
0.0
1001
ACAD
1000
AcDbSavedByObjectVersion
1070
     0
  0
VISUALSTYLE
  5
1B00
102
{ACAD_REACTORS
330
1AF7
102
}
330
1AF7
100
AcDbVisualStyle
  2
Conceptual
 70
     9
 71
     3
 72
     2
 73
     0
 90
        0
 40
-0.6
 41
-30.0
 62
     5
 63
     7
421
 16777215
 74
     2
 91
        2
 64
     7
 65
   257
 75
     1
175
     1
 42
40.0
 92
        8
 66
     7
 43
1.0
 76
     1
 77
     6
 78
     2
 67
     7
 79
     3
170
     0
171
     0
290
     0
174
     0
 93
        1
 44
0.0
173
     0
291
     0
 45
0.0
1001
ACAD
1000
AcDbSavedByObjectVersion
1070
     0
  0
VISUALSTYLE
  5
1B02
102
{ACAD_REACTORS
330
1AF7
102
}
330
1AF7
100
AcDbVisualStyle
  2
Dim
 70
    11
 71
     2
 72
     2
 73
     0
 90
        0
 40
-0.6
 41
-30.0
 62
     5
 63
     7
421
 16777215
 74
     1
 91
        4
 64
     7
 65
   257
 75
     1
175
     1
 42
1.0
 92
        8
 66
     7
 43
1.0
 76
     1
 77
     6
 78
     2
 67
     7
 79
     5
170
     0
171
     0
290
     0
174
     0
 93
        1
 44
-50.0
173
     0
291
     1
 45
0.0
1001
ACAD
1000
AcDbSavedByObjectVersion
1070
     0
  0
VISUALSTYLE
  5
1B06
102
{ACAD_REACTORS
330
1AF7
102
}
330
1AF7
100
AcDbVisualStyle
  2
Facepattern
 70
    15
 71
     2
 72
     2
 73
     0
 90
        0
 40
-0.6
 41
-30.0
 62
     5
 63
     7
421
 16777215
 74
     1
 91
        4
 64
     7
 65
   257
 75
     1
175
     1
 42
1.0
 92
        8
 66
     7
 43
1.0
 76
     1
 77
     6
 78
     2
 67
     7
 79
     5
170
     0
171
     0
290
     0
174
     0
 93
        1
 44
0.0
173
     0
291
     1
 45
0.0
1001
ACAD
1000
AcDbSavedByObjectVersion
1070
     0
  0
VISUALSTYLE
  5
1AF8
102
{ACAD_REACTORS
330
1AF7
102
}
330
1AF7
100
AcDbVisualStyle
  2
Flat
 70
     0
 71
     2
 72
     1
 73
     1
 90
        2
 40
-0.6
 41
30.0
 62
     5
 63
     7
421
 16777215
 74
     0
 91
        4
 64
     7
 65
   257
 75
     1
175
     1
 42
1.0
 92
        8
 66
     7
 43
1.0
 76
     1
 77
     6
 78
     2
 67
     7
 79
     5
170
     0
171
     0
290
     0
174
     0
 93
       13
 44
0.0
173
     0
291
     1
 45
0.0
1001
ACAD
1000
AcDbSavedByObjectVersion
1070
     0
  0
VISUALSTYLE
  5
1AF9
102
{ACAD_REACTORS
330
1AF7
102
}
330
1AF7
100
AcDbVisualStyle
  2
FlatWithEdges
 70
     1
 71
     2
 72
     1
 73
     1
 90
        2
 40
-0.6
 41
30.0
 62
     5
 63
     7
421
 16777215
 74
     1
 91
        4
 64
     7
 65
   257
 75
     1
175
     1
 42
1.0
 92
        0
 66
   257
 43
1.0
 76
     1
 77
     6
 78
     2
 67
     7
 79
     5
170
     0
171
     0
290
     0
174
     0
 93
       13
 44
0.0
173
     0
291
     1
 45
0.0
1001
ACAD
1000
AcDbSavedByObjectVersion
1070
     0
  0
VISUALSTYLE
  5
1AFA
102
{ACAD_REACTORS
330
1AF7
102
}
330
1AF7
100
AcDbVisualStyle
  2
Gouraud
 70
     2
 71
     2
 72
     2
 73
     1
 90
        2
 40
-0.6
 41
30.0
 62
     5
 63
     7
421
 16777215
 74
     0
 91
        4
 64
     7
 65
   257
 75
     1
175
     1
 42
1.0
 92
        0
 66
     7
 43
1.0
 76
     1
 77
     6
 78
     2
 67
     7
 79
     5
170
     0
171
     0
290
     0
174
     0
 93
       13
 44
0.0
173
     0
291
     1
 45
0.0
1001
ACAD
1000
AcDbSavedByObjectVersion
1070
     0
  0
VISUALSTYLE
  5
1AFB
102
{ACAD_REACTORS
330
1AF7
102
}
330
1AF7
100
AcDbVisualStyle
  2
GouraudWithEdges
 70
     3
 71
     2
 72
     2
 73
     1
 90
        2
 40
-0.6
 41
30.0
 62
     5
 63
     7
421
 16777215
 74
     1
 91
        4
 64
     7
 65
   257
 75
     1
175
     1
 42
1.0
 92
        0
 66
   257
 43
1.0
 76
     1
 77
     6
 78
     2
 67
     7
 79
     5
170
     0
171
     0
290
     0
174
     0
 93
       13
 44
0.0
173
     0
291
     1
 45
0.0
1001
ACAD
1000
AcDbSavedByObjectVersion
1070
     0
  0
VISUALSTYLE
  5
1B05
102
{ACAD_REACTORS
330
1AF7
102
}
330
1AF7
100
AcDbVisualStyle
  2
Linepattern
 70
    14
 71
     2
 72
     2
 73
     0
 90
        0
 40
-0.6
 41
-30.0
 62
     5
 63
     7
421
 16777215
 74
     1
 91
        4
 64
     7
 65
   257
 75
     7
175
     7
 42
1.0
 92
        8
 66
     7
 43
1.0
 76
     1
 77
     6
 78
     2
 67
     7
 79
     5
170
     0
171
     0
290
     0
174
     0
 93
        1
 44
0.0
173
     0
291
     1
 45
0.0
1001
ACAD
1000
AcDbSavedByObjectVersion
1070
     0
  0
VISUALSTYLE
  5
1B01
102
{ACAD_REACTORS
330
1AF7
102
}
330
1AF7
100
AcDbVisualStyle
  2
Realistic
 70
     8
 71
     2
 72
     2
 73
     0
 90
        0
 40
-0.6
 41
-30.0
 62
     5
 63
     7
421
 16777215
 74
     1
 91
        0
 64
     7
 65
   257
 75
     1
175
     1
 42
1.0
 92
        8
 66
     8
424
  7895160
 43
1.0
 76
     1
 77
     6
 78
     2
 67
     7
 79
     5
170
     0
171
     0
290
     0
174
     0
 93
       13
 44
0.0
173
     0
291
     0
 45
0.0
1001
ACAD
1000
AcDbSavedByObjectVersion
1070
     0
  0
VISUALSTYLE
  5
1B04
102
{ACAD_REACTORS
330
1AF7
102
}
330
1AF7
100
AcDbVisualStyle
  2
Thicken
 70
    13
 71
     2
 72
     2
 73
     0
 90
        0
 40
-0.6
 41
-30.0
 62
     5
 63
     7
421
 16777215
 74
     1
 91
        4
 64
     7
 65
   257
 75
     1
175
     1
 42
1.0
 92
       12
 66
     7
 43
1.0
 76
     1
 77
     6
 78
     2
 67
     7
 79
     5
170
     0
171
     0
290
     0
174
     0
 93
        1
 44
0.0
173
     0
291
     1
 45
0.0
1001
ACAD
1000
AcDbSavedByObjectVersion
1070
     0
  0
DICTIONARYVAR
  5
1BD5
102
{ACAD_REACTORS
330
1BD2
102
}
330
1BD2
100
DictionaryVariables
280
     0
  1
1:1
  0
DICTIONARYVAR
  5
1BD4
102
{ACAD_REACTORS
330
1BD2
102
}
330
1BD2
100
DictionaryVariables
280
     0
  1
STANDARD
  0
DICTIONARYVAR
  5
1BD3
102
{ACAD_REACTORS
330
1BD2
102
}
330
1BD2
100
DictionaryVariables
280
     0
  1
STANDARD
  0
DICTIONARY
  5
1BAE
330
17A7
100
AcDbDictionary
280
     1
281
     1
  3
ADSK_XREC_LAYOUTTHUMBNAIL
360
1BAF
  0
DICTIONARY
  5
1AF0
330
1AEF
100
AcDbDictionary
280
     1
281
     1
  3
ACAD_XREC_ROUNDTRIP
360
1E01
  3
BUMPTILE
360
1AF2
  3
DIFFUSETILE
360
1AF1
  3
OPACITYTILE
360
1AF5
  3
REFLECTIONTILE
360
1AF4
  3
REFRACTIONTILE
360
1AF6
  3
SPECULARTILE
360
1AF3
  0
DICTIONARY
  5
1AE8
330
1AE7
100
AcDbDictionary
280
     1
281
     1
  3
ACAD_XREC_ROUNDTRIP
360
1E00
  3
BUMPTILE
360
1AEA
  3
DIFFUSETILE
360
1AE9
  3
OPACITYTILE
360
1AED
  3
REFLECTIONTILE
360
1AEC
  3
REFRACTIONTILE
360
1AEE
  3
SPECULARTILE
360
1AEB
  0
DICTIONARY
  5
56
330
55
100
AcDbDictionary
280
     1
281
     1
  3
ACAD_XREC_ROUNDTRIP
360
1DFF
  3
BUMPTILE
360
58
  3
DIFFUSETILE
360
59
  3
OPACITYTILE
360
5A
  3
REFLECTIONTILE
360
5B
  0
DICTIONARY
  5
1BB9
330
1B09
100
AcDbDictionary
280
     1
281
     1
  3
ACAD_ROUNDTRIP_2008_TABLESTYLE_CELLSTYLEMAP
360
1DFE
  3
ACAD_XREC_ROUNDTRIP
360
1E02
  0
XRECORD
  5
1BAF
102
{ACAD_REACTORS
330
1BAE
102
}
330
1BAE
100
AcDbXrecord
280
     1
310
28000000620000008C0000000100080000000000B036000000000000000000000001000000000000FFFFFF0000000000FFFFFF000000000000000000000000000000000000000000000000000000000000000000330000006600000099000000CC000000FF00000000330000333300006633000099330000CC330000FF3300
310
0000660000336600006666000099660000CC660000FF66000000990000339900006699000099990000CC990000FF99000000CC000033CC000066CC000099CC0000CCCC0000FFCC000000FF000033FF000066FF000099FF0000CCFF0000FFFF000000003300330033006600330099003300CC003300FF003300003333003333
310
33006633330099333300CC333300FF33330000663300336633006666330099663300CC663300FF66330000993300339933006699330099993300CC993300FF99330000CC330033CC330066CC330099CC3300CCCC3300FFCC330000FF330033FF330066FF330099FF3300CCFF3300FFFF330000006600330066006600660099
310
006600CC006600FF00660000336600333366006633660099336600CC336600FF33660000666600336666006666660099666600CC666600FF66660000996600339966006699660099996600CC996600FF99660000CC660033CC660066CC660099CC6600CCCC6600FFCC660000FF660033FF660066FF660099FF6600CCFF6600
310
FFFF660000009900330099006600990099009900CC009900FF00990000339900333399006633990099339900CC339900FF33990000669900336699006666990099669900CC669900FF66990000999900339999006699990099999900CC999900FF99990000CC990033CC990066CC990099CC9900CCCC9900FFCC990000FF99
310
0033FF990066FF990099FF9900CCFF9900FFFF99000000CC003300CC006600CC009900CC00CC00CC00FF00CC000033CC003333CC006633CC009933CC00CC33CC00FF33CC000066CC003366CC006666CC009966CC00CC66CC00FF66CC000099CC003399CC006699CC009999CC00CC99CC00FF99CC0000CCCC0033CCCC0066CC
310
CC0099CCCC00CCCCCC00FFCCCC0000FFCC0033FFCC0066FFCC0099FFCC00CCFFCC00FFFFCC000000FF003300FF006600FF009900FF00CC00FF00FF00FF000033FF003333FF006633FF009933FF00CC33FF00FF33FF000066FF003366FF006666FF009966FF00CC66FF00FF66FF000099FF003399FF006699FF009999FF00CC
310
99FF00FF99FF0000CCFF0033CCFF0066CCFF0099CCFF00CCCCFF00FFCCFF0000FFFF0033FFFF0066FFFF0099FFFF00CCFFFF00FFFFFF00000000000D0D0D001A1A1A00282828003535350043434300505050005D5D5D006B6B6B00787878008686860093939300A1A1A100AEAEAE00BBBBBB00C9C9C900D6D6D600E4E4E400
310
F1F1F100FFFFFF0000000000000000000000000000000000000000000000000000000000000000000000000000000000E2E2E2E2E2E2E2E2E2E2E2E2E2E2E2E2E2E2E2E2E2E2E2E2E2E2E2E2E2E2E2E2E2E2E2E2E2E2E2E2E2E2E2E2E2E2E2E2E2E2E2E2E2E2E2E2E2E2E2E2E2E2E2E2E2E2E2E2E2E2E2E2E2E2E2E2E2E2E2
310
E2E2E2E2E2E2E2E2E2E2E2E2E2E2E2E2E2E2E2EFEFE2F5F5F5F5F5F5F5F5F5F5F5F5F5F5F5F5F5F5F5F5F5F5F5F5F5F5F5F5F5F5F5F5F5F5F5F5F5F5F5F5F5F5F5F5F5F5F5F5F5F5F5F5F5F5F5F5F5F5F5F5F5F5F5F5F5F5F5F5F5F5F5F5F5F5F5F5F5F5F5F5F5F5F5F5F5F5F5F5F5F5F5F5F5F5F5F5F5EFEFE2F5F5F5F5F5
310
F5F5F5F5F5F5F5F5F5F5F5F5F5F5F5F5F5F5F5F5F5F5F5F5F5F5F5F5F5F5F5F5F5F5F5F5F5F5F5F5F5F5F5F5F5F5F5F5F5F5F5F5F5F5F5F5F5F5F5F5F5F5F5F5F5F5F5F5F5F5F5F5F5F5F5F5F5F5F5F5F5F5F5F5F5F5F5F5F5F5F5F5EFEFE2F5E2E2E2E2E2E2E2E2F5F5F5F5F5F5F5F5E2E2E2E2E2E2E2E2E2E2E2E2E2E2E2
310
E2F5F5F5F5F5F5F5F5E2E2E2E2E2E2E2E2E2E2E2E2E2E2E2F5F5F5F5F5F5F5F5E2E2E2E2E2E2E2E2E2E2E2E2E2E2E2E2F5F5F5F5F5F5F5F5E2E2E2E2E2E2E2E2F5E2E2E2F5E2F5F5F5F5F5F5F5F5F5F5F5F5F5F5F5F5F5F5F5F5F5F5F5F5F5F5F5F5F5F5F5F5F5F5F5F5F5F5F5F5F5F5F5F5F5F5F5F5F5F5F5F5F5F5F5F5F5
310
F5F5F5F5F5F5F5F5F5F5F5F5F5F5F5F5F5F5F5F5F5F5F5F5F5F5F5F5F5F5F5F5F5F5F5F5E2F5EFEFE2F5E2F5F5F5F5F5F5F5F5F5F5F5F5F5F5F5F5F5F5F5F5F5F5F5F5F5F5F5F5F5F5F5F5F5F5F5F5F5F5F5F5F5F5F5F5F5F5F5F5F5F5F5F5F5F5F5F5F5F5F5F5F5F5F5F5F5F5F5F5F5F5F5F5F5F5F5F5F5F5F5F5F5F5F5F5
310
F5F5F5F5F5F5F5F5F5E2F5F5F5E2F5E2F5F5F5F5F5F5F5F5F5F5F5F5F5F5F5F5F5F5F5F5F5F5F5F5F5F5F5F5F5F5F5F5F5F5F5F5F5F5F5F5F5F5F5F5F5F5F5F5F5F5F5F5F5F5F5F5F5F5F5F5F5F5F5F5F5F5F5F5F5F5F5F5F5F5F5F5F5F5F5F5F5F5F5F5F5F5F5F5F5F5F5F5F5E2F5EFEFE2F5E2F5F5F5F5F5F5F5F5F5F5F5
310
F5F5F5F5F5F5F5F5F5F5F5F5F5F5F5F5F5F5F5F5F5F5F5F5F5F5F5F5F5F5F5F5F5F5F5F5F5F5F5F5F5F5F5F5F5F5F5F5F5F5F5F5F5F5F5F5F5F5F5F5F5F5F5F5F5F5F5F5F5F5F5F5F5F5F5F5F5F5F5F5F5F5E2F5F5F5E2F5E2F5F5F5F5F5F5F5F5F5F5F5F5F5F5F5F5F5F5F5F5F5F5F5F5F5F5F5F5F5F5F5F5F5F5F5F5F5F5
310
F5F5F5F5F5F5F5F5F5F5F5F5F5F5F5F5F5F5F5F5F5F5F5F5F5F5F5F5F5F5F5F5F5F5F5F5F5F5F5F5F5F5F5F5F5F5F5F5F5F5F5F5F5F5F5E2F5EFEFE2F5E2F5F5F5DCDCDCDCDCDCDCDCDCDCDCDCDCDCDCDCDCDCDCDCDCDCDCDCDCDCDCDCDCDCDCDCDCDCDCDCDCDCDCDCDCDCDCDCDCDCDCDCDCDCDCDCDCDCDCDCDCDCDCDCDCDC
310
DCDCDCDCDCDCDCDCDCDCDCDCDCDCDCDCDCDCDCDCDCDCDCDCDCF5F5F5E2F5EFEFE2F5E2F5F5F5DCF5F5F5F5F5F5F5F5F5F5F5F5F5F5F5F5F5F5F5F5F5F5F5F5F5F5F5F5F5F5F5F5F5F5F5F5F5F5F5F5F5F5F5F5F5F5F5F5F5F5F5F5F5F5F5F5F5F5F5F5F5F5F5F5F5F5F5F5F5F5F5F5F5F5F5F5F5F5F5F5F5F5F5F5F5DCF5F5
310
F5E2F5EFEFE2F5E2F5F5F5DCF5F5F5F5F5F5F5F5F5F5F5F5F5F5F5F5F5F5F5F5F5F5F5F5F5F5F5F5F5F5F5F5F5F5F5F5F5F5F5F5F5F5F5F5F5F5F5F5F5F5F5F5F5F5F5F5F5F5F5F5F5F5F5F5F5F5F5F5F5F5F5F5F5F5F5F5F5F5F5F5F5F5F5F5F5DCF5F5F5E2F5EFEFE2F5F5F5F5F5DCF5F5F5F5F5F5F5F5F5F5F5F5F5F5F5
310
F5F5F5F5F5F5F5F5F5F5F5F5F5F5F5F5F5F5F5F5F5F5F5F5F5F5F5F5F5F5F5E2E2E2E2E2E2E2E2E2E2E2E2E2E2E2E2E2E2E2E2E2E2E2E2E2E2E2E2E2E2E2E2E2F5F5F5F5F5F5DCF5F5F5F5F5E2F5E2F5F5F5F5F5DCF5F5F5F5F5F5F5F5F5F5F5F5F5F5F5F5F5F5F5F5F5F5F5F5F5F5F5F5F5F5F5F5F5F5F5F5F5F5F5F5F5F5
310
F5F5F5F5E2F5F5F528282828282828282828282828282828282828282828282828F5F5F5E2F5F5F5F5F5F5DCF5F5F5F5F5EFEFE2F5F5F5F5F5DCF5F5F5F5F5F5F5F5F5F5F5F5F5F5F5F5F5F5F5F5F5F5F5F5F5F5F5F5F5F5F5F5F5F5F5F5F5F5F5F5F5F5F5F5F5F5E2F5F5F528282828282828282828282828282828282828
310
282828282828F5F5F5E2F5F5F5F5F5F5DCF5F5F5F5F5F5F5E2F5F5F5F5F5DCF5F5F5F5F5F5F5F5F5F5F5F5F5F5F5F5F5F5F5F5F5F5F5F5F5F5F5F5F5F5F5F5F5F5F5F5F5F5F5F5F5F5F5F5F5F5E2282828E2E2E2E2E2E2E22828E2282828E2282828282828E2E228E2E2E2E2E2E2F5F5F5F5F5F5DCF5F5F5F5F5EFEFE2F5F5
310
F5F5F5DCF5F5F5F5F5F5F5F5F5F5F5F5F5F5F5F5F5F5F5F5F5F5F5F5F5F5F5F5F5F5F5F5F5F5F5F5F5F5F5F5F5F5F5F5F5F5E2282828E2F5F5F5F5F5F528282828282828282828282828282828F5F5F5F5F5E2F5F5F5F5F5F5DCF5F5F5F5F5E2E2E2F5F5F5F5F5DCF5F5F5F5F5F5F5F5F5F5F5F5F5F5F5F5F5F5F5F5F5F5F5
310
F5F5F5F5F5F5F5F5F5F5F5F5F5F5F5F5F5F5F5F5F5F5F5E2E2E2E2E2E2E2E2E2E2E2E2E2E2E2E2E2E2E2E2E2E2E2E2E2E2E2E2E2E2E2E2E2F5F5F5F5F5F5DCF5F5F5F5F5EFEFE2F5F5F5F5F5DCF5F5F5F5F5F5F5F5F5F5F5F5F5F5F5F5F5F5F5F5F5F5F5F5F5F5F5F5F5F5F5F5F5F5F5F5F5F5F5F5F5F5F5F5F5F5E2282828
310
E2F5F5F5F5F528282828282828F5F5F5F5F5E228282828E228282828E2F5F5F5F5F5F5DCF5F5F5F5F5EFEFE2F5F5F5F5F5DCF5F5F5F5F5F5F5F5F5F5F5F5F5F5F5F5F5F5F5F5F5F5F5F5F5F5F5F5F5F5F5F5F5F5F5F5F5F5F5F5F5F5F5F5F5F5E2E2E2E2E2E2E2E2E2E2E2E2E2E2E2E2E2E2E2E2E2E2E2E2E2E2E2E2E2E2E2
310
E2E2F5F5F5F5F5F5DCF5F5F5F5F5EFEFE2F5F5F5F5F5DCF5F5F5F5F5F5F5F5F5F5F5F5F5F5F5F5F5F5F5F5F5F5F5F5F5F5F5F5F5F5F5F5F5F5F5F5F5F5F5F5F5F5F5F5F5F5E2282828E2F5F5F5F5F5F5282828282828282828282828282828F5F5F5F5F5F5E2F5F5F5F5F5F5DCF5F5F5F5F5EFEFE2F5F5F5F5F5DCF5F5F5F5
310
F5F5F5F5F5F5F5F5F5F5F5F5F5F5F5F5F5F5F5F5F5F5F5F5F5F5F5F5F5F5F5F5F5F5F5F5F5F5F5F5F5F5E2282828E2F5F5F5F5F5F5F52828282828282828282828282828F5F5F5F5F5F5E2F5F5F5F5F5F5DCF5F5F5F5F5F5F5E2F5E2F5F5F5DCF5F5F5F5F5F5F5F5F5F5F5F5F5F5F5F5F5F5F5F5F5F5F5F5F5F5F5F5F5F5F5
310
F5F5F5F5F5F5F5F5F5F5F5F5F5F5F5E2E2E2E2E2E2E2E2E2E2E2E2E2E2E2E2E2E2E2E2E2E2E2E2E2E2E2E2E2E2E2E2E2F5F5F5F5F5F5DCF5F5F5E2F5EFEFE2F5E2F5F5F5DCF5F5F5F5F5F5F5F5F5F5F5F5F5F5F5F5F5F5F5F5F5F5F5F5F5F5F5F5F5F5F5F5F5F5F5F5F5F5F5F5F5F5F5F5F5F5F5F5F5F5F5F5F5F5F5F5F5F5
310
F5F5F5F5F5F5F5F5F5F5F5F5F5F5F5F5F5F5F5F5F5F5F5F5F5F5F5DCF5F5F5E2F5F5F5E2F5E2F5F5F5DCF5F5F5F5F5F5F5F5F5F5F5F5F5F5F5F5F5F5F5F5F5F5F5F5F5F5F5F5F5F5F5F5F5F5F5F5F5F5F5F5F5F5F5F5F5F5F5F5F5F5F5F5F5F5F5F5F5F5F5F5F5F5F5F5F5F5F5F5F5F5F5F5F5F5F5F5F5F5F5F5F5F5F5F5F5
310
DCF5F5F5E2F5EFEFE2F5E2F5F5F5DCF5F5F5F5F5F5F5F5F5F5F5F5F5F5F5F5F5F5F5F5F5F5F5F5F5F5F5F5F5F5F5F5F5F5F5F5F5F5F5F5F5F5F5F5F5F5F5F5F5F5F5F5F5F5F5F5F5F5F5F5F5F5F5F5F5F5F5F5F5F5F5F5F5F5F5F5F5F5F5F5F5F5F5F5F5DCF5F5F5E2F5E2E2E2F5E2F5F5F5DCF5F5F5F5F5F5F5F5F5F5F5F5
310
F5F5F5F5F5F5F5F5F5F5F5F5F5F5F5F5F5F5F5F5F5F5F5F5F5F5F5F5F5F5F5F5F5F5F5F5F5F5F5F5F5F5F5F5F5F5F5F5F5F5F5F5F5F5F5F5F5F5F5F5F5F5F5F5F5F5F5F5F5F5F5F5F5DCF5F5F5E2F5EFEFE2F5E2F5F5F5DCF5F5F5F5F5F5F5F5F5F5F5F5F5F5F5F5F5F5F5F5F5F5F5F5F5F5F5F5F5F5F5F5F5F5F5F5F5F5F5
310
F5F5F5F5F5F5F5F5F5F5F5F5F5F5F5F5F5F5F5F5F5F5F5F5F5F5F5F5F5F5F5F5F5F5F5F5F5F5F5F5F5F5F5F5F5F5DCF5F5F5E2F5EFEFE2F5E2F5F5F5DCF5F5F5F5F5F5F5F5F5F5F5F5F5F5F5F5F5F5F5F5F5F5F5F5F5F5F5F5F5F5F5F5F5F5F5F5F5F5F5F5F5F5F5F5F5F5F5F5F5F5F5F5F5F5F5F5F5F5F5F5F5F5F5F5F5F5
310
F5F5F5F5F5F5F5F5F5F5F5F5F5F5F5F5F5F5F5DCF5F5F5E2F5EFEFE2F5E2F5F5F5DCF5F5F5F5F5F5F5F5F5F5F5F5F5F5F5F5F5F5F5F5F5F5F5F5F5F5F5F5F5F5F5F5F5F5F5F5F5F5F5F5F5F5F5F5F5F5F5F5F5F5F5F5F5F5F5F5F5F5F5F5F5F5F5F5F5F5F5F5F5F5F5F5F5F5F5F5F5F5F5F5F5F5F5F5F5DCF5F5F5E2F5EFEF
310
E2F5E2F5F5F5DCF5F5F5F5F5F5F5F5E2E2E2E2E2E2E2E2E2E2E2E2E2E2E2E2E2E2E2E2E2E2E2E2E2E2E2DCE2E2E2E2E2E2E2E2E2E2E2E2E2E2E2E2E2E2E2E2E2E2E2E2E2E2E2E2E2E2E2E2E2E2E2E2E2E2E2E2E2E2E2F5F5F5F5F5F5DCF5F5F5E2F5F5F5E2F5E2F5F5F5DCF5F5F5F5F5F5F5F5E2F5F5F5F5F5F5DCDCDCDCF5
310
F5F5F5F5F5E2F5DCDCDCDCDCDCDCDCDCDCDCDCF5F5F5F5F5F5F5F5F5F5F5F5F5F5F5F5F5F5F5F5F5F5F5F5F5F5F5F5F5F5F5F5F5F5F5F5F5F5F5E2F5F5F5F5F5F5DCF5F5F5E2F5EFEFE2F5E2F5F5F5DCF5F5F5F5F5F5F5F5E2E2E2E2E2E2E2E2E2E2E2E2E2E2E2E2E2E2DCDCDCDCDCDCDCDCDCE2DCE2E2E2E2E2E2E2E2E2E2
310
E2E2E2E2E2E2E2E2E2E2E2E2E2E2E2E2E2E2E2E2E2E2E2E2E2E2E2E2E2E2E2E2F5F5F5F5F5F5DCF5F5F5E2F5DCDCE2F5E2F5F5F5DCF5F5F5F5F5F5F5F5E2F5F5F5F5F5F5DCDCDCDCF5F5F5F5F5F5E2DCDCDCDCDCDCDCDCDCF5DCDCDCDCDCDCDCDCDCDCDCDCDCDCDCDCDCDCDCDCDCDCDCF5F5F5F5F5F5F5F5F5F5F5F5F5F5F5
310
F5F5F5F5E2F5F5F5F5F5F5DCF5F5F5E2F5EFEFE2F5E2F5F5F5DCF5F5F5F5F5F5F5F5E2E2E2E2E2E2E2E2E2E2E2E2E2E2E2E2E2E2DCDCDCDCDCDCDCDCDCDCDCDCDCDCDCDCDCDCDCDCDCDCDCDCDCDCDCDCDCDCDCDCDCE2DCDCDCDCE2DCDCE2DCDCDCE2E2E2E2E2E2E2E2F5F5F5F5F5F5DCF5F5F5E2F5E2E2E2F5E2F5F5F5DCF5
310
F5F5F5F5F5F5F5E2F5F5F5F5F5F5F5F5F5F5F5F5F5F5F5F5E2DCDCDCDCDCDCDCDCDCF5DCDCDCDCDCDCF5DCDCDCDCDCDCDCF5DCDCDCDCDCDCDCDCDCDCDCDCDCDCDCDCDCDCDCDCDCF5F5F5F5F5F5E2F5F5F5F5F5F5DCF5F5F5E2F5EFEFE2F5E2F5F5F5DCF5F5F5F5F5F5F5F5E2F5F5F5F5F5DCDCDCDCDCDCF5F5F5F5F5E2DCDC
310
DCDCDCDCDCDCDCF5DCDCDCDCDCDCDCDCDCDCDCDCDCDCDCDCDCDCDCDCDCDCF5F5DCDCDCF5F5DCDCDCDCDCDCF5F5F5F5F5F5F5E2F5F5F5F5F5F5DCF5F5F5E2F5EFEFE2F5E2F5F5F5DCF5F5F5F5F5F5F5F5E2F5F5F5F5F5DCDCDCDCDCDCF5F5F5F5F5E2DCDCDCDCDCDCDCDCDCDCDCDCDCDCDCDCDCDCDCDCDCDCDCDCDCDCDCDCDC
310
DCF5F5F5F5F5F5F5F5F5F5F5F5F5F5F5F5F5F5F5F5F5F5E2F5F5F5F5F5F5DCF5F5F5E2F5EFEFE2F5E2F5F5F5DCF5F5F5F5F5F5F5F5E2E2E2E2E2E2E2E2E2E2E2E2E2E2E2E2E2E2E2DCDCDCDCDCDCDCDCE2DCDCDCDCDCDCDCDCDCDCDCDCDCDCDCDCDCDCDCDCDCDCDCDCDCDCDCE2DCDCDCDCDCDCDCE2E2E2E2E2E2E2E2F5F5F5
310
F5F5F5DCF5F5F5E2F5EFEFE2F5F5F5F5F5DCF5F5F5F5F5F5F5F5E2F5F5DCDCDCDCDCDCDCDCDCDCDCDCF5F5E2DCDCDCDCDCDCDCDCDCDCDCDCDCDCDCF5DCDCDCDCDCDCDCF5DCDCDCDCDCDCDCDCDCDCDCDCDCDCDCDCDCDCDCDCDCF5F5F5F5F5F5F5E2F5F5F5F5F5F5DCF5F5F5F5F5E2F5E2F5F5F5F5F5DCF5F5F5F5F5F5F5F5E2
310
E2E2E2E2E2E2E2E2E2E2E2E2E2E2E2E2E2DCDCDCDCDCDCDCDCDCDCDCDCDCDCDCDCDCDCDCDCDCDCDCDCDCDCDCDCDCDCDCDCDCDCDCDCDCDCDCDCDCDCDCDCDCDCDCDCDCDCDCE2E2F5F5F5F5F5F5DCF5F5F5F5F5EFEFE2F5F5F5F5F5DCF5F5F5F5F5F5F5F5E2F5F5F5F5F5F5F5F5F5F5F5F5F5F5F5F5E2DCDCDCDCDCDCDCDCDCDC
310
DCDCDCDCDCDCDCDCDCDCDCDCDCDCDCDCDCDCDCDCDCDCDCDCDCDCDCDCDCDCDCDCDCDCDCDCDCDCDCDCDCDCE2F5F5F5F5F5F5DCF5F5F5F5F5DCDCE2F5F5F5F5F5DCF5F5F5F5F5F5F5F5E2F5F5F5F5F5DCDCDCDCDCDCF5F5F5F5F5E2DCDCDCDCDCDCDCDCF5DCDCDCDCDCDCDCDCDCDCDCDCDCDCDCDCDCDCDCDCDCDCDCDCF5F5F5F5
310
F5F5F5F5F5F5F5F5F5F5F5F5F5F5F5E2F5F5F5F5F5F5DCF5F5F5F5F5EFEFE2F5F5F5F5F5DCF5F5F5F5F5F5F5F5E2F5F5F5F5F5DCDCDCDCDCDCF5F5F5F5F5E2DCDCDCDCDCDCDCDCF5DCDCDCDCDCDCDCDCDCDCDCDCDCDCDCDCDCDCDCDCDCDCDCDCF5F5F5F5F5F5F5F5F5F5F5F5F5F5F5F5F5F5F5E2F5F5F5F5F5F5DCF5F5F5F5
310
F5DCDCE2F5F5F5F5F5DCF5F5F5F5F5F5F5F5E2E2E2E2E2E2E2E2E2E2E2E2E2E2E2E2E2E2E2E2E2E2E2E2E2E2E2E2E2E2E2E2E2E2E2E2E2E2E2E2E2E2E2E2E2E2E2E2E2E2E2E2E2E2E2E2E2E2E2E2E2E2E2E2E2E2E2E2E2E2E2F5F5F5F5F5F5DCF5F5F5F5F5EFEFE2F5F5F5F5F5DCF5F5F5F5F5F5F5F5E2F5F5F5F5F5F5F5F5
310
F5F5F5F5F5F5F5F5E2DCDCDCDCDCDCDCDCDCDCDCDCDCDCDCDCF5DCDCDCDCDCDCDCDCDCDCDCDCDCDCDCDCDCDCDCDCDCDCDCDCDCDCDCDCDCDCF5F5F5F5F5E2F5F5F5F5F5F5DCF5F5F5F5F5EFEFE2F5F5F5F5F5DCF5F5F5F5F5F5F5F5E2F5F5F5F5F5F5F5F5F5F5F5F5F5F5F5F5E2F5F5DCDCDCDCF5DCDCDCDCDCDCDCDCF5DCDC
310
DCDCDCDCF5DCDCDCDCF5F5F5F5F5F5F5F5F5F5F5F5F5F5F5F5F5F5F5F5F5F5F5F5F5E2F5F5F5F5F5F5DCF5F5F5F5F5EFEFE2F5F5F5F5F5DCF5F5F5F5F5F5F5F5E2F5F5F5F5F5F5F5F5F5F5F5F5F5F5F5F5E2F5DCDCDCDCDCF5DCDCDCDCDCDCDCDCF5DCDCDCDCDCDCDCDCDCDCDCF5F5F5F5F5F5F5F5F5F5F5F5F5F5F5F5F5F5
310
F5F5F5F5F5F5F5E2F5F5F5F5F5F5DCF5F5F5F5F5EFEFE2F5E2F5F5F5DCF5F5F5F5F5F5F5F5E2F5F5F5F5F5F5F5F5F5F5F5F5F5F5F5F5E2F5DCDCDCDCDCF5DCDCDCDCDCDCDCDCDCF5DCDCDCDCDCDCF5DCDCDCDCDCDCDCDCDCDCDCDCDCDCF5F5F5F5F5F5F5F5F5F5F5F5F5F5E2F5F5F5F5F5F5DCF5F5F5E2F5E2F5E2F5E2F5F5
310
F5DCF5F5F5F5F5F5F5F5E2F5F5F5F5F5F5F5F5F5F5F5F5F5F5F5F5E2F5DCDCDCDCDCF5DCDCDCDCDCDCDCDCDCF5DCDCDCDCDCDCDCDCDCDCDCDCDCDCDCDCDCDCDCDCDCF5F5F5F5F5F5F5F5F5F5F5F5F5F5E2F5F5F5F5F5F5DCF5F5F5E2F5EFEFE2F5E2F5F5F5DCF5F5F5F5F5F5F5F5E2F5F5F5F5F5F5F5F5F5F5F5F5F5F5F5F5
310
E2F5DCDCDCDCDCDCDCF5DCDCDCDCDCDCDCDCDCDCDCDCDCDCDCDCDCDCDCDCF5F5F5F5F5F5F5F5F5F5F5F5F5F5F5F5F5F5F5F5F5F5F5E2F5F5F5F5F5F5DCF5F5F5E2F5DCDCE2F5E2F5F5F5DCF5F5F5F5F5F5F5F5E2F5F5F5F5F5F5F5F5F5F5F5F5F5F5F5F5E2F5DCDCDCDCDCDCDCF5DCDCDCDCDCDCDCDCF5DCDCDCDCDCDCDCDC
310
DCDCDCF5F5F5F5F5F5F5F5F5F5F5F5F5F5F5F5F5F5F5F5F5F5F5E2F5F5F5F5F5F5DCF5F5F5E2F5EFEFE2F5E2F5F5F5DCF5F5F5F5F5F5F5F5E2F5F5F5F5F5F5F5F5F5F5F5F5F5F5F5F5E2F5DCDCDCDCDCF5DCDCDCDCDCDCDCDCDCDCDCDCDCDCDCDCDCDCDCDCDCDCDCF5F5F5F5F5F5F5F5F5F5F5F5F5F5F5F5F5F5F5F5F5F5E2
310
F5F5F5F5F5F5DCF5F5F5E2F5F5F5E2F5E2F5F5F5DCF5F5F5F5F5F5F5F5E2F5F5F5F5F5F5F5F5F5F5F5F5F5F5F5F5E2F5DCDCDCDCDCF5DCDCDCDCDCDCDCDCDCDCDCDCDCDCDCDCDCDCDCDCDCDCDCF5F5F5F5F5F5F5F5F5F5F5F5F5F5F5F5F5F5F5F5F5F5E2F5F5F5F5F5F5DCF5F5F5E2F5EFEFE2F5E2F5F5F5DCF5F5F5F5F5F5
310
F5F5E2F5F5F5F5F5DCDCDCDCDCDCF5F5F5F5F5E2DCDCDCDCDCDCDCDCDCDCDCDCDCDCDCDCDCDCDCDCDCDCDCDCDCDCF5DCDCDCDCDCDCDCDCDCDCDCDCF5F5F5F5F5F5F5F5F5F5F5F5F5E2F5F5F5F5F5F5DCF5F5F5E2F5EFEFE2F5E2F5F5F5DCF5F5F5F5F5F5F5F5E2E2E2E2E2E2DCDCDCDCDCDCE2E2E2E2E2E2DCDCDCDCDCDCDC
310
DCDCDCDCDCDCDCDCDCDCDCDCDCDCDCDCDCDCDCDCDCDCDCDCDCDCDCDCDCDCDCDCDCE2E2E2E2E2E2E2E2E2E2E2E2E2F5F5F5F5F5F5DCF5F5F5E2F5EFEFE2F5E2F5F5F5DCF5F5F5F5F5F5F5F5E2F5F5F5F5F5F5F5F5F5F5F5F5F5F5F5F5E2DCDCDCDCDCDCDCDCDCDCDCDCDCDCDCDCDCDCDCDCDCDCDCDCDCDCDCDCDCDCDCF5F5F5
310
F5F5F5F5F5F5F5F5F5F5F5F5F5F5F5F5F5F5E2F5F5F5F5F5F5DCF5F5F5E2F5EFEFE2F5E2F5F5F5DCF5F5F5F5F5F5F5F5E2F5F5F5F5F5F5F5F5F5F5F5F5F5F5F5F5E2DCDCDCDCDCDCDCDCDCDCDCDCDCDCDCDCDCDCDCDCDCDCDCDCDCDCDCDCDCDCDCF5F5F5F5F5F5F5F5F5F5F5DCF5F5F5F5F5F5F5F5F5E2F5F5F5F5F5F5DCF5
310
F5F5E2F5E2F5E2F5E2F5F5F5DCF5F5F5F5F5F5F5F5E2F5F5F5F5F5DCDCDCDCDCDCF5F5F5F5F5E2DCDCDCDCDCDCDCDCDCDCDCDCDCDCDCDCDCDCDCDCDCDCDCDCDCDCDCDCDCDCDCDCDCDCDCDCDCDCDCDCDCDCDCDCDCDCDCDCDCF5F5F5E2F5F5F5F5F5F5DCF5F5F5E2F5EFEFE2F5E2F5F5F5DCF5F5F5F5F5F5F5F5E2E2E2E2E2E2
310
DCDCDCDCDCDCE2E2E2E2E2E2DCDCDCDCDCDCE2DCDCDCDCDCDCDCDCDCDCDCDCE2DCDCDCDCDCDCDCDCDCDCDCDCDCDCDCE2DCDCDCDCDCE2DCDCDCDCDCDCDCE2E2E2E2F5F5F5F5F5F5DCF5F5F5E2F5DCDCE2F5E2F5F5F5DCF5F5F5F5F5F5F5F5E2F5F5F5F5DCDCF5F5F5F5DCDCF5F5F5F5E2F5F5F5F5F5F5F5F5F5F5F5F5F5F5F5
310
F5F5F5F5F5DCDCF5F5F5F5F5DCDCF5F5F5F5F5F5F5F5F5F5F5F5F5F5F5F5F5F5F5F5F5F5F5E2F5F5F5F5F5F5DCF5F5F5E2F5EFEFE2F5E2F5F5F5DCF5F5F5F5F5F5F5F5E2E2E2E2E2DCDCE2E2E2E2DCDCE2E2E2E2E2E2E2E2E2E2E2E2E2E2E2E2E2E2E2E2E2E2E2E2E2DCE2E2E2E2E2E2DCDCE2E2E2E2E2E2E2E2E2E2E2E2E2
310
E2E2E2E2E2E2E2E2E2E2E2F5F5F5F5F5F5DCF5F5F5E2F5E2E2E2F5E2F5F5F5DCF5F5F5F5F5F5F5F5F5F5F5F5F5F5F5F5F5F5F5F5F5F5F5F5F5F5F5F5F5F5F5F5F5F5F5F5F5F5F5F5F5F5F5F5F5F5F5F5F5F5F5F5F5F5F5F5F5F5F5F5F5F5F5F5F5F5F5F5F5F5F5F5F5F5F5F5F5F5F5F5F5F5F5F5F5DCF5F5F5E2F5EFEFE2F5
310
E2F5F5F5DCF5F5F5F5F5F5F5F5F5F5F5F5F5F5F5F5F5F5F5F5F5F5F5F5F5F5F5F5F5F5F5F5F5F5F5F5F5F5F5F5F5F5F5F5F5F5F5F5F5F5F5F5F5F5F5F5F5F5F5F5F5F5F5F5F5F5F5F5F5F5F5F5F5F5F5F5F5F5F5F5F5F5F5F5F5DCF5F5F5E2F5EFEFE2F5E2F5F5F5DCF5F5F5F5F5F5F5F5F5F5F5F5F5F5F5F5F5F5F5F5F5F5
310
F5F5F5F5F5F5F5F5F5F5F5F5F5F5F5F5F5F5F5F5F5F5F5F5F5F5F5F5F5F5F5F5F5F5F5F5F5F5F5F5F5F5F5F5F5F5F5F5F5F5F5F5F5F5F5F5F5F5F5F5F5F5F5DCF5F5F5E2F5EFEFE2F5F5F5F5F5DCF5F5F5F5F5F5F5F5F5F5F5F5F5F5F5F5F5F5F5F5F5F5F5F5F5F5F5F5F5F5F5F5F5F5F5F5F5F5F5F5F5F5F5F5F5F5F5F5F5
310
F5F5F5F5F5F5F5F5F5F5F5F5F5F5F5F5F5F5F5F5F5F5F5F5F5F5F5F5F5F5F5F5F5F5F5F5DCF5F5F5F5F5EFEFE2F5F5F5F5F5DCF5F5F5F5F5F5F5F5F5F5F5F5F5F5F5F5F5F5F5F5F5F5F5F5F5F5F5F5F5F5F5F5F5F5F5F5F5F5F5F5F5F5F5F5F5F5F5F5F5F5F5F5F5F5F5F5F5F5F5F5F5F5F5F5F5F5F5F5F5F5F5F5F5F5F5F5
310
F5F5F5F5F5F5F5F5F5DCF5F5F5F5F5F5F5E2F5F5F5F5F5DCF5F5F5F5F5F5F5F5F5F5F5F5F5F5F5F5F5F5F5F5F5F5F5F5F5F5F5F5F5F5F5F5F5F5F5F5F5F5F5F5F5F5F5F5F5F5F5F5F5F5F5F5F5F5F5F5F5F5F5F5F5F5F5F5F5F5F5F5F5F5F5F5F5F5F5F5F5F5F5F5F5F5F5F5F5DCF5F5F5F5F5EFEFE2F5F5F5F5F5DCF5F5F5
310
F5F5F5F5F5F5F5F5F5F5F5F5F5F5F5F5F5F5F5F5F5F5F5F5F5F5F5F5F5F5F5F5F5F5F5F5F5F5F5F5F5F5F5F5F5F5F5F5F5F5F5F5F5F5F5F5F5F5F5F5F5F5F5F5F5F5F5F5F5F5F5F5F5F5F5F5F5F5F5F5F5F5DCF5F5F5F5F5F5F5E2F5F5F5F5F5DCF5F5F5F5F5F5F5F5F5F5F5F5F5F5F5F5F5F5F5F5F5F5F5F5F5F5F5F5F5F5
310
F5F5F5F5F5F5F5F5F5F5F5F5F5F5F5F5F5F5F5F5F5F5F5F5F5F5F5F5F5F5F5F5F5F5F5F5F5F5F5F5F5F5F5F5F5F5F5F5F5F5F5F5F5F5F5DCF5F5F5F5F5EFEFE2F5F5F5F5F5DCF5F5F5F5F5F5F5F5F5F5F5F5F5F5F5F5F5F5F5F5F5F5F5F5F5F5F5F5F5F5F5F5F5F5F5F5F5F5F5F5F5F5F5F5F5F5F5F5F5F5F5F5F5F5F5F5F5
310
F5F5F5F5F5F5F5F5F5F5F5F5F5F5F5F5F5F5F5F5F5F5F5F5F5F5F5F5DCF5F5F5F5F5F5F5E2F5F5F5F5F5DCF5F5F5F5F5F5F5F5F5F5F5F5F5F5F5F5F5F5F5F5F5F5F5F5F5F5F5F5F5F5F5F5F5F5F5F5F5F5F5F5F5F5F5F5F5F5F5F5F5F5F5F5F5F5F5F5F5F5F5F5F5F5F5F5F5F5F5F5F5F5F5F5F5F5F5F5F5F5F5F5F5F5F5F5
310
F5DCF5F5F5F5F5EFEFE2F5F5F5F5F5DCF5F5F5F5F5F5F5F5F5F5F5F5F5F5F5F5F5F5F5F5F5F5F5F5F5F5F5F5F5F5F5F5F5F5F5F5F5F5F5F5F5F5F5F5F5F5F5F5F5F5F5F5F5F5F5F5F5F5F5F5F5F5F5F5F5F5F5F5F5F5F5F5F5F5F5F5F5F5F5F5F5F5F5F5F5DCF5F5F5F5F5EFEFE2F5F5F5F5F5DCF5F5F5F5F5F5F5F5F5F5F5
310
F5F5F5F5F5F5F5F5F5F5F5F5F5F5F5F5F5F5F5F5F5F5F5F5F5F5F5F5F5F5F5F5F5F5F5F5F5F5F5F5F5F5F5F5F5F5F5F5F5F5F5F5F5F5F5F5F5F5F5F5F5F5F5F5F5F5F5F5F5F5F5F5F5F5DCF5F5F5F5F5EFEFE2F5F5F5F5F5DCF5F5F5F5F5F5F5F5F5F5F5F5F5F5F5F5F5F5F5F5F5F5F5F5F5F5F5F5F5F5F5F5F5F5F5F5F5F5
310
F5F5F5F5F5F5F5F5F5F5F5F5F5F5F5F5F5F5F5F5F5F5F5F5F5F5F5F5F5F5F5F5F5F5F5F5F5F5F5F5F5F5F5F5F5F5F5DCF5F5F5F5F5EFEFE2F5E2F5F5F5DCF5F5F5F5F5F5F5F5F5F5F5F5F5F5F5F5F5F5F5F5F5F5F5F5F5F5F5F5F5F5F5F5F5F5E2E2E2E2E2E2E2E2E2E2E2E2E2E2E2E2F5F5F5F5F5F5F5F5F5F5F5F5F5F5F5
310
F5F5F5F5F5F5F5F5F5F5F5F5F5F5F5F5F5F5F5F5DCF5F5F5E2F5F5F5E2F5E2F5F5F5DCF5F5F5F5F5F5F5F5F5F5F5F5F5F5F5F5F5F5F5F5F5F5F5F5F5F5F5F5F5F5F5F5F5F5F5DCDCDCDCF5DCDCDCDCDCDCDCDCDCDCF5F5F5F5F5F5F5F5F5F5F5F5F5F5F5F5F5F5F5F5F5F5F5F5F5F5F5F5F5F5F5F5F5F5F5DCF5F5F5E2F5EF
310
EFE2F5E2F5F5F5DCF5F5F5F5F5F5F5F5F5F5F5F5F5F5F5F5F5F5F5F5F5F5F5F5F5F5F5F5F5F5F5F5F5F5F5F5F5F5F5F5F5F5F5F5F5F5F5F5F5F5F5F5F5F5F5F5F5F5F5F5F5F5F5F5F5F5F5F5F5F5F5F5F5F5F5F5F5F5F5F5F5F5F5F5F5DCF5F5F5E2F5F5DCE2F5E2F5F5F5DCF5F5F5F5F5F5F5F5F5F5F5F5F5F5F5F5F5F5F5
310
F5F5F5F5F5F5F5F5F5F5F5F5F5F5F5F5F5F5F5F5F5F5F5F5F5F5F5F5F5F5F5F5F5F5F5F5F5F5F5F5F5F5F5F5F5F5F5F5F5F5F5F5F5F5F5F5F5F5F5F5F5F5F5F5F5F5DCF5F5F5E2F5EFEFE2F5E2F5F5F5DCF5F5F5F5F5F5F5F5F5F5F5F5F5F5F5F5F5F5F5F5F5F5F5F5F5F5F5F5F5F5F5F5F5F5F5F5F5F5F5F5F5F5F5F5F5F5
310
F5F5F5F5F5F5F5F5F5F5F5F5F5F5F5F5F5F5F5F5F5F5F5F5F5F5F5F5F5F5F5F5F5F5F5F5F5F5F5DCF5F5F5E2F5F5F5E2F5E2F5F5F5DCF5F5F5F5F5F5F5F5F5F5F5F5F5F5F5F5F5F5F5F5F5F5F5F5F5F5F5F5F5F5F5F5F5F5F5F5F5F5F5F5F5F5F5F5F5F5F5F5F5F5F5F5F5F5F5F5F5F5F5F5F5F5F5F5F5F5F5F5F5F5F5F5F5
310
F5F5F5F5F5F5F5F5F5F5F5F5DCF5F5F5E2F5EFEFE2F5E2F5F5F5DCF5F5F5F5F5F5F5F5F5F5F5F5F5F5F5F5F5F5F5F5F5F5F5F5F5F5F5F5F5F5F5F5F5F52DF5F5F5F5F5F5F5F5F5F5F5F5F5F5F52DF5F5F5F5F5F5F5F5F5F5F5F5F5F5F5F5F5F5F5F5F5F5F5F5F5F5F5F5F5F5F5F5F5F5DCF5F5F5E2F5EFEFE2F5E2F5F5F5DC
310
F5F5F5F5F5F5F5F5F5F5F5F5F5F5F5F5F5F5F5F5F5F5F5F5F5F5F5F5F5F5F5F5F5F52D2D2D2D2D2D2D2D2D2D2D2D2D2D2D2D2DF5F5F5F5F5F5F5F5F5F5F5F5F5F5F5F5F5F5F5F5F5F5F5F5F5F5F5F5F5F5F5F5F5F5DCF5F5F5E2F5EFEFE2F5E2F5F5F5DCF5F5F5F5F5F5F5F5F5F5F5F5F5F5F5F5F5F5F5F5F5F5F5F5F5F5F5
310
F5F5F5F5F5F5F52D2DF52D2D2D2D2D2D2D2D2D2D2DF52D2DF5F5F5F5F5F5F5F5F5F5F5F5F5F5F5F5F5F5F5F5F5F5F5F5F5F5F5F5F5F5F5F5F5F5DCF5F5F5E2F5EFEFE2F5E2F5F5F5DCF5F5F5F5F5F5F5F5F5F5F5F5F5F5F5F5F5F5F5F5F5F5F5F5F5F5F5F5F5F5F5F5F5F52DF5F52D2D2D2D2D2D2DF5F5F5F5F5F52DF5F5F5
310
F5F5F5F5F5F5F5F5F5F5F5F5F5F5F5F5F5F5F5F5F5F5F5F5F5F5F5F5F5F5F5DCF5F5F5E2F5E2F5E2F5E2F5F5F5DCF5F5F5F5F5F5F5F5F5F5F5F5F5F5F5F5F5F5F5F5F5F5F5F5F5F5F5F5F5F5F5F5F5F52DF5F5F5F5F5F5F5F5F5F5F5F5F5F5F52DF5F5F5F5F5F5F5F5F5F5F5F5F5F5F5F5F5F5F5F5F5F5F5F5F5F5F5F5F5F5
310
F5F5F5F5DCF5F5F5E2F5EFEFE2F5E2F5F5F5DCF5F5F5F5F5F5F5F5F5F5F5F5F5F5F5F5F5F5F5F5F5F5F5F5F5F5F5F5F5F5F5F5F5F52DF5F5F5F5F5F5F5F5F5F5F5F5F5F5F52DF5F5F5F5F5F5F5F5F5F5F5F5F5F5F5F5F5F5F5F5F5F5F5F5F5F5F5F5F5F5F5F5F5F5DCF5F5F5E2F52DF5E2F5E2F5F5F5DCF5F5F5F5F5F5F5F5
310
F5F5F5F5F5F5F5F5F5F5F5F5F5F5F5F5F5F5F5F5F5F5F5F5F5F52DF5F5F5F5F5F5E2E2E2F5F5F5F5F5F52DF5F5F5F5F5F5F5F5F5F5F5F5F5F5F5F5F5F5F5F5F5F5F5F5F5F5F5F5F5F5F5F5F5F5DCF5F5F5E2F5EFEFE2F5E2F5F5F5DCF5F5F5F5F5F5F5F5F5F5F5F5F5F5F5F5F5F5F5F5F5F5F5F5F5F5F5F5F5F5F5F5F5F52D
310
F5F5F5E2E2E2E2E2E2E2E2E2F5F5F52DF5F5F5F5F5F5F5F5F5F5F5F5F5F5F5F5F5F5F5F5F5F5F5F5F5F5F5F5F5F5F5F5F5F5DCF5F5F5E2F5F5F5E2F5E2F5F5F5DCF5F5F5F5F5F5F5F5F5F5F5F5F5F5F5F5F5F5F5F5F5F5F5F5F5F5F5F5F5F5F5F5F5F52DF5E2E2E2E2F5F5F5F5F5E2E2E2E2F52DF5F5F5F5F5F5F5F5F5F5F5
310
F5F5F5F5F5F5F5F5F5F5F5F5F5F5F5F5F5F5F5F5F5F5F5DCF5F5F5E2F5EFEFE2F5E2F5F5F5DCF5F5F5F5F5F5F5F5F5F5F5F5F5F5F5F5F5F5F5F5F5F5F5F5F5F5F5F5F5F5F5F5F5F52DE2E2E2E2E2E2F5F5E2E2E2E2E2E2E22DF5F5F5F5F5F5F5F5F5F5F5F5F5F5F5F5F5F5F5F5F5F5F5F5F5F5F5F5F5F5F5F5F5F5DCF5F5F5
310
E2F5EFEFE2F5E2F5F5F5DCF5F5F5F5F5F5F5F5F5F5F5F5F5F5F5F5F5F5F5F5F5F5F5F5F5F5F5F5F5F5F5F5F5F52DE2E2C3C3C3E2E2F5E2C3C3C3C3E2E22DF5F5F5F5F5F5F5F5F5F5F5F5F5F5F5F5F5F5F5F5F5F5F5F5F5F5F5F5F5F5F5F5F5F5DCF5F5F5E2F5EFEFE2F5F5F5F5F5DCF5F5F5F5F5F5F5F5F5F5F5F5F5F5F5F5
310
F5F5F5F5F5F5F5F5F5F5F5F5F5F5F5F5F5F52DE2C3C3C3C3C3E2E2C3C3C3C3C3E2E22DF5F5F5F5F5F5F5F5F5F5F5F5F5F5F5F5F5F5F5F5F5F5F5F5F5F5F5F5F5F5F5F5F5F5DCF5F5F5F5F5EFEFE2F5F5F5F5F5DCF5F5F5F5F5F5F5F5F5F5F5F5F5F5F5F5F5F5F5F5F5F5F5F5F5F5F5F5F5F5F5F5F5F52DE2C3C3C3C3C3C3E2
310
C3C3C32D2D2D2D2D2D2D2D2D2DF5F5F5F5F5F5F5F5F5F5F5F5F5F5F5F5F5F5F5F5F5F5F5F5F5F5F5F5F5DCF5F5F5F5F5E2F5E2F5F5F5F5F5DCF5F5F5F5F5F5F5F5F5F5F5F5F5F5F5F5F5F5F5F5F5F5F5F5F5F5F5F5F5F5F5F5F5F5E2E2C3C3C3C3C3C3E2C3C3C3C3C32DE2E2F5F52D2D2DF5F5F5F5F5F5F5F5F5F5F5F5F5F5
310
F5F5F5F5F5F5F5F5F5F5F5F5F5F5F5DCF5F5F5F5F5EFEFE2F5F5F5F5F5DCF5F5F5F5F5F5F5F5F5F5F5F5F5F5F5F5F5F5F5F5F5F5F5F5F5F5F5F5F5F5F5F5F5F5E2E2F5C3C3C3C3E2E2E2C3C3C3C3E22DF5F5F5F5F5F5F5F5F5F5F5F5F5F5F5F5F5F5F5F5F5F5F5F5F5F5F5F5F5F5F5F5F5F5F5DCF5F5F5F5F5E2E2E2F5F5F5
310
F5F5DCF5F5F5F5F5F5F5F5F5F5F5F5F5F5F5F5F5F5F5F5F5F5F5F5F5F5F5F5F5F5F5F5F5F5F5E2E2E2C3C3E2E2F5E2E2C3F5E2E22DF5F5F5F5F5F5F5F5F5F5F5F5F5F5F5F5F5F5F5F5F5F5F5F5F5F5F5F5F5F5F5F5F5F5F5DCF5F5F5F5F5EFEFE2F5F5F5F5F5DCF5F5F5F5F5F5F5F5F5F5F5F5F5F5F5F5F5F5F5F5F5F5F5F5
310
F5F5F5F5F5F5F5F5F5F5F5F5E2E2E2E2F5F5F5F5E2E2E2E2E2F52DF5F5F5F5F5F5F5F5F5F5F5F5F5F5F5F5F5F5F5F5F5F5F5F5F5F5F5F5F5F5F5F5F5F5DCF5F5F5F5F5F5F5E2F5F5F5F5F5DCF5F5F5F5F5F5F5F5F5F5F5F5F5F5F5F5F5F5F5F5F5F5F5F5F5F5F5F5F5F5F5F5F5F5F5F5F5E2E2E2E2E2E2E2E2E2E2E2F5F52D
310
2D2D2D2D2D2D2D2D2D2D2D2DF5F5F5F5F5F5F5F5F5F5F5F5F5F5F5F5F5F5F5F5F5F5DCF5F5F5F5F5EFEFE2F5F5F5F5F5DCF5F5F5F5F5F5F5F5F5F5F5F5F5F5F5F5F5F5F5F5F5F5F5F5F5F5F5F5F5F5F5F5F5F5F5F5F5F5E2E2E2E2E2E2E2E22DF5F5F5F5F52D2D2D2D2D2D2D2D2D2D2DF5F5F5F5F5F5F5F5F5F5F5F5F5F5F5
310
F5F5F5F5F5F5F5DCF5F5F5F5F5EFEFE2F5F5F5F5F5DCF5F5F5F5F5F5F5F5F5F5F5F5F5F5F5F5F5F5F5F5F5F5F5F5F5F5F5F5F5F5F5F5F5F5F5F5F5F5F5F5F5F5F5F5F5F5F52DF5F5F5F5F5F5F5F5F5F5F5F5F5F5F5F5F5F5F5F5F5F5F5F5F5F5F5F5F5F5F5F5F5F5F5F5F5DCF5F5F5F5F5EFEFE2F5E2F5F5F5DCF5F5F5F5F5
310
F5F5F5F5F5F5F5F5F5F5F5F5F5F5F5F5F5F5F5F5F5F5F5F5F5F5F5F5F5F5F5F5F5F5F5F5F5F5F5F5F5F52D2D2D2D2D2D2D2D2D2D2D2DF5F5F5F5F5F5F5F5F5F5F5F5F5F5F5F5F5F5F5F5F5F5F5F5F5F5DCF5F5F5E2F5EFEFE2F5E2F5F5F5DCF5F5F5F5F5F5F5F5F5F5F5F5F5F5F5F5F5F5F5F5F5F5F5F5F5F5F5F5F5F5F5F5
310
F5F5F5F5F5F5F5F5F5F5F5F5F5F5F5F52D2D2D2D2D2DF52D2D2D2DF5F5F5F5F5F5F5F5F5F5F5F5F5F5F5F5F5F5F5F5F5F5F5F5F5F5DCF5F5F5E2F5E2F5E2F5E2F5F5F5DCF5F5F5F5F5F5F5F5F5F5F5F5F5F5F5F5F5F5F5F5F5F5F5F5F5F5F5F5F5F5F5F5F5F5F5F5F5F5F5F5F5F5F5F5F5F5F5F5F5F5F5F5F5F5F5F5F5F5F5
310
F5F5F5F5F5F5F5F5F5F5F5F5F5F5F5F5F5F5F5F5F5F5F5F5F5F5DCF5F5F5E2F5EFEFE2F5E2F5F5F5DCF5F5F5F5F5F5F5F5F5F5F5F5F5F5F5F5F5F5F5F5F5F5F5F5F5F5F5F5F5F5F5F5F5F5F5F5F5F5F5F5F5F5F5F5F5F5F5F5F5F5F5F5F5F5F5F5F5F5F5F5F5F5F5F5F5F5F5F5F5F5F5F5F5F5F5F5F5F5F5F5F5F5F5F5F5DC
310
F5F5F5E2F5F5E2E2F5E2F5F5F5DCF5F5F5F5F5F5F5F5F5F5F5F5F5F5F5F5F5F5F5F5F5F5F5F5F5F5F5F5F5F5F5F5F5F5F5F5E2E2E2E2E2E2E2E2E2E2E2E2E2E2E2F5F5F5F5F5F5F5F5F5F5F5F5F5F5F5F5F5F5F5F5F5F5F5F5F5F5F5F5F5F5F5F5F5F5DCF5F5F5E2F5EFEFE2F5E2F5F5F5DCF5F5F5F5F5F5F5F5F5F5F5F5F5
310
F5F5F5F5F5F5F5F5F5F5F5F5F5F5F5F5F5F5F5F5F5F5F5DCDCDCDCDCDCDCDCDCDCDCDCDCDCF5F5F5F5F5F5F5F5F5F5F5F5F5F5F5F5F5F5F5F5F5F5F5F5F5F5F5F5F5F5F5F5F5F5F5DCF5F5F5E2F5F5F5E2F5E2F5F5F5DCF5F5F5F5F5F5F5F5F5F5F5F5F5F5F5F5F5F5F5F5F5F5F5F5F5F5F5F5F5F5F5F5F5F5F5F5F5DCDCF5
310
DCF5DCDCDCDCDCDCDCDCF5F5F5F5F5F5F5F5F5F5F5F5F5F5F5F5F5F5F5F5F5F5F5F5F5F5F5F5F5F5F5F5F5F5F5DCF5F5F5E2F5EFEFE2F5E2F5F5F5DCF5F5F5F5F5F5F5F5F5F5F5F5F5F5F5F5F5F5F5F5F5F5F5F5F5F5F5F5F5F5F5F5F5F5F5F5F5F5F5F5F5F5F5F5F5F5F5F5F5F5F5F5F5F5F5F5F5F5F5F5F5F5F5F5F5F5F5
310
F5F5F5F5F5F5F5F5F5F5F5F5F5F5F5F5F5F5DCF5F5F5E2F5EFEFE2F5E2F5F5F5DCF5F5F5F5F5F5F5F5F5F5F5F5F5F5F5F5F5F5F5F5F5F5F5F5F5F5F5F5F5F5F5F5F5F5F5F5F5F5F5F5F5F5F5F5F5F5F5F5F5F5F5F5F5F5F5F5F5F5F5F5F5F5F5F5F5F5F5F5F5F5F5F5F5F5F5F5F5F5F5F5F5F5F5F5F5DCF5F5F5E2F5EFEFE2
310
F5E2F5F5F5DCF5F5F5F5F5F5F5F5F5F5F5F5F5F5F5F5F5F5F5F5F5F5F5F5F5F5F5F5F5F5F5F5F5F5F5F5F5F5F5F5F5F5F5F5F5F5F5F5F5F5F5F5F5F5F5F5F5F5F5F5F5F5F5F5F5F5F5F5F5F5F5F5F5F5F5F5F5F5F5F5F5F5F5F5F5DCF5F5F5E2F5EFEFE2F5E2F5F5F5DCF5F5F5F5F5F5F5F5F5F5F5F5F5F5F5F5F5F5F5F5F5
310
F5F5F5F5F5F5F5F5F5F5F5F5F5F5F5F5F5F5F5F5F5F5F5F5F5F5F5F5F5F5F5F5F5F5F5F5F5F5F5F5F5F5F5F5F5F5F5F5F5F5F5F5F5F5F5F5F5F5F5F5F5F5F5F5DCF5F5F5E2F5F5F5E2F5E2F5F5F5DCF5F5F5F5F5F5F5F5F5F5F5F5F5F5F5F5F5F5F5F5F5F5F5F5F5F5F5F5F5F5F5F5F5F5F5F5F5F5F5F5F5F5F5F5F5F5F5F5
310
F5F5F5F5F5F5F5F5F5F5F5F5F5F5F5F5F5F5F5F5F5F5F5F5F5F5F5F5F5F5F5F5F5F5F5F5F5DCF5F5F5E2F5EFEFE2F5E2F5F5F5DCF5F5F5F5F5F5F5F5F5F5F5F5F5F5F5F5F5F5F5F5F5F5F5F5F5F5F5F5F5F5F5F5F5F5F5F5F5F5F5F5F5F5F5F5F5F5F5F5F5F5F5F5F5F5F5F5F5F5F5F5F5F5F5F5F5F5F5F5F5F5F5F5F5F5F5
310
F5F5F5F5F5F5F5F5F5F5DCF5F5F5E2F5E2E2E2F5E2F5F5F5DCF5F5F5F5F5F5F5F5F5F5F5F5F5F5F5F5F5F5F5F5F5F5F5F5F5F5F5F5F5F5F5F5F5F5F5F5F5F5F5F5F5F5F5F5F5F5F5F5F5F5F5F5F5F5F5F5F5F5F5F5F5F5F5F5F5F5F5F5F5F5F5F5F5F5F5F5F5F5F5F5F5F5F5F5F5DCF5F5F5E2F5EFEFE2F5E2F5F5F5DCF5F5
310
F5F5F5F5F5F5F5F5F5F5F5F5F5F5F5F5F5F5F5F5F5F5E2E2E2E2E2E2E2E2E2E2E2E2E2E2E2E2E2E2E2E2E2E2E2E2E2E2E2E2E2E2E2E2E2E2E2E2E2E2E2E2E2F5F5F5F5F5F5F5F5F5F5F5F5F5F5F5F5F5F5F5F5DCF5F5F5E2F5F5F5E2F5E2F5F5F5DCF5F5F5F5F5F5F5F5F5F5F5F5F5F5F5F5F5F5F5C3C3E2E2E2E2F5F5F5F5
310
F5F5F5F5F5E2E2E2E2E2E2E2E2E2E2E2E2E2E2E2E2E2E2E2E2E2E2E2F5F5F5F5F5F5F5E2F5F5F5F5F5F5F5F5F5F5F5F5F5F5F5F5F5F5F5F5DCF5F5F5E2F5EFEFE2F5E2F5F5F5DCF5F5F5F5F5F5F5F5F5F5F5F5F5F5F5F5F5F5F5C3C3E2E2E2E2F5F5F5F5F5F5F5F5F5E2E2E2F5F5E2E2E2E2F5F5E2E2E2E2F5E2E2E2E2F5E2
310
E2F5F5F52DF5F5F5E2F5F5F5F5F5F5F5F5F5F5F5F5F5F5F5F5F5F5F5F5DCF5F5F5E2F5EFEFE2F5F5F5F5F5DCF5F5F5F5F5F5F5F5F5F5F5F5F5F5F5F5F5F5F5C3C3E2E2E2E2E2E2E2E2E2E2E2E2E2E2E2E2E2E2E2E22D2DE2E2E2E2E2E2E2E2E2E2E2E2E2E2E2E2E22DE2E2E2E2F5F5F5F5F5F5F5F5F5F5F5F5F5F5F5F5F5F5
310
F5F5DCF5F5F5F5F5EFEFE2F5F5F5F5F5DCF5F5F5F5F5F5F5F5F5F5F5F5F5F5F5F5F5F5F5F5F5F5F52DF5F5F5F5F5F5F5F5F5F5F5F5F5F5F5F5F52D2DF5F5F5F5F5F5F5F5F5F5F5F5F5F5F5F5F5F52DF5F5F5F5F5F5F5F5F5F5F5F5F5F5F5F5F5F5F5F5F5F5F5DCF5F5F5F5F5EFEFE2F5F5F5F5F5DCF5F5F5F5F5F5F5F5F5F5
310
F5F5F5F5F5F5F5F5F5F5F5F5F5F52DF5F5F5F5F5F5F5F5F5F5F5F5F5F5F5F5F52DF5F5F5F5F5F5F5F5F5F5F5F5F5F5F5F5F5F52DF5F5F5F5F5F5F5F5F5F5F5F5F5F5F5F5F5F5F5F5F5F5F5DCF5F5F5F5F5E2F5E2F5F5F5F5F5DCF5F5F5F5F5F5F5F5F5F5F5F5F5F5F5F5F5F5F5F5F5F5F5F52DF5F5F5F5F5F5F5F5F5F5F5F5
310
F5F5F5F5F5F52DF52D2D2D2D2D2DF5F5F5F5F5F5F5F5F5F5F52D2D2D2D2D2D2D2DF5F5F5F5F5F5F5F5F5F5F5F5F5F5F5DCF5F5F5F5F5EFEFE2F5F5F5F5F5DCF5F5F5F5F5F5F5F5F5F5F5F5F5F5F5F5F5F5F5F5F5F5F5F5F52D2D2D2D2DF5F5F5F5F5F5F5F5F5F5F5F5F52D2D2D2D2D2D2D2DF5F5F5F5F5F5F5F5F5F5F5F52D
310
2D2D2D2D2DF5F5F5F5F5F5F5F5F5F5F5F5F5F5F5F5DCF5F5F5F5F5F5F5E2F5F5F5F5F5DCF5F5F5F5F5F5F5F5F5F5F5F5F5F5F5F5F5F5F5F5F5F5F5F5F52D2D2D2D2DF5F5F5F5F5F5F5F5F5F5F5F5F5F5F5F5F5F5F5F5F5F5F5F5F5F5F5F5F5F5F5F5F5F5F5F5F5F5F5F5F5F5F5F5F5F5F5F5F5F5F5F5F5F5F5DCF5F5F5F5F5
310
EFEFE2F5F5F5F5F5DCF5F5F5F5F5F5F5F5F5F5F5F5F5F5F5F5F5F5F5F5F5F5F5F5F5F5F5F5F5F5F5F5F5F5F5F5F5F5F5F5F5F5F5F5F5F5F5F5F5F5F5F5F5F5F5F5F5F5F5F5F5F5F5F5F5F5F5F5F5F5F5F5F5F5F5F5F5F5F5F5F5F5F5F5F5DCF5F5F5F5F5F5F5E2F5F5F5F5F5DCF5F5F5F5F5F5F5F5F5F5F5F5F5F5F5F5F5F5
310
F5F5F5F5F5F5F5F5F5F5F5F5F5F5F5F5F5F5F5F5F5F5F5F5F5F5F5F5F5F5F5F5F5F5F5F5F5F5F5F5F5F5F5F5F5F5F5F5F5F5F5F5F5F5F5F5F5F5F5F5F5F5F5F5F5F5F5DCF5F5F5F5F5EFEFE2F5F5F5F5F5DCF5F5F5F5F5F5F5F5F5F5F5F5F5F5F5F5F5F5F5F5F5F5F5F5F5F5F5F5F5F5F5F5F5F5F5F5F5F5F5F5F5F5F5F5F5
310
F5F5F5F5F5F5F5F5F5F5F5F5F5F5F5F5F5F5F5F5F5F5F5F5F5F5F5F5F5F5F5F5F5F5F5F5F5F5F5F5DCF5F5F5F5F5EFEFE2F5F5F5F5F5DCF5F5F5F5F5F5F5F5F5F5F5F5F5F5F5F5F5F5F5F5F5F5F5F5F5F5F5F5F5F5F5F5F5F5F5F5F5F5F5F5F5F5F5F5F5F5F5F5F5F5F5F5F5F5F5F5F5F5F5F5F5F5F5F5F5F5F5F5F5F5F5F5
310
F5F5F5F5F5F5F5F5F5F5F5F5F5DCF5F5F5F5F5EFEFE2F5E2F5F5F5DCF5F5F5F5F5F5F5F5F5F5F5F5F5F5F5F5F5F5F5F5F5F5F5F5F5F5F5F5F5F5F5F5F5F5F5F5F5F5F5F5F5F5F5F5F5F5F5F5F5F5F5F5F5F5F5F5F5F5F5F5F5F5F5F5F5F5F5F5F5F5F5F5F5F5F5F5F5F5F5F5F5F5F5F5F5DCF5F5F5E2F5EFEFE2F5E2F5F5F5
310
DCF5F5F5F5F5F5F5F5F5F5F5F5F5F5F5F5F5F5F5F5F5F5F5F5F5F5F5F5F5F5F5F5F5F5F5F5F5F5F5F5F5F5F5F5F5F5F5F5F5F5F5F5F5F5F5F5F5F5F5F5F5F5F5F5F5F5F5F5F5F5F5F5F5F5F5F5F5F5F5F5F5F5F5F5F5DCF5F5F5E2F5E2F5E2F5E2F5F5F5DCF5F5F5F5F5F5F5F5F5F5F5F5F5F5F5F5F5F5F5F5F5F5F5F5F5F5
310
F5F5F5F5F5F5F5F5F5F5F5F5F5F5F5F5F5F5F5F5F5F5F5F5F5F5F5F5F5F5F5F5F5F5F5F5F5F5F5F5F5F5F5F5F5F5F5F5F5F5F5F5F5F5F5F5F5F5F5DCF5F5F5E2F5EFEFE2F5E2F5F5F5DCF5F5F5F5F5F5F5F5F5F5F5F5F5F5F5F5F5F5F5F5F5F5F5F5F5F5F5F5F5F5F5F5F5F5F5F5F5F5F5F5F5F5F5F5F5F5F5F5F5F5F5F5F5
310
F5F5F5F5F5F5F5F5F5F5F5F5F5F5F5F5F5F5F5F5F5F5F5F5F5F5F5F5F5F5F5F5DCF5F5F5E2F5F5F5E2F5E2F5F5F5DCF5F5F5F5F5F5F5F5F5F5F5F5F5F5F5F5F5F5F5F5F5F5F5F5F5F5F5F5F5F5F5F5F5F5F5F5F5F5F5F5F5F5F5F5F5F5F5F5F5F5F5F5F5F5F5F5F5F5F5F5F5F5F5F5F5F5F5F5F5F5F5F5F5F5F5F5F5F5F5F5
310
F5F5F5F5F5DCF5F5F5E2F5EFEFE2F5E2F5F5F5DCDCDCDCDCDCDCDCDCDCDCDCDCDCDCDCDCDCDCDCDCDCDCDCDCDCDCDCDCDCDCDCDCDCDCDCDCDCDCDCDCDCDCDCDCDCDCDCDCDCDCDCDCDCDCDCDCDCDCDCDCDCDCDCDCDCDCDCDCDCDCDCDCDCDCDCDCDCDCDCDCDCDCDCDCDCDCF5F5F5E2F5F5F5E2F5E2F5F5F5F5F5F5F5F5F5F5F5
310
F5F5F5F5F5F5F5F5F5F5F5F5F5F5F5F5F5F5F5F5F5F5F5F5F5F5F5F5F5F5F5F5F5F5F5F5F5F5F5F5F5F5F5F5F5F5F5F5F5F5F5F5F5F5F5F5F5F5F5F5F5F5F5F5F5F5F5F5F5F5F5F5F5F5F5F5F5F5F5F5F5F5E2F5EFEFE2F5E2F5F5F5F5F5F5F5F5F5F5F5F5F5F5F5F5F5F5F5F5F5F5F5F5F5F5F5F5F5F5F5F5F5F5F5F5F5F5
310
F5F5F5F5F5F5F5F5F5F5F5F5F5F5F5F5F5F5F5F5F5F5F5F5F5F5F5F5F5F5F5F5F5F5F5F5F5F5F5F5F5F5F5F5F5F5F5F5F5F5F5F5F5F5F5E2F5EFEFE2F5E2E2E2E2E2E2E2E2F5F5F5F5F5F5F5F5E2E2E2E2E2E2E2E2E2E2E2E2E2E2E2E2F5F5F5F5F5F5F5F5E2E2E2E2E2E2E2E2E2E2E2E2E2E2E2F5F5F5F5F5F5F5F5E2E2E2
310
E2E2E2E2E2E2E2E2E2E2E2E2E2F5F5F5F5F5F5F5F5E2E2E2E2E2E2E2E2F5EFEFE2F5F5F5F5F5F5F5F5F5F5F5F5F5F5F5F5F5F5F5F5F5F5F5F5F5F5F5F5F5F5F5F5F5F5F5F5F5F5F5F5F5F5F5F5F5F5F5F5F5F5F5F5F5F5F5F5F5F5F5F5F5F5F5F5F5F5F5F5F5F5F5F5F5F5F5F5F5F5F5F5F5F5F5F5F5F5F5F5F5F5F5F5F5F5
310
F5F5F5EFEFE2E2E2E2E2E2E2E2E2E2E2E2E2E2E2E2E2E2E2E2E2E2E2E2E2E2E2E2E2E2E2E2E2E2E2E2E2E2E2E2E2E2E2E2E2E2E2E2E2E2E2E2E2E2E2E2E2E2E2E2E2E2E2E2E2E2E2E2E2E2E2E2E2E2E2E2E2E2E2E2E2E2E2E2E2E2E2E2E2E2E2E2E2E2E2E2E2E2EFEFEFEFEFEFEFEFEFEFEFEFEFEFEFEFEFEFEFEFEFEFEFEF
310
EFEFEFEFEFEFEFEFEFEFEFEFEFEFEFEFEFEFEFEFEFEFEFEFEFEFEFEFEFEFEFEFEFEFEFEFEFEFEFEFEFEFEFEFEFEFEFEFEFEFEFEFEFEFEFEFEFEFEFEFEFEFEFEFEFEFEFEFEFEFEFEFEFEFEFEFEFEF
  0
XRECORD
  5
1E01
102
{ACAD_REACTORS
330
1AF0
102
}
330
1AF0
100
AcDbXrecord
280
     1
102
MATERIAL
148
0.0
149
0.0
149
0.0
 93
        0
 94
      127
282
     0
 72
     0
 77
     0
171
     0
175
     0
179
     0
273
     0
  0
XRECORD
  5
1AF2
102
{ACAD_REACTORS
330
1AF0
102
}
330
1AF0
100
AcDbXrecord
280
     1
270
     1
271
     1
  0
XRECORD
  5
1AF1
102
{ACAD_REACTORS
330
1AF0
102
}
330
1AF0
100
AcDbXrecord
280
     1
270
     1
271
     1
  0
XRECORD
  5
1AF5
102
{ACAD_REACTORS
330
1AF0
102
}
330
1AF0
100
AcDbXrecord
280
     1
270
     1
271
     1
  0
XRECORD
  5
1AF4
102
{ACAD_REACTORS
330
1AF0
102
}
330
1AF0
100
AcDbXrecord
280
     1
270
     1
271
     1
  0
XRECORD
  5
1AF6
102
{ACAD_REACTORS
330
1AF0
102
}
330
1AF0
100
AcDbXrecord
280
     1
270
     1
271
     1
  0
XRECORD
  5
1AF3
102
{ACAD_REACTORS
330
1AF0
102
}
330
1AF0
100
AcDbXrecord
280
     1
270
     1
271
     1
  0
XRECORD
  5
1E00
102
{ACAD_REACTORS
330
1AE8
102
}
330
1AE8
100
AcDbXrecord
280
     1
102
MATERIAL
148
0.0
149
0.0
149
0.0
 93
        0
 94
      127
282
     0
 72
     0
 77
     0
171
     0
175
     0
179
     0
273
     0
  0
XRECORD
  5
1AEA
102
{ACAD_REACTORS
330
1AE8
102
}
330
1AE8
100
AcDbXrecord
280
     1
270
     1
271
     1
  0
XRECORD
  5
1AE9
102
{ACAD_REACTORS
330
1AE8
102
}
330
1AE8
100
AcDbXrecord
280
     1
270
     1
271
     1
  0
XRECORD
  5
1AED
102
{ACAD_REACTORS
330
1AE8
102
}
330
1AE8
100
AcDbXrecord
280
     1
270
     1
271
     1
  0
XRECORD
  5
1AEC
102
{ACAD_REACTORS
330
1AE8
102
}
330
1AE8
100
AcDbXrecord
280
     1
270
     1
271
     1
  0
XRECORD
  5
1AEE
102
{ACAD_REACTORS
330
1AE8
102
}
330
1AE8
100
AcDbXrecord
280
     1
270
     1
271
     1
  0
XRECORD
  5
1AEB
102
{ACAD_REACTORS
330
1AE8
102
}
330
1AE8
100
AcDbXrecord
280
     1
270
     1
271
     1
  0
XRECORD
  5
1DFF
102
{ACAD_REACTORS
330
56
102
}
330
56
100
AcDbXrecord
280
     1
102
MATERIAL
148
0.0
149
0.0
149
0.0
 93
        0
 94
       63
282
     0
 72
     1
 77
     1
171
     1
175
     1
179
     1
273
     0
  0
XRECORD
  5
58
102
{ACAD_REACTORS
330
56
102
}
330
56
100
AcDbXrecord
280
     1
270
     1
271
     1
  0
XRECORD
  5
59
102
{ACAD_REACTORS
330
56
102
}
330
56
100
AcDbXrecord
280
     1
270
     1
271
     1
  0
XRECORD
  5
5A
102
{ACAD_REACTORS
330
56
102
}
330
56
100
AcDbXrecord
280
     1
270
     1
271
     1
  0
XRECORD
  5
5B
102
{ACAD_REACTORS
330
56
102
}
330
56
100
AcDbXrecord
280
     1
270
     1
271
     1
  0
CELLSTYLEMAP
  5
1DFE
102
{ACAD_REACTORS
330
1BB9
102
}
330
1BB9
100
AcDbCellStyleMap
 90
        3
300
CELLSTYLE
  1
TABLEFORMAT_BEGIN
 90
        5
170
     1
 91
        0
 92
    32768
 62
   257
 93
        1
300
CONTENTFORMAT
  1
CONTENTFORMAT_BEGIN
 90
        0
 91
        0
 92
      512
 93
        0
300

 40
0.0
140
1.0
 94
        5
 62
     0
340
11
144
6.0
309
CONTENTFORMAT_END
171
     1
301
MARGIN
  1
CELLMARGIN_BEGIN
 40
1.5
 40
1.5
 40
1.5
 40
1.5
 40
0.18
 40
0.18
309
CELLMARGIN_END
 94
        6
 95
        1
302
GRIDFORMAT
  1
GRIDFORMAT_BEGIN
 90
        0
 91
        1
 62
     0
 92
       -2
340
0
 93
        0
 40
1.125
309
GRIDFORMAT_END
 95
        2
302
GRIDFORMAT
  1
GRIDFORMAT_BEGIN
 90
        0
 91
        1
 62
     0
 92
       -2
340
0
 93
        0
 40
1.125
309
GRIDFORMAT_END
 95
        4
302
GRIDFORMAT
  1
GRIDFORMAT_BEGIN
 90
        0
 91
        1
 62
     0
 92
       -2
340
0
 93
        0
 40
1.125
309
GRIDFORMAT_END
 95
        8
302
GRIDFORMAT
  1
GRIDFORMAT_BEGIN
 90
        0
 91
        1
 62
     0
 92
       -2
340
0
 93
        0
 40
1.125
309
GRIDFORMAT_END
 95
       16
302
GRIDFORMAT
  1
GRIDFORMAT_BEGIN
 90
        0
 91
        1
 62
     0
 92
       -2
340
0
 93
        0
 40
1.125
309
GRIDFORMAT_END
 95
       32
302
GRIDFORMAT
  1
GRIDFORMAT_BEGIN
 90
        0
 91
        1
 62
     0
 92
       -2
340
0
 93
        0
 40
1.125
309
GRIDFORMAT_END
309
TABLEFORMAT_END
  1
CELLSTYLE_BEGIN
 90
        1
 91
        1
300
_TITLE
309
CELLSTYLE_END
300
CELLSTYLE
  1
TABLEFORMAT_BEGIN
 90
        5
170
     1
 91
        0
 92
        0
 62
   257
 93
        1
300
CONTENTFORMAT
  1
CONTENTFORMAT_BEGIN
 90
        0
 91
        0
 92
      512
 93
        0
300

 40
0.0
140
1.0
 94
        5
 62
     0
340
11
144
4.5
309
CONTENTFORMAT_END
171
     1
301
MARGIN
  1
CELLMARGIN_BEGIN
 40
1.5
 40
1.5
 40
1.5
 40
1.5
 40
0.18
 40
0.18
309
CELLMARGIN_END
 94
        6
 95
        1
302
GRIDFORMAT
  1
GRIDFORMAT_BEGIN
 90
        0
 91
        1
 62
     0
 92
       -2
340
0
 93
        0
 40
1.125
309
GRIDFORMAT_END
 95
        2
302
GRIDFORMAT
  1
GRIDFORMAT_BEGIN
 90
        0
 91
        1
 62
     0
 92
       -2
340
0
 93
        0
 40
1.125
309
GRIDFORMAT_END
 95
        4
302
GRIDFORMAT
  1
GRIDFORMAT_BEGIN
 90
        0
 91
        1
 62
     0
 92
       -2
340
0
 93
        0
 40
1.125
309
GRIDFORMAT_END
 95
        8
302
GRIDFORMAT
  1
GRIDFORMAT_BEGIN
 90
        0
 91
        1
 62
     0
 92
       -2
340
0
 93
        0
 40
1.125
309
GRIDFORMAT_END
 95
       16
302
GRIDFORMAT
  1
GRIDFORMAT_BEGIN
 90
        0
 91
        1
 62
     0
 92
       -2
340
0
 93
        0
 40
1.125
309
GRIDFORMAT_END
 95
       32
302
GRIDFORMAT
  1
GRIDFORMAT_BEGIN
 90
        0
 91
        1
 62
     0
 92
       -2
340
0
 93
        0
 40
1.125
309
GRIDFORMAT_END
309
TABLEFORMAT_END
  1
CELLSTYLE_BEGIN
 90
        2
 91
        1
300
_HEADER
309
CELLSTYLE_END
300
CELLSTYLE
  1
TABLEFORMAT_BEGIN
 90
        5
170
     1
 91
        0
 92
        0
 62
   257
 93
        1
300
CONTENTFORMAT
  1
CONTENTFORMAT_BEGIN
 90
        0
 91
        0
 92
      512
 93
        0
300

 40
0.0
140
1.0
 94
        2
 62
     0
340
11
144
4.5
309
CONTENTFORMAT_END
171
     1
301
MARGIN
  1
CELLMARGIN_BEGIN
 40
1.5
 40
1.5
 40
1.5
 40
1.5
 40
0.18
 40
0.18
309
CELLMARGIN_END
 94
        6
 95
        1
302
GRIDFORMAT
  1
GRIDFORMAT_BEGIN
 90
        0
 91
        1
 62
     0
 92
       -2
340
0
 93
        0
 40
1.125
309
GRIDFORMAT_END
 95
        2
302
GRIDFORMAT
  1
GRIDFORMAT_BEGIN
 90
        0
 91
        1
 62
     0
 92
       -2
340
0
 93
        0
 40
1.125
309
GRIDFORMAT_END
 95
        4
302
GRIDFORMAT
  1
GRIDFORMAT_BEGIN
 90
        0
 91
        1
 62
     0
 92
       -2
340
0
 93
        0
 40
1.125
309
GRIDFORMAT_END
 95
        8
302
GRIDFORMAT
  1
GRIDFORMAT_BEGIN
 90
        0
 91
        1
 62
     0
 92
       -2
340
0
 93
        0
 40
1.125
309
GRIDFORMAT_END
 95
       16
302
GRIDFORMAT
  1
GRIDFORMAT_BEGIN
 90
        0
 91
        1
 62
     0
 92
       -2
340
0
 93
        0
 40
1.125
309
GRIDFORMAT_END
 95
       32
302
GRIDFORMAT
  1
GRIDFORMAT_BEGIN
 90
        0
 91
        1
 62
     0
 92
       -2
340
0
 93
        0
 40
1.125
309
GRIDFORMAT_END
309
TABLEFORMAT_END
  1
CELLSTYLE_BEGIN
 90
        3
 91
        2
300
_DATA
309
CELLSTYLE_END
  0
XRECORD
  5
1E02
102
{ACAD_REACTORS
330
1BB9
102
}
330
1BB9
100
AcDbXrecord
280
     1
102
ACAD_ROUNDTRIP_PRE2007_TABLESTYLE
 90
      512
 91
        0
  1

 92
      512
 93
        0
  2

 94
      512
 95
        0
  3

  0
ENDSEC
  0
EOF
