  0
SECTION
  2
HEADER
  9
$ACADVER
  1
AC1018
  9
$ACADMAINTVER
 70
   104
  9
$DWGCODEPAGE
  3
ANSI_932
  9
$LASTSAVEDBY
  1
t-hayashi
  9
$INSBASE
 10
0.0
 20
0.0
 30
0.0
  9
$EXTMIN
 10
47.14821504591359
 20
-18.82736511231155
 30
0.0
  9
$EXTMAX
 10
366.1916771288431
 20
169.6783370392937
 30
0.0
  9
$LIMMIN
 10
0.0
 20
0.0
  9
$LIMMAX
 10
297.0
 20
210.0
  9
$ORTHOMODE
 70
     0
  9
$REGENMODE
 70
     1
  9
$FILLMODE
 70
     1
  9
$QTEXTMODE
 70
     0
  9
$MIRRTEXT
 70
     0
  9
$LTSCALE
 40
1.0
  9
$ATTMODE
 70
     1
  9
$TEXTSIZE
 40
9.0
  9
$TRACEWID
 40
1.0
  9
$TEXTSTYLE
  7
Standard
  9
$CLAYER
  8
hojo
  9
$CELTYPE
  6
ByLayer
  9
$CECOLOR
 62
   256
  9
$CELTSCALE
 40
1.0
  9
$DISPSILH
 70
     0
  9
$DIMSCALE
 40
1.0
  9
$DIMASZ
 40
3.0
  9
$DIMEXO
 40
5.0
  9
$DIMDLI
 40
6.0
  9
$DIMRND
 40
0.0
  9
$DIMDLE
 40
0.0
  9
$DIMEXE
 40
2.0
  9
$DIMTP
 40
0.0
  9
$DIMTM
 40
0.0
  9
$DIMTXT
 40
3.0
  9
$DIMCEN
 40
2.5
  9
$DIMTSZ
 40
0.0
  9
$DIMTOL
 70
     0
  9
$DIMLIM
 70
     0
  9
$DIMTIH
 70
     0
  9
$DIMTOH
 70
     0
  9
$DIMSE1
 70
     0
  9
$DIMSE2
 70
     0
  9
$DIMTAD
 70
     1
  9
$DIMZIN
 70
     8
  9
$DIMBLK
  1
Open30
  9
$DIMASO
 70
     1
  9
$DIMSHO
 70
     1
  9
$DIMPOST
  1

  9
$DIMAPOST
  1

  9
$DIMALT
 70
     0
  9
$DIMALTD
 70
     3
  9
$DIMALTF
 40
0.03937007874016
  9
$DIMLFAC
 40
1.0
  9
$DIMTOFL
 70
     1
  9
$DIMTVP
 40
0.0
  9
$DIMTIX
 70
     0
  9
$DIMSOXD
 70
     0
  9
$DIMSAH
 70
     0
  9
$DIMBLK1
  1

  9
$DIMBLK2
  1

  9
$DIMSTYLE
  2
ISO-25
  9
$DIMCLRD
 70
     4
  9
$DIMCLRE
 70
     4
  9
$DIMCLRT
 70
     4
  9
$DIMTFAC
 40
1.0
  9
$DIMGAP
 40
1.0
  9
$DIMJUST
 70
     0
  9
$DIMSD1
 70
     0
  9
$DIMSD2
 70
     0
  9
$DIMTOLJ
 70
     0
  9
$DIMTZIN
 70
     8
  9
$DIMALTZ
 70
     0
  9
$DIMALTTZ
 70
     0
  9
$DIMUPT
 70
     0
  9
$DIMDEC
 70
     2
  9
$DIMTDEC
 70
     2
  9
$DIMALTU
 70
     2
  9
$DIMALTTD
 70
     3
  9
$DIMTXSTY
  7
Standard
  9
$DIMAUNIT
 70
     0
  9
$DIMADEC
 70
     0
  9
$DIMALTRND
 40
0.0
  9
$DIMAZIN
 70
     0
  9
$DIMDSEP
 70
    46
  9
$DIMATFIT
 70
     3
  9
$DIMFRAC
 70
     0
  9
$DIMLDRBLK
  1
Open30
  9
$DIMLUNIT
 70
     2
  9
$DIMLWD
 70
    -2
  9
$DIMLWE
 70
    -2
  9
$DIMTMOVE
 70
     0
  9
$LUNITS
 70
     2
  9
$LUPREC
 70
     4
  9
$SKETCHINC
 40
1.0
  9
$FILLETRAD
 40
1.0
  9
$AUNITS
 70
     0
  9
$AUPREC
 70
     0
  9
$MENU
  1
.
  9
$ELEVATION
 40
0.0
  9
$PELEVATION
 40
0.0
  9
$THICKNESS
 40
0.0
  9
$LIMCHECK
 70
     0
  9
$CHAMFERA
 40
0.0
  9
$CHAMFERB
 40
0.0
  9
$CHAMFERC
 40
0.0
  9
$CHAMFERD
 40
0.0
  9
$SKPOLY
 70
     0
  9
$TDCREATE
 40
2455497.994904688
  9
$TDUCREATE
 40
2455497.619904688
  9
$TDUPDATE
 40
2455618.781324687
  9
$TDUUPDATE
 40
2455618.406324687
  9
$TDINDWG
 40
0.8886217245
  9
$TDUSRTIMER
 40
0.8886217245
  9
$USRTIMER
 70
     1
  9
$ANGBASE
 50
0.0
  9
$ANGDIR
 70
     0
  9
$PDMODE
 70
     0
  9
$PDSIZE
 40
0.0
  9
$PLINEWID
 40
0.0
  9
$SPLFRAME
 70
     0
  9
$SPLINETYPE
 70
     6
  9
$SPLINESEGS
 70
     8
  9
$HANDSEED
  5
1DE1
  9
$SURFTAB1
 70
     6
  9
$SURFTAB2
 70
     6
  9
$SURFTYPE
 70
     6
  9
$SURFU
 70
     6
  9
$SURFV
 70
     6
  9
$UCSBASE
  2

  9
$UCSNAME
  2

  9
$UCSORG
 10
0.0
 20
0.0
 30
0.0
  9
$UCSXDIR
 10
1.0
 20
0.0
 30
0.0
  9
$UCSYDIR
 10
0.0
 20
1.0
 30
0.0
  9
$UCSORTHOREF
  2

  9
$UCSORTHOVIEW
 70
     0
  9
$UCSORGTOP
 10
0.0
 20
0.0
 30
0.0
  9
$UCSORGBOTTOM
 10
0.0
 20
0.0
 30
0.0
  9
$UCSORGLEFT
 10
0.0
 20
0.0
 30
0.0
  9
$UCSORGRIGHT
 10
0.0
 20
0.0
 30
0.0
  9
$UCSORGFRONT
 10
0.0
 20
0.0
 30
0.0
  9
$UCSORGBACK
 10
0.0
 20
0.0
 30
0.0
  9
$PUCSBASE
  2

  9
$PUCSNAME
  2

  9
$PUCSORG
 10
0.0
 20
0.0
 30
0.0
  9
$PUCSXDIR
 10
1.0
 20
0.0
 30
0.0
  9
$PUCSYDIR
 10
0.0
 20
1.0
 30
0.0
  9
$PUCSORTHOREF
  2

  9
$PUCSORTHOVIEW
 70
     0
  9
$PUCSORGTOP
 10
0.0
 20
0.0
 30
0.0
  9
$PUCSORGBOTTOM
 10
0.0
 20
0.0
 30
0.0
  9
$PUCSORGLEFT
 10
0.0
 20
0.0
 30
0.0
  9
$PUCSORGRIGHT
 10
0.0
 20
0.0
 30
0.0
  9
$PUCSORGFRONT
 10
0.0
 20
0.0
 30
0.0
  9
$PUCSORGBACK
 10
0.0
 20
0.0
 30
0.0
  9
$USERI1
 70
     0
  9
$USERI2
 70
     0
  9
$USERI3
 70
     0
  9
$USERI4
 70
     0
  9
$USERI5
 70
     0
  9
$USERR1
 40
0.0
  9
$USERR2
 40
0.0
  9
$USERR3
 40
0.0
  9
$USERR4
 40
0.0
  9
$USERR5
 40
0.0
  9
$WORLDVIEW
 70
     1
  9
$SHADEDGE
 70
     3
  9
$SHADEDIF
 70
    70
  9
$TILEMODE
 70
     1
  9
$MAXACTVP
 70
    64
  9
$PINSBASE
 10
0.0
 20
0.0
 30
0.0
  9
$PLIMCHECK
 70
     0
  9
$PEXTMIN
 10
3.070773833669022
 20
5.873386204737187
 30
0.0
  9
$PEXTMAX
 10
285.4943319513993
 20
198.4049299931636
 30
0.0
  9
$PLIMMIN
 10
-3.757080078125
 20
-4.180416584014892
  9
$PLIMMAX
 10
293.2112426757813
 20
205.7929110527039
  9
$UNITMODE
 70
     0
  9
$VISRETAIN
 70
     1
  9
$PLINEGEN
 70
     0
  9
$PSLTSCALE
 70
     1
  9
$TREEDEPTH
 70
  3020
  9
$CMLSTYLE
  2
Standard
  9
$CMLJUST
 70
     0
  9
$CMLSCALE
 40
20.0
  9
$PROXYGRAPHICS
 70
     1
  9
$MEASUREMENT
 70
     1
  9
$CELWEIGHT
370
    -1
  9
$ENDCAPS
280
     0
  9
$JOINSTYLE
280
     0
  9
$LWDISPLAY
290
     0
  9
$INSUNITS
 70
     4
  9
$HYPERLINKBASE
  1

  9
$STYLESHEET
  1

  9
$XEDIT
290
     1
  9
$CEPSNTYPE
380
     0
  9
$PSTYLEMODE
290
     1
  9
$FINGERPRINTGUID
  2
{03A8F9F0-C856-470B-BDF9-D9C40928B69F}
  9
$VERSIONGUID
  2
{A36A6B2A-B974-4EA9-B817-B7BF3EBB9D40}
  9
$EXTNAMES
290
     1
  9
$PSVPSCALE
 40
0.0
  9
$OLESTARTUP
290
     0
  9
$SORTENTS
280
   127
  9
$INDEXCTL
280
     0
  9
$HIDETEXT
280
     1
  9
$XCLIPFRAME
290
     0
  9
$HALOGAP
280
     0
  9
$OBSCOLOR
 70
   257
  9
$OBSLTYPE
280
     0
  9
$INTERSECTIONDISPLAY
280
     0
  9
$INTERSECTIONCOLOR
 70
   257
  9
$DIMASSOC
280
     2
  9
$PROJECTNAME
  1

  0
ENDSEC
  0
SECTION
  2
CLASSES
  0
CLASS
  1
ACDBDICTIONARYWDFLT
  2
AcDbDictionaryWithDefault
  3
ObjectDBX Classes
 90
        0
 91
        1
280
     0
281
     0
  0
CLASS
  1
MATERIAL
  2
AcDbMaterial
  3
ObjectDBX Classes
 90
     1153
 91
        3
280
     0
281
     0
  0
CLASS
  1
DIMASSOC
  2
AcDbDimAssoc
  3
"AcDbDimAssoc|Product Desc:     AcDim ARX App For Dimension|Company:          Autodesk, Inc.|WEB Address:      www.autodesk.com"
 90
        0
 91
        4
280
     0
281
     0
  0
CLASS
  1
VISUALSTYLE
  2
AcDbVisualStyle
  3
ObjectDBX Classes
 90
     4095
 91
       16
280
     0
281
     0
  0
CLASS
  1
TABLESTYLE
  2
AcDbTableStyle
  3
ObjectDBX Classes
 90
     4095
 91
        1
280
     0
281
     0
  0
CLASS
  1
SCALE
  2
AcDbScale
  3
ObjectDBX Classes
 90
     1153
 91
       33
280
     0
281
     0
  0
CLASS
  1
MLEADERSTYLE
  2
AcDbMLeaderStyle
  3
ACDB_MLEADERSTYLE_CLASS
 90
     4095
 91
        1
280
     0
281
     0
  0
CLASS
  1
DICTIONARYVAR
  2
AcDbDictionaryVar
  3
ObjectDBX Classes
 90
        0
 91
        3
280
     0
281
     0
  0
CLASS
  1
CELLSTYLEMAP
  2
AcDbCellStyleMap
  3
ObjectDBX Classes
 90
     1152
 91
        1
280
     0
281
     0
  0
ENDSEC
  0
SECTION
  2
TABLES
  0
TABLE
  2
VPORT
  5
8
330
0
100
AcDbSymbolTable
 70
     1
  0
VPORT
  5
1D68
330
8
100
AcDbSymbolTableRecord
100
AcDbViewportTableRecord
  2
*Active
 70
     0
 10
0.0
 20
0.0
 11
1.0
 21
1.0
 12
261.2323861183747
 22
95.5828260817343
 13
0.0
 23
0.0
 14
10.0
 24
10.0
 15
10.0
 25
10.0
 16
0.0
 26
0.0
 36
1.0
 17
0.0
 27
0.0
 37
0.0
 40
230.6847603527298
 41
2.304913294797688
 42
50.0
 43
0.0
 44
0.0
 50
0.0
 51
0.0
 71
     0
 72
  1000
 73
     1
 74
     3
 75
     0
 76
     0
 77
     0
 78
     0
281
     0
 65
     1
110
0.0
120
0.0
130
0.0
111
1.0
121
0.0
131
0.0
112
0.0
122
1.0
132
0.0
 79
     0
146
0.0
  0
ENDTAB
  0
TABLE
  2
LTYPE
  5
5
330
0
100
AcDbSymbolTable
 70
     1
  0
LTYPE
  5
14
330
5
100
AcDbSymbolTableRecord
100
AcDbLinetypeTableRecord
  2
ByBlock
 70
     0
  3

 72
    65
 73
     0
 40
0.0
  0
LTYPE
  5
15
330
5
100
AcDbSymbolTableRecord
100
AcDbLinetypeTableRecord
  2
ByLayer
 70
     0
  3

 72
    65
 73
     0
 40
0.0
  0
LTYPE
  5
16
330
5
100
AcDbSymbolTableRecord
100
AcDbLinetypeTableRecord
  2
Continuous
 70
     0
  3
Solid line
 72
    65
 73
     0
 40
0.0
  0
ENDTAB
  0
TABLE
  2
LAYER
  5
2
102
{ACAD_XDICTIONARY
360
5C
102
}
330
0
100
AcDbSymbolTable
 70
    10
  0
LAYER
  5
10
102
{ACAD_XDICTIONARY
360
1DC4
102
}
330
2
100
AcDbSymbolTableRecord
100
AcDbLayerTableRecord
  2
0
 70
     0
 62
     7
  6
Continuous
370
    -3
390
F
  0
LAYER
  5
2D
102
{ACAD_XDICTIONARY
360
1DC6
102
}
330
2
100
AcDbSymbolTableRecord
100
AcDbLayerTableRecord
  2
gaikei
 70
     0
 62
     7
  6
Continuous
370
    -3
390
F
  0
LAYER
  5
2E
102
{ACAD_XDICTIONARY
360
1DC8
102
}
330
2
100
AcDbSymbolTableRecord
100
AcDbLayerTableRecord
  2
sumpo
 70
     0
 62
     4
  6
Continuous
370
    -3
390
F
  0
LAYER
  5
2F
102
{ACAD_XDICTIONARY
360
1DCA
102
}
330
2
100
AcDbSymbolTableRecord
100
AcDbLayerTableRecord
  2
fuzoku
 70
     0
 62
     3
  6
Continuous
370
    -3
390
F
  0
LAYER
  5
30
102
{ACAD_XDICTIONARY
360
1DCC
102
}
330
2
100
AcDbSymbolTableRecord
100
AcDbLayerTableRecord
  2
moji
 70
     0
 62
     2
  6
Continuous
370
    -3
390
F
  0
LAYER
  5
48
102
{ACAD_XDICTIONARY
360
1DCE
102
}
330
2
100
AcDbSymbolTableRecord
100
AcDbLayerTableRecord
  2
hojo
 70
     0
 62
     6
  6
Continuous
370
    -3
390
F
  0
LAYER
  5
8F4
330
2
100
AcDbSymbolTableRecord
100
AcDbLayerTableRecord
  2
Defpoints
 70
     0
 62
     7
  6
Continuous
290
     0
370
    -3
390
F
  0
LAYER
  5
B26
102
{ACAD_XDICTIONARY
360
1DD0
102
}
330
2
100
AcDbSymbolTableRecord
100
AcDbLayerTableRecord
  2
shiyouwaku
 70
     0
 62
     7
  6
Continuous
370
    -3
390
F
  0
LAYER
  5
B29
102
{ACAD_XDICTIONARY
360
1DD2
102
}
330
2
100
AcDbSymbolTableRecord
100
AcDbLayerTableRecord
  2
zubanwaku
 70
     0
 62
     7
  6
Continuous
370
    -3
390
F
  0
LAYER
  5
B2A
102
{ACAD_XDICTIONARY
360
1DD4
102
}
330
2
100
AcDbSymbolTableRecord
100
AcDbLayerTableRecord
  2
zubanmoji
 70
     0
 62
     3
  6
Continuous
370
    -3
390
F
  0
ENDTAB
  0
TABLE
  2
STYLE
  5
3
330
0
100
AcDbSymbolTable
 70
     2
  0
STYLE
  5
11
330
3
100
AcDbSymbolTableRecord
100
AcDbTextStyleTableRecord
  2
Standard
 70
     0
 40
0.0
 41
1.0
 50
0.0
 71
     0
 42
9.0
  3
romans.shx
  4
extfont.shx
  0
STYLE
  5
425
330
3
100
AcDbSymbolTableRecord
100
AcDbTextStyleTableRecord
  2
KKZ-Y
 70
     0
 40
0.0
 41
1.0
 50
0.0
 71
     0
 42
300.0
  3
TXT
  4
EXTFONT
  0
ENDTAB
  0
TABLE
  2
VIEW
  5
6
330
0
100
AcDbSymbolTable
 70
     1
  0
ENDTAB
  0
TABLE
  2
UCS
  5
7
330
0
100
AcDbSymbolTable
 70
     0
  0
ENDTAB
  0
TABLE
  2
APPID
  5
9
330
0
100
AcDbSymbolTable
 70
     6
  0
APPID
  5
12
330
9
100
AcDbSymbolTableRecord
100
AcDbRegAppTableRecord
  2
ACAD
 70
     0
  0
APPID
  5
51
330
9
100
AcDbSymbolTableRecord
100
AcDbRegAppTableRecord
  2
AcadAnnotative
 70
     0
  0
APPID
  5
52
330
9
100
AcDbSymbolTableRecord
100
AcDbRegAppTableRecord
  2
ACAD_DSTYLE_DIMJAG
 70
     0
  0
APPID
  5
53
330
9
100
AcDbSymbolTableRecord
100
AcDbRegAppTableRecord
  2
ACAD_DSTYLE_DIMTALN
 70
     0
  0
APPID
  5
54
330
9
100
AcDbSymbolTableRecord
100
AcDbRegAppTableRecord
  2
ACAD_PSEXT
 70
     0
  0
APPID
  5
1DB1
330
9
100
AcDbSymbolTableRecord
100
AcDbRegAppTableRecord
  2
ACAD_MLEADERVER
 70
     0
  0
ENDTAB
  0
TABLE
  2
DIMSTYLE
  5
A
330
0
100
AcDbSymbolTable
 70
     3
100
AcDbDimStyleTable
 71
     3
340
29
340
4F
340
50
  0
DIMSTYLE
105
29
102
{ACAD_REACTORS
330
1B5B
330
1B5E
330
1B61
330
1B64
102
}
330
A
100
AcDbSymbolTableRecord
100
AcDbDimStyleTableRecord
  2
ISO-25
 70
     0
 41
3.0
 42
5.0
 43
6.0
 44
2.0
 73
     0
 74
     0
 77
     1
 78
     8
140
3.0
141
2.5
143
0.03937007874016
147
1.0
171
     3
172
     1
176
     4
177
     4
178
     4
271
     2
272
     2
274
     3
283
     0
284
     8
340
11
341
8EC
342
8EC
  0
DIMSTYLE
105
4F
330
A
100
AcDbSymbolTableRecord
100
AcDbDimStyleTableRecord
  2
Standard
 70
     0
340
11
  0
DIMSTYLE
105
50
330
A
100
AcDbSymbolTableRecord
100
AcDbDimStyleTableRecord
  2
Annotative
 70
     0
 40
0.0
340
11
1001
AcadAnnotative
1000
AnnotativeData
1002
{
1070
     1
1070
     1
1002
}
1001
ACAD_DSTYLE_DIMJAG
1070
   388
1040
1.5
1001
ACAD_DSTYLE_DIMTALN
1070
   392
1070
     0
  0
ENDTAB
  0
TABLE
  2
BLOCK_RECORD
  5
1
330
0
100
AcDbSymbolTable
 70
     5
  0
BLOCK_RECORD
  5
21
330
1
100
AcDbSymbolTableRecord
100
AcDbBlockTableRecord
  2
*Model_Space
340
24
  0
BLOCK_RECORD
  5
187F
330
1
100
AcDbSymbolTableRecord
100
AcDbBlockTableRecord
  2
*Paper_Space
340
1880
  0
BLOCK_RECORD
  5
8EC
330
1
100
AcDbSymbolTableRecord
100
AcDbBlockTableRecord
  2
_Open30
340
0
102
{BLKREFS
331
1D2F
331
1D30
331
1D38
331
1D39
331
1D41
331
1D42
331
1D4A
331
1D4B
102
}
  0
BLOCK_RECORD
  5
1CFB
330
1
100
AcDbSymbolTableRecord
100
AcDbBlockTableRecord
  2
*D1
340
0
  0
BLOCK_RECORD
  5
1D07
330
1
100
AcDbSymbolTableRecord
100
AcDbBlockTableRecord
  2
*D2
340
0
  0
BLOCK_RECORD
  5
1D13
330
1
100
AcDbSymbolTableRecord
100
AcDbBlockTableRecord
  2
*D3
340
0
  0
BLOCK_RECORD
  5
1D1F
330
1
100
AcDbSymbolTableRecord
100
AcDbBlockTableRecord
  2
*D4
340
0
  0
ENDTAB
  0
ENDSEC
  0
SECTION
  2
BLOCKS
  0
BLOCK
  5
22
330
21
100
AcDbEntity
  8
0
100
AcDbBlockBegin
  2
*Model_Space
 70
     0
 10
0.0
 20
0.0
 30
0.0
  3
*Model_Space
  1

  0
ENDBLK
  5
23
330
21
100
AcDbEntity
  8
0
100
AcDbBlockEnd
  0
BLOCK
  5
1881
330
187F
100
AcDbEntity
 67
     1
  8
0
100
AcDbBlockBegin
  2
*Paper_Space
 70
     0
 10
0.0
 20
0.0
 30
0.0
  3
*Paper_Space
  1

  0
ENDBLK
  5
1882
330
187F
100
AcDbEntity
 67
     1
  8
0
100
AcDbBlockEnd
  0
BLOCK
  5
8F0
330
8EC
100
AcDbEntity
  8
0
100
AcDbBlockBegin
  2
_Open30
 70
     0
 10
0.0
 20
0.0
 30
0.0
  3
_Open30
  1

  0
LINE
  5
8ED
330
8EC
100
AcDbEntity
  8
0
  6
ByBlock
 62
     0
370
    -2
100
AcDbLine
 10
-1.0
 20
0.26794919
 30
0.0
 11
0.0
 21
0.0
 31
0.0
  0
LINE
  5
8EE
330
8EC
100
AcDbEntity
  8
0
  6
ByBlock
 62
     0
370
    -2
100
AcDbLine
 10
0.0
 20
0.0
 30
0.0
 11
-1.0
 21
-0.26794919
 31
0.0
  0
LINE
  5
8EF
330
8EC
100
AcDbEntity
  8
0
  6
ByBlock
 62
     0
370
    -2
100
AcDbLine
 10
0.0
 20
0.0
 30
0.0
 11
-1.0
 21
0.0
 31
0.0
  0
ENDBLK
  5
8F1
330
8EC
100
AcDbEntity
  8
0
100
AcDbBlockEnd
  0
BLOCK
  5
1D05
330
1CFB
100
AcDbEntity
  8
0
100
AcDbBlockBegin
  2
*D1
 70
     1
 10
0.0
 20
0.0
 30
0.0
  3
*D1
  1

  0
LINE
  5
1D47
330
1CFB
100
AcDbEntity
  8
sumpo
 62
     4
370
    -2
100
AcDbLine
 10
67.06135507589618
 20
139.9011661999166
 30
0.0
 11
49.14821504591362
 21
139.9011661999167
 31
0.0
  0
LINE
  5
1D48
330
1CFB
100
AcDbEntity
  8
sumpo
 62
     4
370
    -2
100
AcDbLine
 10
75.06135507589618
 20
103.9011661999167
 30
0.0
 11
49.14821504591362
 21
103.9011661999167
 31
0.0
  0
LINE
  5
1D49
330
1CFB
100
AcDbEntity
  8
sumpo
 62
     4
370
    -2
100
AcDbLine
 10
51.14821504591362
 20
136.9011661999167
 30
0.0
 11
51.14821504591361
 21
106.9011661999167
 31
0.0
  0
INSERT
  5
1D4A
330
1CFB
100
AcDbEntity
  8
sumpo
 62
     4
370
    -2
100
AcDbBlockReference
  2
_Open30
 10
51.14821504591362
 20
139.9011661999167
 30
0.0
 41
3.0
 42
3.0
 43
3.0
 50
90.0
  0
INSERT
  5
1D4B
330
1CFB
100
AcDbEntity
  8
sumpo
 62
     4
370
    -2
100
AcDbBlockReference
  2
_Open30
 10
51.14821504591361
 20
103.9011661999167
 30
0.0
 41
3.0
 42
3.0
 43
3.0
 50
270.0
  0
MTEXT
  5
1D4C
330
1CFB
100
AcDbEntity
  8
sumpo
 62
     4
100
AcDbMText
 10
48.6482150459136
 20
121.9011661999167
 30
0.0
 40
3.0
 41
0.0
 71
     5
 72
     1
  1
72
 11
0.0000000000000001
 21
1.0
 31
0.0
 73
     1
 44
1.0
  0
POINT
  5
1D4D
330
1CFB
100
AcDbEntity
  8
Defpoints
 62
     0
100
AcDbPoint
 10
72.06135507589618
 20
139.9011661999166
 30
0.0
  0
POINT
  5
1D4E
330
1CFB
100
AcDbEntity
  8
Defpoints
 62
     0
100
AcDbPoint
 10
80.06135507589618
 20
103.9011661999167
 30
0.0
  0
POINT
  5
1D4F
330
1CFB
100
AcDbEntity
  8
Defpoints
 62
     0
100
AcDbPoint
 10
51.14821504591361
 20
103.9011661999167
 30
0.0
  0
ENDBLK
  5
1D06
330
1CFB
100
AcDbEntity
  8
0
100
AcDbBlockEnd
  0
BLOCK
  5
1D11
330
1D07
100
AcDbEntity
  8
0
100
AcDbBlockBegin
  2
*D2
 70
     1
 10
0.0
 20
0.0
 30
0.0
  3
*D2
  1

  0
LINE
  5
1D3E
330
1D07
100
AcDbEntity
  8
sumpo
 62
     4
370
    -2
100
AcDbLine
 10
67.06135507589618
 20
139.9011661999166
 30
0.0
 11
55.14821504591362
 21
139.9011661999167
 31
0.0
  0
LINE
  5
1D3F
330
1D07
100
AcDbEntity
  8
sumpo
 62
     4
370
    -2
100
AcDbLine
 10
67.06135507589618
 20
104.9011661999167
 30
0.0
 11
55.14821504591362
 21
104.9011661999167
 31
0.0
  0
LINE
  5
1D40
330
1D07
100
AcDbEntity
  8
sumpo
 62
     4
370
    -2
100
AcDbLine
 10
57.14821504591363
 20
136.9011661999167
 30
0.0
 11
57.14821504591362
 21
107.9011661999167
 31
0.0
  0
INSERT
  5
1D41
330
1D07
100
AcDbEntity
  8
sumpo
 62
     4
370
    -2
100
AcDbBlockReference
  2
_Open30
 10
57.14821504591363
 20
139.9011661999167
 30
0.0
 41
3.0
 42
3.0
 43
3.0
 50
90.0
  0
INSERT
  5
1D42
330
1D07
100
AcDbEntity
  8
sumpo
 62
     4
370
    -2
100
AcDbBlockReference
  2
_Open30
 10
57.14821504591362
 20
104.9011661999167
 30
0.0
 41
3.0
 42
3.0
 43
3.0
 50
270.0
  0
MTEXT
  5
1D43
330
1D07
100
AcDbEntity
  8
sumpo
 62
     4
100
AcDbMText
 10
54.6482150459136
 20
122.4011661999167
 30
0.0
 40
3.0
 41
0.0
 71
     5
 72
     1
  1
70
 11
0.0000000000000001
 21
1.0
 31
0.0
 73
     1
 44
1.0
  0
POINT
  5
1D44
330
1D07
100
AcDbEntity
  8
Defpoints
 62
     0
100
AcDbPoint
 10
72.06135507589618
 20
139.9011661999166
 30
0.0
  0
POINT
  5
1D45
330
1D07
100
AcDbEntity
  8
Defpoints
 62
     0
100
AcDbPoint
 10
72.06135507589618
 20
104.9011661999167
 30
0.0
  0
POINT
  5
1D46
330
1D07
100
AcDbEntity
  8
Defpoints
 62
     0
100
AcDbPoint
 10
57.14821504591362
 20
104.9011661999167
 30
0.0
  0
ENDBLK
  5
1D12
330
1D07
100
AcDbEntity
  8
0
100
AcDbBlockEnd
  0
BLOCK
  5
1D1D
330
1D13
100
AcDbEntity
  8
0
100
AcDbBlockBegin
  2
*D3
 70
     1
 10
0.0
 20
0.0
 30
0.0
  3
*D3
  1

  0
LINE
  5
1D35
330
1D13
100
AcDbEntity
  8
sumpo
 62
     4
370
    -2
100
AcDbLine
 10
72.06135507589618
 20
144.9011661999166
 30
0.0
 11
72.06135507589618
 21
158.9471653533944
 31
0.0
  0
LINE
  5
1D36
330
1D13
100
AcDbEntity
  8
sumpo
 62
     4
370
    -2
100
AcDbLine
 10
94.56135507589619
 20
144.9011661999166
 30
0.0
 11
94.56135507589619
 21
158.9471653533944
 31
0.0
  0
LINE
  5
1D37
330
1D13
100
AcDbEntity
  8
sumpo
 62
     4
370
    -2
100
AcDbLine
 10
75.06135507589618
 20
156.9471653533944
 30
0.0
 11
91.56135507589619
 21
156.9471653533944
 31
0.0
  0
INSERT
  5
1D38
330
1D13
100
AcDbEntity
  8
sumpo
 62
     4
370
    -2
100
AcDbBlockReference
  2
_Open30
 10
72.06135507589618
 20
156.9471653533944
 30
0.0
 41
3.0
 42
3.0
 43
3.0
 50
180.0
  0
INSERT
  5
1D39
330
1D13
100
AcDbEntity
  8
sumpo
 62
     4
370
    -2
100
AcDbBlockReference
  2
_Open30
 10
94.56135507589619
 20
156.9471653533944
 30
0.0
 41
3.0
 42
3.0
 43
3.0
  0
MTEXT
  5
1D3A
330
1D13
100
AcDbEntity
  8
sumpo
 62
     4
100
AcDbMText
 10
83.31135507589619
 20
159.4471653533944
 30
0.0
 40
3.0
 41
0.0
 71
     5
 72
     1
  1
45
 73
     1
 44
1.0
  0
POINT
  5
1D3B
330
1D13
100
AcDbEntity
  8
Defpoints
 62
     0
100
AcDbPoint
 10
72.06135507589618
 20
139.9011661999166
 30
0.0
  0
POINT
  5
1D3C
330
1D13
100
AcDbEntity
  8
Defpoints
 62
     0
100
AcDbPoint
 10
94.56135507589619
 20
139.9011661999166
 30
0.0
  0
POINT
  5
1D3D
330
1D13
100
AcDbEntity
  8
Defpoints
 62
     0
100
AcDbPoint
 10
94.56135507589619
 20
156.9471653533944
 30
0.0
  0
ENDBLK
  5
1D1E
330
1D13
100
AcDbEntity
  8
0
100
AcDbBlockEnd
  0
BLOCK
  5
1D29
330
1D1F
100
AcDbEntity
  8
0
100
AcDbBlockBegin
  2
*D4
 70
     1
 10
0.0
 20
0.0
 30
0.0
  3
*D4
  1

  0
LINE
  5
1D2C
330
1D1F
100
AcDbEntity
  8
sumpo
 62
     4
370
    -2
100
AcDbLine
 10
117.1587738741525
 20
144.4011661999167
 30
0.0
 11
117.1587738741525
 21
158.9471653533944
 31
0.0
  0
LINE
  5
1D2D
330
1D1F
100
AcDbEntity
  8
sumpo
 62
     4
370
    -2
100
AcDbLine
 10
150.6587738741526
 20
144.9011661999167
 30
0.0
 11
150.6587738741526
 21
158.9471653533944
 31
0.0
  0
LINE
  5
1D2E
330
1D1F
100
AcDbEntity
  8
sumpo
 62
     4
370
    -2
100
AcDbLine
 10
120.1587738741525
 20
156.9471653533944
 30
0.0
 11
147.6587738741526
 21
156.9471653533944
 31
0.0
  0
INSERT
  5
1D2F
330
1D1F
100
AcDbEntity
  8
sumpo
 62
     4
370
    -2
100
AcDbBlockReference
  2
_Open30
 10
117.1587738741525
 20
156.9471653533944
 30
0.0
 41
3.0
 42
3.0
 43
3.0
 50
180.0
  0
INSERT
  5
1D30
330
1D1F
100
AcDbEntity
  8
sumpo
 62
     4
370
    -2
100
AcDbBlockReference
  2
_Open30
 10
150.6587738741526
 20
156.9471653533944
 30
0.0
 41
3.0
 42
3.0
 43
3.0
  0
MTEXT
  5
1D31
330
1D1F
100
AcDbEntity
  8
sumpo
 62
     4
100
AcDbMText
 10
133.9087738741526
 20
159.4471653533944
 30
0.0
 40
3.0
 41
0.0
 71
     5
 72
     1
  1
67
 73
     1
 44
1.0
  0
POINT
  5
1D32
330
1D1F
100
AcDbEntity
  8
Defpoints
 62
     0
100
AcDbPoint
 10
117.1587738741525
 20
139.4011661999167
 30
0.0
  0
POINT
  5
1D33
330
1D1F
100
AcDbEntity
  8
Defpoints
 62
     0
100
AcDbPoint
 10
150.6587738741526
 20
139.9011661999167
 30
0.0
  0
POINT
  5
1D34
330
1D1F
100
AcDbEntity
  8
Defpoints
 62
     0
100
AcDbPoint
 10
150.6587738741526
 20
156.9471653533944
 30
0.0
  0
ENDBLK
  5
1D2A
330
1D1F
100
AcDbEntity
  8
0
100
AcDbBlockEnd
  0
ENDSEC
  0
SECTION
  2
ENTITIES
  0
LINE
  5
B2B
330
21
100
AcDbEntity
  8
zubanwaku
100
AcDbLine
 10
241.691677128843
 20
17.17263488768844
 30
0.0
 11
241.6916771288431
 21
-18.82736511231155
 31
0.0
  0
LINE
  5
B2E
330
21
100
AcDbEntity
  8
zubanwaku
100
AcDbLine
 10
241.691677128843
 20
17.17263488768844
 30
0.0
 11
366.1916771288431
 21
17.17263488768845
 31
0.0
  0
LINE
  5
B33
330
21
100
AcDbEntity
  8
zubanwaku
100
AcDbLine
 10
241.691677128843
 20
8.172634887688445
 30
0.0
 11
366.1916771288431
 21
8.172634887688452
 31
0.0
  0
LINE
  5
B34
330
21
100
AcDbEntity
  8
zubanwaku
100
AcDbLine
 10
241.691677128843
 20
-0.8273651123115541
 30
0.0
 11
366.1916771288431
 21
-0.827365112311547
 31
0.0
  0
LINE
  5
B35
330
21
100
AcDbEntity
  8
zubanwaku
100
AcDbLine
 10
241.691677128843
 20
-9.827365112311554
 30
0.0
 11
366.1916771288431
 21
-9.827365112311554
 31
0.0
  0
LINE
  5
B36
330
21
100
AcDbEntity
  8
zubanwaku
100
AcDbLine
 10
241.691677128843
 20
-18.82736511231155
 30
0.0
 11
366.1916771288431
 21
-18.82736511231155
 31
0.0
  0
LINE
  5
B3D
330
21
100
AcDbEntity
  8
zubanwaku
100
AcDbLine
 10
259.691677128843
 20
17.17263488768844
 30
0.0
 11
259.6916771288431
 21
-9.827365112311554
 31
0.0
  0
LINE
  5
B3E
330
21
100
AcDbEntity
  8
zubanwaku
100
AcDbLine
 10
328.6916771288431
 20
17.17263488768844
 30
0.0
 11
328.6916771288431
 21
-0.827365112311547
 31
0.0
  0
LINE
  5
B3F
330
21
100
AcDbEntity
  8
zubanwaku
100
AcDbLine
 10
346.6916771288431
 20
17.17263488768844
 30
0.0
 11
346.6916771288431
 21
-0.827365112311547
 31
0.0
  0
LINE
  5
B40
330
21
100
AcDbEntity
  8
zubanwaku
100
AcDbLine
 10
366.1916771288431
 20
17.17263488768844
 30
0.0
 11
366.1916771288431
 21
-18.82736511231155
 31
0.0
  0
TEXT
  5
B45
330
21
100
AcDbEntity
  8
zubanmoji
100
AcDbText
 10
245.891677128843
 20
10.42263488768844
 30
0.0
 40
4.5
  1
名称
 72
     1
 11
250.691677128843
 21
12.67263488768844
 31
0.0
100
AcDbText
 73
     2
  0
TEXT
  5
B47
330
21
100
AcDbEntity
  8
zubanmoji
100
AcDbText
 10
263.741677128843
 20
10.42263488768844
 30
0.0
 40
4.5
  1
漏水検知器　外形寸法図
 72
     1
 11
292.691677128843
 21
12.67263488768844
 31
0.0
100
AcDbText
 73
     2
  0
TEXT
  5
B48
330
21
100
AcDbEntity
  8
zubanmoji
100
AcDbText
 10
332.8916771288431
 20
10.42263488768844
 30
0.0
 40
4.5
  1
尺度
 72
     1
 11
337.6916771288431
 21
12.67263488768844
 31
0.0
100
AcDbText
 73
     2
  0
TEXT
  5
B4B
330
21
100
AcDbEntity
  8
zubanmoji
100
AcDbText
 10
245.891677128843
 20
1.422634887688445
 30
0.0
 40
4.5
  1
型式
 72
     1
 11
250.691677128843
 21
3.672634887688445
 31
0.0
100
AcDbText
 73
     2
  0
TEXT
  5
B4C
330
21
100
AcDbEntity
  8
zubanmoji
100
AcDbText
 10
272.2273914145573
 20
1.422634887688445
 30
0.0
 40
4.5
  1
AD-AS-1BM
 72
     1
 11
292.691677128843
 21
3.672634887688445
 31
0.0
100
AcDbText
 73
     2
  0
TEXT
  5
B4D
330
21
100
AcDbEntity
  8
zubanmoji
100
AcDbText
 10
332.8916771288431
 20
1.422634887688445
 30
0.0
 40
4.5
  1
単位
 72
     1
 11
337.6916771288431
 21
3.672634887688445
 31
0.0
100
AcDbText
 73
     2
  0
TEXT
  5
B4E
330
21
100
AcDbEntity
  8
zubanmoji
100
AcDbText
 10
349.2631057002717
 20
1.422634887688445
 30
0.0
 40
4.5
  1
mm
 72
     1
 11
355.6916771288431
 21
3.672634887688445
 31
0.0
100
AcDbText
 73
     2
  0
TEXT
  5
B4F
330
21
100
AcDbEntity
  8
zubanmoji
100
AcDbText
 10
245.7416771288431
 20
-7.577365112311554
 30
0.0
 40
4.5
  1
図番
 72
     1
 11
250.691677128843
 21
-5.327365112311554
 31
0.0
100
AcDbText
 73
     2
  0
TEXT
  5
B50
330
21
100
AcDbEntity
  8
zubanmoji
100
AcDbText
 10
265.4077697922783
 20
-7.577365112311554
 30
0.0
 40
4.5
  1
TTS-KS-W3013-3
 72
     1
 11
296.8006269351354
 21
-5.327365112311554
 31
0.0
100
AcDbText
 73
     2
  0
TEXT
  5
B51
330
21
100
AcDbEntity
  8
zubanmoji
100
AcDbText
 10
257.6175006067728
 20
-15.84570805426224
 30
0.0
 40
3.0
  1
TATSUTA ELECTRIC WIRE & CABLE CO., LTD. 
 72
     1
 11
305.9889291782014
 21
-14.34570805426224
 31
0.0
100
AcDbText
 73
     2
  0
TEXT
  5
125F
330
21
100
AcDbEntity
  8
moji
100
AcDbText
 10
1414.276227074711
 20
343.7095352342497
 30
0.0
 40
9.0
  1

 11
1414.276227074711
 21
348.2095352342497
 31
0.0
100
AcDbText
 73
     2
  0
LINE
  5
1976
330
21
100
AcDbEntity
  8
zubanmoji
100
AcDbLine
 10
350.3986496968989
 20
12.67263488768844
 30
0.0
 11
362.4847045607874
 21
12.67263488768844
 31
0.0
  0
LINE
  5
1B59
330
21
100
AcDbEntity
  8
zubanwaku
100
AcDbLine
 10
245.652564416875
 20
99.67833703929375
 30
0.0
 11
345.6525644168751
 21
99.67833703929375
 31
0.0
  0
TEXT
  5
1B5A
330
21
100
AcDbEntity
  8
moji
100
AcDbText
 10
248.652564416875
 20
100.6783370392937
 30
0.0
 40
3.0
  1
消費電力　：　最大3VA
 11
248.652564416875
 21
102.1783370392937
 31
0.0
100
AcDbText
 73
     2
  0
DIMENSION
  5
1B5B
102
{ACAD_XDICTIONARY
360
1B5C
102
}
102
{ACAD_REACTORS
330
1B5D
102
}
330
21
100
AcDbEntity
  8
sumpo
100
AcDbDimension
  2
*D1
 10
51.14821504591361
 20
103.9011661999167
 30
0.0
 11
48.6482150459136
 21
121.9011661999167
 31
0.0
 70
    32
  1
72
 71
     5
 42
35.99999999999996
  3
ISO-25
100
AcDbAlignedDimension
 13
72.06135507589618
 23
139.9011661999166
 33
0.0
 14
80.06135507589618
 24
103.9011661999167
 34
0.0
 50
90.0
100
AcDbRotatedDimension
  0
DIMENSION
  5
1B5E
102
{ACAD_XDICTIONARY
360
1B5F
102
}
102
{ACAD_REACTORS
330
1B60
102
}
330
21
100
AcDbEntity
  8
sumpo
100
AcDbDimension
  2
*D2
 10
57.14821504591362
 20
104.9011661999167
 30
0.0
 11
54.6482150459136
 21
122.4011661999167
 31
0.0
 70
    32
  1
70
 71
     5
 42
34.99999999999996
  3
ISO-25
100
AcDbAlignedDimension
 13
72.06135507589618
 23
139.9011661999166
 33
0.0
 14
72.06135507589618
 24
104.9011661999167
 34
0.0
 50
90.0
100
AcDbRotatedDimension
  0
DIMENSION
  5
1B61
102
{ACAD_XDICTIONARY
360
1B62
102
}
102
{ACAD_REACTORS
330
1B63
102
}
330
21
100
AcDbEntity
  8
sumpo
100
AcDbDimension
  2
*D3
 10
94.56135507589619
 20
156.9471653533944
 30
0.0
 11
83.31135507589619
 21
159.4471653533944
 31
0.0
 70
    32
  1
45
 71
     5
 42
22.5
  3
ISO-25
100
AcDbAlignedDimension
 13
72.06135507589618
 23
139.9011661999166
 33
0.0
 14
94.56135507589619
 24
139.9011661999166
 34
0.0
100
AcDbRotatedDimension
  0
DIMENSION
  5
1B64
102
{ACAD_XDICTIONARY
360
1B65
102
}
102
{ACAD_REACTORS
330
1B66
102
}
330
21
100
AcDbEntity
  8
sumpo
100
AcDbDimension
  2
*D4
 10
150.6587738741526
 20
156.9471653533944
 30
0.0
 11
133.9087738741526
 21
159.4471653533944
 31
0.0
 70
    32
  1
67
 71
     5
 42
33.50000000000006
  3
ISO-25
100
AcDbAlignedDimension
 13
117.1587738741525
 23
139.4011661999167
 33
0.0
 14
150.6587738741526
 24
139.9011661999167
 34
0.0
100
AcDbRotatedDimension
  0
LINE
  5
1B67
330
21
100
AcDbEntity
  8
shiyouwaku
100
AcDbLine
 10
345.6525644168749
 20
169.6783370392937
 30
0.0
 11
345.6525644168749
 21
49.67833703929375
 31
0.0
  0
TEXT
  5
1B68
330
21
100
AcDbEntity
  8
moji
100
AcDbText
 10
248.652564416875
 20
50.67833703929375
 30
0.0
 40
3.0
  1
材質・色　：　ABS樹脂・グレー
 11
248.652564416875
 21
52.17833703929375
 31
0.0
100
AcDbText
 73
     2
  0
TEXT
  5
1B69
330
21
100
AcDbEntity
  8
moji
100
AcDbText
 10
248.652564416875
 20
55.67833703929375
 30
0.0
 40
3.0
  1
重量　：　約115g
 11
248.652564416875
 21
57.17833703929375
 31
0.0
100
AcDbText
 73
     2
  0
TEXT
  5
1B6A
330
21
100
AcDbEntity
  8
moji
100
AcDbText
 10
248.652564416875
 20
60.67833703929375
 30
0.0
 40
3.0
  1
外形寸法　：　（W）45×（H）72×（D）67
 11
248.652564416875
 21
62.17833703929375
 31
0.0
100
AcDbText
 73
     2
  0
TEXT
  5
1B6B
330
21
100
AcDbEntity
  8
moji
100
AcDbText
 10
248.652564416875
 20
65.67833703929375
 30
0.0
 40
3.0
  1
取付方法　：　DINレールに取付可能
 11
248.652564416875
 21
67.17833703929375
 31
0.0
100
AcDbText
 73
     2
  0
TEXT
  5
1B6C
330
21
100
AcDbEntity
  8
moji
100
AcDbText
 10
248.652564416875
 20
70.67833703929375
 30
0.0
 40
3.0
  1
チェック機能　：　無
 11
248.652564416875
 21
72.17833703929375
 31
0.0
100
AcDbText
 73
     2
  0
TEXT
  5
1B6D
330
21
100
AcDbEntity
  8
moji
100
AcDbText
 10
248.6525644168749
 20
115.6783370392937
 30
0.0
 40
3.0
  1
　　　　　　　　　断線接点　1c×1点
 11
248.6525644168749
 21
117.1783370392937
 31
0.0
100
AcDbText
 73
     2
  0
TEXT
  5
1B6E
330
21
100
AcDbEntity
  8
moji
100
AcDbText
 10
248.652564416875
 20
75.67833703929375
 30
0.0
 40
3.0
  1
ブザー設定機能　：　無
 11
248.652564416875
 21
77.17833703929375
 31
0.0
100
AcDbText
 73
     2
  0
TEXT
  5
1B6F
330
21
100
AcDbEntity
  8
moji
100
AcDbText
 10
248.652564416875
 20
80.67833703929375
 30
0.0
 40
3.0
  1
フェールセーフ機能　：　無
 11
248.652564416875
 21
82.17833703929375
 31
0.0
100
AcDbText
 73
     2
  0
TEXT
  5
1B70
330
21
100
AcDbEntity
  8
moji
100
AcDbText
 10
248.652564416875
 20
85.67833703929375
 30
0.0
 40
3.0
  1
警報保持機能　：　無
 11
248.652564416875
 21
87.17833703929375
 31
0.0
100
AcDbText
 73
     2
  0
TEXT
  5
1B71
330
21
100
AcDbEntity
  8
moji
100
AcDbText
 10
248.652564416875
 20
90.67833703929375
 30
0.0
 40
3.0
  1
断線検知機能　：　有
 11
248.652564416875
 21
92.17833703929375
 31
0.0
100
AcDbText
 73
     2
  0
TEXT
  5
1B72
330
21
100
AcDbEntity
  8
moji
100
AcDbText
 10
248.652564416875
 20
95.67833703929371
 30
0.0
 40
3.0
  1
感度調整　：　有（5/10/14kΩ）
 11
248.652564416875
 21
97.17833703929372
 31
0.0
100
AcDbText
 73
     2
  0
TEXT
  5
1B73
330
21
100
AcDbEntity
  8
moji
100
AcDbText
 10
248.6525644168749
 20
105.6783370392937
 30
0.0
 40
3.0
  1
（抵抗負荷）　　　　　DC　24V 1.5A
 11
248.6525644168749
 21
107.1783370392937
 31
0.0
100
AcDbText
 73
     2
  0
TEXT
  5
1B74
330
21
100
AcDbEntity
  8
moji
100
AcDbText
 10
248.6525644168749
 20
110.6783370392937
 30
0.0
 40
3.0
  1
制御出力接点負荷　：　AC250V 1.5A
 11
248.6525644168749
 21
112.1783370392937
 31
0.0
100
AcDbText
 73
     2
  0
TEXT
  5
1B75
330
21
100
AcDbEntity
  8
moji
100
AcDbText
 10
248.6525644168749
 20
120.6783370392937
 30
0.0
 40
3.0
  1
制御接点構成　：　漏水接点　1c×1点
 11
248.6525644168749
 21
122.1783370392937
 31
0.0
100
AcDbText
 73
     2
  0
TEXT
  5
1B76
330
21
100
AcDbEntity
  8
moji
100
AcDbText
 10
248.6525644168749
 20
125.6783370392937
 30
0.0
 40
3.0
  1
断線警報　：　橙色LEDランプ・点滅
 11
248.6525644168749
 21
127.1783370392937
 31
0.0
100
AcDbText
 73
     2
  0
TEXT
  5
1B77
330
21
100
AcDbEntity
  8
moji
100
AcDbText
 10
248.6525644168749
 20
130.6783370392937
 30
0.0
 40
3.0
  1
漏水警報　：　橙色LEDランプ・点滅
 11
248.6525644168749
 21
132.1783370392937
 31
0.0
100
AcDbText
 73
     2
  0
TEXT
  5
1B78
330
21
100
AcDbEntity
  8
moji
100
AcDbText
 10
248.6525644168749
 20
135.6783370392937
 30
0.0
 40
3.0
  1
センサ短絡電流　：　0.3mA以下
 11
248.6525644168749
 21
137.1783370392937
 31
0.0
100
AcDbText
 73
     2
  0
TEXT
  5
1B79
330
21
100
AcDbEntity
  8
moji
100
AcDbText
 10
248.6525644168749
 20
140.6783370392937
 30
0.0
 40
3.0
  1
センサ印加電圧　：　AC5.3V（最大値）
 11
248.6525644168749
 21
142.1783370392937
 31
0.0
100
AcDbText
 73
     2
  0
TEXT
  5
1B7A
330
21
100
AcDbEntity
  8
moji
100
AcDbText
 10
248.6525644168749
 20
145.6783370392937
 30
0.0
 40
3.0
  1
周波数　：　50/60Hz
 11
248.6525644168749
 21
147.1783370392937
 31
0.0
100
AcDbText
 73
     2
  0
TEXT
  5
1B7B
330
21
100
AcDbEntity
  8
moji
100
AcDbText
 10
248.6525644168749
 20
150.6783370392937
 30
0.0
 40
3.0
  1
電源電圧　：　AC100～240V
 11
248.6525644168749
 21
152.1783370392937
 31
0.0
100
AcDbText
 73
     2
  0
TEXT
  5
1B7C
330
21
100
AcDbEntity
  8
moji
100
AcDbText
 10
248.6525644168749
 20
155.6783370392937
 30
0.0
 40
3.0
  1
センサ回路数　：　1
 11
248.6525644168749
 21
157.1783370392937
 31
0.0
100
AcDbText
 73
     2
  0
TEXT
  5
1B7D
330
21
100
AcDbEntity
  8
moji
100
AcDbText
 10
248.6525644168749
 20
160.6783370392937
 30
0.0
 40
3.0
  1
型番　：　AD-AS-1BM
 11
248.6525644168749
 21
162.1783370392937
 31
0.0
100
AcDbText
 73
     2
  0
LINE
  5
1B7E
330
21
100
AcDbEntity
  8
zubanwaku
100
AcDbLine
 10
245.6525644168749
 20
49.67833703929375
 30
0.0
 11
345.6525644168749
 21
49.67833703929375
 31
0.0
  0
LINE
  5
1B7F
330
21
100
AcDbEntity
  8
zubanwaku
100
AcDbLine
 10
245.6525644168749
 20
104.6783370392937
 30
0.0
 11
345.6525644168749
 21
104.6783370392937
 31
0.0
  0
LINE
  5
1B80
330
21
100
AcDbEntity
  8
zubanwaku
100
AcDbLine
 10
245.6525644168749
 20
94.67833703929375
 30
0.0
 11
345.6525644168749
 21
94.67833703929375
 31
0.0
  0
LINE
  5
1B81
330
21
100
AcDbEntity
  8
zubanwaku
100
AcDbLine
 10
245.6525644168749
 20
89.67833703929375
 30
0.0
 11
345.6525644168749
 21
89.67833703929375
 31
0.0
  0
LINE
  5
1B82
330
21
100
AcDbEntity
  8
zubanwaku
100
AcDbLine
 10
245.6525644168749
 20
84.67833703929375
 30
0.0
 11
345.6525644168749
 21
84.67833703929375
 31
0.0
  0
LINE
  5
1B83
330
21
100
AcDbEntity
  8
zubanwaku
100
AcDbLine
 10
245.6525644168749
 20
79.67833703929375
 30
0.0
 11
345.6525644168749
 21
79.67833703929375
 31
0.0
  0
LINE
  5
1B84
330
21
100
AcDbEntity
  8
zubanwaku
100
AcDbLine
 10
245.6525644168749
 20
74.67833703929375
 30
0.0
 11
345.6525644168749
 21
74.67833703929375
 31
0.0
  0
LINE
  5
1B85
330
21
100
AcDbEntity
  8
zubanwaku
100
AcDbLine
 10
245.6525644168749
 20
69.67833703929375
 30
0.0
 11
345.6525644168749
 21
69.67833703929375
 31
0.0
  0
LINE
  5
1B86
330
21
100
AcDbEntity
  8
zubanwaku
100
AcDbLine
 10
245.6525644168749
 20
64.67833703929375
 30
0.0
 11
345.6525644168749
 21
64.67833703929375
 31
0.0
  0
LINE
  5
1B87
330
21
100
AcDbEntity
  8
zubanwaku
100
AcDbLine
 10
245.6525644168749
 20
59.67833703929375
 30
0.0
 11
345.6525644168749
 21
59.67833703929375
 31
0.0
  0
LINE
  5
1B88
330
21
100
AcDbEntity
  8
zubanwaku
100
AcDbLine
 10
245.6525644168749
 20
54.67833703929375
 30
0.0
 11
345.6525644168749
 21
54.67833703929375
 31
0.0
  0
LINE
  5
1B89
330
21
100
AcDbEntity
  8
zubanwaku
100
AcDbLine
 10
245.6525644168749
 20
114.6783370392937
 30
0.0
 11
345.6525644168749
 21
114.6783370392937
 31
0.0
  0
LINE
  5
1B8A
330
21
100
AcDbEntity
  8
zubanwaku
100
AcDbLine
 10
245.6525644168749
 20
124.6783370392937
 30
0.0
 11
345.6525644168749
 21
124.6783370392937
 31
0.0
  0
LINE
  5
1B8B
330
21
100
AcDbEntity
  8
zubanwaku
100
AcDbLine
 10
245.6525644168749
 20
129.6783370392937
 30
0.0
 11
345.6525644168749
 21
129.6783370392937
 31
0.0
  0
LINE
  5
1B8C
330
21
100
AcDbEntity
  8
zubanwaku
100
AcDbLine
 10
245.6525644168749
 20
134.6783370392937
 30
0.0
 11
345.6525644168749
 21
134.6783370392937
 31
0.0
  0
LINE
  5
1B8D
330
21
100
AcDbEntity
  8
zubanwaku
100
AcDbLine
 10
245.6525644168749
 20
139.6783370392937
 30
0.0
 11
345.6525644168749
 21
139.6783370392937
 31
0.0
  0
LINE
  5
1B8E
330
21
100
AcDbEntity
  8
zubanwaku
100
AcDbLine
 10
245.6525644168749
 20
144.6783370392937
 30
0.0
 11
345.6525644168749
 21
144.6783370392937
 31
0.0
  0
LINE
  5
1B8F
330
21
100
AcDbEntity
  8
zubanwaku
100
AcDbLine
 10
245.6525644168749
 20
149.6783370392937
 30
0.0
 11
345.6525644168749
 21
149.6783370392937
 31
0.0
  0
LINE
  5
1B90
330
21
100
AcDbEntity
  8
zubanwaku
100
AcDbLine
 10
245.6525644168749
 20
154.6783370392937
 30
0.0
 11
345.6525644168749
 21
154.6783370392937
 31
0.0
  0
LINE
  5
1B91
330
21
100
AcDbEntity
  8
zubanwaku
100
AcDbLine
 10
245.6525644168749
 20
159.6783370392937
 30
0.0
 11
345.6525644168749
 21
159.6783370392937
 31
0.0
  0
LINE
  5
1B92
330
21
100
AcDbEntity
  8
zubanwaku
100
AcDbLine
 10
245.6525644168749
 20
164.6783370392937
 30
0.0
 11
345.6525644168749
 21
164.6783370392937
 31
0.0
  0
LINE
  5
1B93
330
21
100
AcDbEntity
  8
shiyouwaku
100
AcDbLine
 10
245.6525644168749
 20
169.6783370392937
 30
0.0
 11
245.652564416875
 21
49.67833703929375
 31
0.0
  0
LINE
  5
1B94
330
21
100
AcDbEntity
  8
zubanwaku
100
AcDbLine
 10
245.6525644168749
 20
169.6783370392937
 30
0.0
 11
345.6525644168749
 21
169.6783370392937
 31
0.0
  0
TEXT
  5
1B95
330
21
100
AcDbEntity
  8
moji
100
AcDbText
 10
283.4525644168749
 20
165.6783370392937
 30
0.0
 40
3.0
  1
仕　　　　　様
 72
     1
 11
295.6525644168749
 21
167.1783370392937
 31
0.0
100
AcDbText
 73
     2
  0
LINE
  5
1B96
102
{ACAD_REACTORS
330
1B5D
102
}
330
21
100
AcDbEntity
  8
gaikei
100
AcDbLine
 10
80.06135507589618
 20
103.9011661999167
 30
0.0
 11
86.56135507589619
 21
103.9011661999167
 31
0.0
  0
ARC
  5
1B97
330
21
100
AcDbEntity
  8
gaikei
100
AcDbCircle
 10
139.6587738741525
 20
104.9011661999167
 30
0.0
 40
1.050000000000011
100
AcDbArc
 50
180.0000000000016
 51
359.9999999999984
  0
LINE
  5
1B98
330
21
100
AcDbEntity
  8
gaikei
100
AcDbLine
 10
80.06135507589617
 20
63.72460453432927
 30
0.0
 11
86.56135507589615
 21
63.72460453432921
 31
0.0
  0
LINE
  5
1B99
330
21
100
AcDbEntity
  8
gaikei
100
AcDbLine
 10
80.06135507589622
 20
65.72460453432928
 30
0.0
 11
86.56135507589615
 21
65.72460453432928
 31
0.0
  0
LINE
  5
1B9A
330
21
100
AcDbEntity
  8
gaikei
100
AcDbLine
 10
85.13635507589615
 20
139.9011661999166
 30
0.0
 11
85.13635507589615
 21
133.4011661999166
 31
0.0
  0
LINE
  5
1B9B
330
21
100
AcDbEntity
  8
gaikei
100
AcDbLine
 10
85.13635507589615
 20
133.4011661999166
 30
0.0
 11
81.48635507589617
 21
133.4011661999166
 31
0.0
  0
LINE
  5
1B9C
330
21
100
AcDbEntity
  8
gaikei
100
AcDbLine
 10
81.48635507589617
 20
133.4011661999166
 30
0.0
 11
81.48635507589615
 21
139.9011661999166
 31
0.0
  0
LINE
  5
1B9D
330
21
100
AcDbEntity
  8
fuzoku
100
AcDbLine
 10
85.13635507589615
 20
133.8011661999167
 30
0.0
 11
81.48635507589617
 21
133.8011661999167
 31
0.0
  0
LINE
  5
1B9E
330
21
100
AcDbEntity
  8
fuzoku
100
AcDbLine
 10
85.13635507589615
 20
137.9011661999166
 30
0.0
 11
81.48635507589615
 21
137.9011661999166
 31
0.0
  0
LINE
  5
1B9F
330
21
100
AcDbEntity
  8
fuzoku
100
AcDbLine
 10
85.13635507589615
 20
137.6511661999166
 30
0.0
 11
81.48635507589615
 21
137.6511661999166
 31
0.0
  0
ARC
  5
1BA0
330
21
100
AcDbEntity
  8
fuzoku
100
AcDbCircle
 10
83.31135507589616
 20
135.7261661999166
 30
0.0
 40
2.0
100
AcDbArc
 50
105.7405485251688
 51
155.8531520034985
  0
CIRCLE
  5
1BA1
330
21
100
AcDbEntity
  8
fuzoku
100
AcDbCircle
 10
83.31135507589616
 20
135.7261661999166
 30
0.0
 40
1.5
  0
ARC
  5
1BA2
330
21
100
AcDbEntity
  8
fuzoku
100
AcDbCircle
 10
83.31135507589616
 20
135.7261661999166
 30
0.0
 40
2.0
100
AcDbArc
 50
204.1468479965015
 51
254.2594514748312
  0
ARC
  5
1BA3
330
21
100
AcDbEntity
  8
fuzoku
100
AcDbCircle
 10
83.31135507589616
 20
135.7261661999166
 30
0.0
 40
2.0
100
AcDbArc
 50
285.7405485251689
 51
335.8531520034985
  0
ARC
  5
1BA4
330
21
100
AcDbEntity
  8
fuzoku
100
AcDbCircle
 10
83.31135507589616
 20
135.7261661999166
 30
0.0
 40
2.0
100
AcDbArc
 50
24.1468479965015
 51
74.25945147483116
  0
LINE
  5
1BA5
330
21
100
AcDbEntity
  8
fuzoku
100
AcDbLine
 10
83.4613550758962
 20
134.4761661999166
 30
0.0
 11
83.46135507589613
 21
135.5761661999166
 31
0.0
  0
LINE
  5
1BA6
330
21
100
AcDbEntity
  8
fuzoku
100
AcDbLine
 10
83.16135507589619
 20
134.4761661999166
 30
0.0
 11
83.16135507589615
 21
135.5761661999166
 31
0.0
  0
LINE
  5
1BA7
330
21
100
AcDbEntity
  8
fuzoku
100
AcDbLine
 10
83.46135507589613
 20
135.5761661999166
 30
0.0
 11
84.80383623155606
 21
135.5761661999166
 31
0.0
  0
LINE
  5
1BA8
330
21
100
AcDbEntity
  8
fuzoku
100
AcDbLine
 10
83.46135507589613
 20
135.8761661999166
 30
0.0
 11
84.80383623155606
 21
135.8761661999166
 31
0.0
  0
LINE
  5
1BA9
330
21
100
AcDbEntity
  8
fuzoku
100
AcDbLine
 10
83.46135507589613
 20
135.8761661999166
 30
0.0
 11
83.46135507589613
 21
136.9761661999166
 31
0.0
  0
LINE
  5
1BAA
330
21
100
AcDbEntity
  8
fuzoku
100
AcDbLine
 10
83.16135507589612
 20
135.8761661999166
 30
0.0
 11
83.16135507589619
 21
136.9761661999166
 31
0.0
  0
LINE
  5
1BAB
330
21
100
AcDbEntity
  8
fuzoku
100
AcDbLine
 10
81.8188739202362
 20
135.8761661999166
 30
0.0
 11
83.16135507589612
 21
135.8761661999166
 31
0.0
  0
LINE
  5
1BAC
330
21
100
AcDbEntity
  8
fuzoku
100
AcDbLine
 10
81.8188739202362
 20
135.5761661999166
 30
0.0
 11
83.16135507589615
 21
135.5761661999166
 31
0.0
  0
LINE
  5
1BAD
330
21
100
AcDbEntity
  8
gaikei
100
AcDbLine
 10
81.48635507589615
 20
138.9011661999166
 30
0.0
 11
85.13635507589615
 21
138.9011661999166
 31
0.0
  0
LINE
  5
1BAE
330
21
100
AcDbEntity
  8
gaikei
100
AcDbLine
 10
77.13635507589614
 20
138.9011661999166
 30
0.0
 11
80.78635507589615
 21
138.9011661999166
 31
0.0
  0
LINE
  5
1BAF
330
21
100
AcDbEntity
  8
fuzoku
100
AcDbLine
 10
77.46887392023623
 20
135.5761661999166
 30
0.0
 11
78.81135507589616
 21
135.5761661999166
 31
0.0
  0
LINE
  5
1BB0
330
21
100
AcDbEntity
  8
fuzoku
100
AcDbLine
 10
77.46887392023623
 20
135.8761661999165
 30
0.0
 11
78.81135507589613
 21
135.8761661999166
 31
0.0
  0
LINE
  5
1BB1
330
21
100
AcDbEntity
  8
fuzoku
100
AcDbLine
 10
78.81135507589613
 20
135.8761661999166
 30
0.0
 11
78.81135507589622
 21
136.9761661999166
 31
0.0
  0
LINE
  5
1BB2
330
21
100
AcDbEntity
  8
fuzoku
100
AcDbLine
 10
79.11135507589617
 20
135.8761661999166
 30
0.0
 11
79.11135507589617
 21
136.9761661999166
 31
0.0
  0
LINE
  5
1BB3
330
21
100
AcDbEntity
  8
fuzoku
100
AcDbLine
 10
79.11135507589617
 20
135.8761661999166
 30
0.0
 11
80.45383623155609
 21
135.8761661999166
 31
0.0
  0
LINE
  5
1BB4
330
21
100
AcDbEntity
  8
fuzoku
100
AcDbLine
 10
79.11135507589617
 20
135.5761661999166
 30
0.0
 11
80.45383623155609
 21
135.5761661999166
 31
0.0
  0
LINE
  5
1BB5
330
21
100
AcDbEntity
  8
fuzoku
100
AcDbLine
 10
78.81135507589616
 20
134.4761661999166
 30
0.0
 11
78.81135507589616
 21
135.5761661999166
 31
0.0
  0
LINE
  5
1BB6
330
21
100
AcDbEntity
  8
fuzoku
100
AcDbLine
 10
79.11135507589617
 20
134.4761661999166
 30
0.0
 11
79.11135507589617
 21
135.5761661999166
 31
0.0
  0
ARC
  5
1BB7
330
21
100
AcDbEntity
  8
fuzoku
100
AcDbCircle
 10
78.96135507589614
 20
135.7261661999166
 30
0.0
 40
2.0
100
AcDbArc
 50
24.1468479965015
 51
74.25945147483116
  0
ARC
  5
1BB8
330
21
100
AcDbEntity
  8
fuzoku
100
AcDbCircle
 10
78.96135507589614
 20
135.7261661999166
 30
0.0
 40
2.0
100
AcDbArc
 50
285.7405485251689
 51
335.8531520034985
  0
ARC
  5
1BB9
330
21
100
AcDbEntity
  8
fuzoku
100
AcDbCircle
 10
78.96135507589614
 20
135.7261661999166
 30
0.0
 40
2.0
100
AcDbArc
 50
204.1468479965015
 51
254.2594514748312
  0
CIRCLE
  5
1BBA
330
21
100
AcDbEntity
  8
fuzoku
100
AcDbCircle
 10
78.96135507589614
 20
135.7261661999166
 30
0.0
 40
1.5
  0
ARC
  5
1BBB
330
21
100
AcDbEntity
  8
fuzoku
100
AcDbCircle
 10
78.96135507589614
 20
135.7261661999166
 30
0.0
 40
2.0
100
AcDbArc
 50
105.7405485251688
 51
155.8531520034985
  0
LINE
  5
1BBC
330
21
100
AcDbEntity
  8
fuzoku
100
AcDbLine
 10
80.78635507589615
 20
137.6511661999166
 30
0.0
 11
77.13635507589614
 21
137.6511661999166
 31
0.0
  0
LINE
  5
1BBD
330
21
100
AcDbEntity
  8
fuzoku
100
AcDbLine
 10
80.78635507589615
 20
137.9011661999166
 30
0.0
 11
77.13635507589614
 21
137.9011661999166
 31
0.0
  0
LINE
  5
1BBE
330
21
100
AcDbEntity
  8
fuzoku
100
AcDbLine
 10
80.78635507589618
 20
133.8011661999167
 30
0.0
 11
77.13635507589614
 21
133.8011661999166
 31
0.0
  0
LINE
  5
1BBF
330
21
100
AcDbEntity
  8
gaikei
100
AcDbLine
 10
77.13635507589614
 20
133.4011661999166
 30
0.0
 11
77.13635507589614
 21
139.9011661999166
 31
0.0
  0
LINE
  5
1BC0
330
21
100
AcDbEntity
  8
gaikei
100
AcDbLine
 10
80.78635507589618
 20
133.4011661999166
 30
0.0
 11
77.13635507589614
 21
133.4011661999166
 31
0.0
  0
LINE
  5
1BC1
330
21
100
AcDbEntity
  8
gaikei
100
AcDbLine
 10
80.78635507589615
 20
139.9011661999166
 30
0.0
 11
80.78635507589618
 21
133.4011661999166
 31
0.0
  0
LINE
  5
1BC2
330
21
100
AcDbEntity
  8
gaikei
100
AcDbLine
 10
72.78635507589612
 20
138.9011661999166
 30
0.0
 11
76.43635507589616
 21
138.9011661999166
 31
0.0
  0
LINE
  5
1BC3
330
21
100
AcDbEntity
  8
fuzoku
100
AcDbLine
 10
73.11887392023621
 20
135.5761661999166
 30
0.0
 11
74.46135507589613
 21
135.5761661999166
 31
0.0
  0
LINE
  5
1BC4
330
21
100
AcDbEntity
  8
fuzoku
100
AcDbLine
 10
73.11887392023621
 20
135.8761661999165
 30
0.0
 11
74.46135507589613
 21
135.8761661999166
 31
0.0
  0
LINE
  5
1BC5
330
21
100
AcDbEntity
  8
fuzoku
100
AcDbLine
 10
74.46135507589613
 20
135.8761661999166
 30
0.0
 11
74.4613550758962
 21
136.9761661999165
 31
0.0
  0
LINE
  5
1BC6
330
21
100
AcDbEntity
  8
fuzoku
100
AcDbLine
 10
74.76135507589614
 20
135.8761661999166
 30
0.0
 11
74.76135507589614
 21
136.9761661999165
 31
0.0
  0
LINE
  5
1BC7
330
21
100
AcDbEntity
  8
fuzoku
100
AcDbLine
 10
74.76135507589614
 20
135.8761661999166
 30
0.0
 11
76.10383623155607
 21
135.8761661999165
 31
0.0
  0
LINE
  5
1BC8
330
21
100
AcDbEntity
  8
fuzoku
100
AcDbLine
 10
74.76135507589614
 20
135.5761661999166
 30
0.0
 11
76.10383623155607
 21
135.5761661999166
 31
0.0
  0
LINE
  5
1BC9
330
21
100
AcDbEntity
  8
fuzoku
100
AcDbLine
 10
74.4613550758962
 20
134.4761661999166
 30
0.0
 11
74.46135507589613
 21
135.5761661999166
 31
0.0
  0
LINE
  5
1BCA
330
21
100
AcDbEntity
  8
fuzoku
100
AcDbLine
 10
74.76135507589617
 20
134.4761661999166
 30
0.0
 11
74.76135507589614
 21
135.5761661999166
 31
0.0
  0
ARC
  5
1BCB
330
21
100
AcDbEntity
  8
fuzoku
100
AcDbCircle
 10
74.61135507589614
 20
135.7261661999166
 30
0.0
 40
2.0
100
AcDbArc
 50
24.1468479965015
 51
74.25945147483116
  0
ARC
  5
1BCC
330
21
100
AcDbEntity
  8
fuzoku
100
AcDbCircle
 10
74.61135507589614
 20
135.7261661999166
 30
0.0
 40
2.0
100
AcDbArc
 50
285.7405485251689
 51
335.8531520034985
  0
ARC
  5
1BCD
330
21
100
AcDbEntity
  8
fuzoku
100
AcDbCircle
 10
74.61135507589614
 20
135.7261661999166
 30
0.0
 40
2.0
100
AcDbArc
 50
204.1468479965015
 51
254.2594514748312
  0
CIRCLE
  5
1BCE
330
21
100
AcDbEntity
  8
fuzoku
100
AcDbCircle
 10
74.61135507589614
 20
135.7261661999166
 30
0.0
 40
1.5
  0
ARC
  5
1BCF
330
21
100
AcDbEntity
  8
fuzoku
100
AcDbCircle
 10
74.61135507589614
 20
135.7261661999166
 30
0.0
 40
2.0
100
AcDbArc
 50
105.7405485251688
 51
155.8531520034985
  0
LINE
  5
1BD0
330
21
100
AcDbEntity
  8
fuzoku
100
AcDbLine
 10
76.43635507589616
 20
137.6511661999166
 30
0.0
 11
72.78635507589612
 21
137.6511661999166
 31
0.0
  0
LINE
  5
1BD1
330
21
100
AcDbEntity
  8
fuzoku
100
AcDbLine
 10
76.43635507589616
 20
137.9011661999166
 30
0.0
 11
72.78635507589612
 21
137.9011661999166
 31
0.0
  0
LINE
  5
1BD2
330
21
100
AcDbEntity
  8
fuzoku
100
AcDbLine
 10
76.43635507589616
 20
133.8011661999166
 30
0.0
 11
72.78635507589616
 21
133.8011661999166
 31
0.0
  0
LINE
  5
1BD3
330
21
100
AcDbEntity
  8
gaikei
100
AcDbLine
 10
72.78635507589616
 20
133.4011661999166
 30
0.0
 11
72.78635507589612
 21
139.9011661999166
 31
0.0
  0
LINE
  5
1BD4
330
21
100
AcDbEntity
  8
gaikei
100
AcDbLine
 10
76.43635507589616
 20
133.4011661999166
 30
0.0
 11
72.78635507589616
 21
133.4011661999166
 31
0.0
  0
LINE
  5
1BD5
330
21
100
AcDbEntity
  8
gaikei
100
AcDbLine
 10
76.43635507589616
 20
139.9011661999166
 30
0.0
 11
76.43635507589616
 21
133.4011661999166
 31
0.0
  0
LINE
  5
1BD6
330
21
100
AcDbEntity
  8
gaikei
100
AcDbLine
 10
85.83635507589614
 20
138.9011661999166
 30
0.0
 11
89.48635507589614
 21
138.9011661999166
 31
0.0
  0
LINE
  5
1BD7
330
21
100
AcDbEntity
  8
fuzoku
100
AcDbLine
 10
86.16887392023622
 20
135.5761661999166
 30
0.0
 11
87.51135507589614
 21
135.5761661999166
 31
0.0
  0
LINE
  5
1BD8
330
21
100
AcDbEntity
  8
fuzoku
100
AcDbLine
 10
86.16887392023622
 20
135.8761661999166
 30
0.0
 11
87.51135507589612
 21
135.8761661999166
 31
0.0
  0
LINE
  5
1BD9
330
21
100
AcDbEntity
  8
fuzoku
100
AcDbLine
 10
87.51135507589612
 20
135.8761661999166
 30
0.0
 11
87.51135507589614
 21
136.9761661999166
 31
0.0
  0
LINE
  5
1BDA
330
21
100
AcDbEntity
  8
fuzoku
100
AcDbLine
 10
87.81135507589615
 20
135.8761661999166
 30
0.0
 11
87.81135507589615
 21
136.9761661999166
 31
0.0
  0
LINE
  5
1BDB
330
21
100
AcDbEntity
  8
fuzoku
100
AcDbLine
 10
87.81135507589615
 20
135.8761661999166
 30
0.0
 11
89.15383623155609
 21
135.8761661999166
 31
0.0
  0
LINE
  5
1BDC
330
21
100
AcDbEntity
  8
fuzoku
100
AcDbLine
 10
87.81135507589615
 20
135.5761661999166
 30
0.0
 11
89.15383623155609
 21
135.5761661999166
 31
0.0
  0
LINE
  5
1BDD
330
21
100
AcDbEntity
  8
fuzoku
100
AcDbLine
 10
87.51135507589614
 20
134.4761661999166
 30
0.0
 11
87.51135507589614
 21
135.5761661999166
 31
0.0
  0
LINE
  5
1BDE
330
21
100
AcDbEntity
  8
fuzoku
100
AcDbLine
 10
87.81135507589615
 20
134.4761661999166
 30
0.0
 11
87.81135507589615
 21
135.5761661999166
 31
0.0
  0
ARC
  5
1BDF
330
21
100
AcDbEntity
  8
fuzoku
100
AcDbCircle
 10
87.66135507589613
 20
135.7261661999166
 30
0.0
 40
2.0
100
AcDbArc
 50
24.1468479965015
 51
74.25945147483116
  0
ARC
  5
1BE0
330
21
100
AcDbEntity
  8
fuzoku
100
AcDbCircle
 10
87.66135507589613
 20
135.7261661999166
 30
0.0
 40
2.0
100
AcDbArc
 50
285.7405485251689
 51
335.8531520034985
  0
ARC
  5
1BE1
330
21
100
AcDbEntity
  8
fuzoku
100
AcDbCircle
 10
87.66135507589613
 20
135.7261661999166
 30
0.0
 40
2.0
100
AcDbArc
 50
204.1468479965015
 51
254.2594514748312
  0
CIRCLE
  5
1BE2
330
21
100
AcDbEntity
  8
fuzoku
100
AcDbCircle
 10
87.66135507589613
 20
135.7261661999166
 30
0.0
 40
1.5
  0
ARC
  5
1BE3
330
21
100
AcDbEntity
  8
fuzoku
100
AcDbCircle
 10
87.66135507589613
 20
135.7261661999166
 30
0.0
 40
2.0
100
AcDbArc
 50
105.7405485251688
 51
155.8531520034985
  0
LINE
  5
1BE4
330
21
100
AcDbEntity
  8
fuzoku
100
AcDbLine
 10
89.48635507589614
 20
137.6511661999166
 30
0.0
 11
85.83635507589614
 21
137.6511661999166
 31
0.0
  0
LINE
  5
1BE5
330
21
100
AcDbEntity
  8
fuzoku
100
AcDbLine
 10
89.48635507589614
 20
137.9011661999166
 30
0.0
 11
85.83635507589614
 21
137.9011661999166
 31
0.0
  0
LINE
  5
1BE6
330
21
100
AcDbEntity
  8
fuzoku
100
AcDbLine
 10
89.48635507589617
 20
133.8011661999167
 30
0.0
 11
85.83635507589614
 21
133.8011661999167
 31
0.0
  0
LINE
  5
1BE7
330
21
100
AcDbEntity
  8
gaikei
100
AcDbLine
 10
85.83635507589614
 20
133.4011661999166
 30
0.0
 11
85.83635507589614
 21
139.9011661999166
 31
0.0
  0
LINE
  5
1BE8
330
21
100
AcDbEntity
  8
gaikei
100
AcDbLine
 10
89.48635507589617
 20
133.4011661999167
 30
0.0
 11
85.83635507589614
 21
133.4011661999166
 31
0.0
  0
LINE
  5
1BE9
330
21
100
AcDbEntity
  8
gaikei
100
AcDbLine
 10
89.48635507589614
 20
139.9011661999166
 30
0.0
 11
89.48635507589617
 21
133.4011661999167
 31
0.0
  0
LINE
  5
1BEA
330
21
100
AcDbEntity
  8
gaikei
100
AcDbLine
 10
90.18635507589612
 20
138.9011661999166
 30
0.0
 11
93.83635507589614
 21
138.9011661999166
 31
0.0
  0
LINE
  5
1BEB
330
21
100
AcDbEntity
  8
fuzoku
100
AcDbLine
 10
90.51887392023621
 20
135.5761661999166
 30
0.0
 11
91.86135507589616
 21
135.5761661999167
 31
0.0
  0
LINE
  5
1BEC
330
21
100
AcDbEntity
  8
fuzoku
100
AcDbLine
 10
90.51887392023621
 20
135.8761661999166
 30
0.0
 11
91.86135507589614
 21
135.8761661999166
 31
0.0
  0
LINE
  5
1BED
330
21
100
AcDbEntity
  8
fuzoku
100
AcDbLine
 10
91.86135507589614
 20
135.8761661999166
 30
0.0
 11
91.8613550758962
 21
136.9761661999167
 31
0.0
  0
LINE
  5
1BEE
330
21
100
AcDbEntity
  8
fuzoku
100
AcDbLine
 10
92.16135507589616
 20
135.8761661999166
 30
0.0
 11
92.16135507589617
 21
136.9761661999167
 31
0.0
  0
LINE
  5
1BEF
330
21
100
AcDbEntity
  8
fuzoku
100
AcDbLine
 10
92.16135507589616
 20
135.8761661999166
 30
0.0
 11
93.50383623155607
 21
135.8761661999166
 31
0.0
  0
LINE
  5
1BF0
330
21
100
AcDbEntity
  8
fuzoku
100
AcDbLine
 10
92.16135507589616
 20
135.5761661999166
 30
0.0
 11
93.50383623155607
 21
135.5761661999166
 31
0.0
  0
LINE
  5
1BF1
330
21
100
AcDbEntity
  8
fuzoku
100
AcDbLine
 10
91.86135507589616
 20
134.4761661999166
 30
0.0
 11
91.86135507589616
 21
135.5761661999167
 31
0.0
  0
LINE
  5
1BF2
330
21
100
AcDbEntity
  8
fuzoku
100
AcDbLine
 10
92.16135507589617
 20
134.4761661999166
 30
0.0
 11
92.16135507589616
 21
135.5761661999166
 31
0.0
  0
ARC
  5
1BF3
330
21
100
AcDbEntity
  8
fuzoku
100
AcDbCircle
 10
92.01135507589615
 20
135.7261661999166
 30
0.0
 40
2.0
100
AcDbArc
 50
24.1468479965015
 51
74.25945147483116
  0
ARC
  5
1BF4
330
21
100
AcDbEntity
  8
fuzoku
100
AcDbCircle
 10
92.01135507589615
 20
135.7261661999166
 30
0.0
 40
2.0
100
AcDbArc
 50
285.7405485251689
 51
335.8531520034985
  0
ARC
  5
1BF5
330
21
100
AcDbEntity
  8
fuzoku
100
AcDbCircle
 10
92.01135507589615
 20
135.7261661999166
 30
0.0
 40
2.0
100
AcDbArc
 50
204.1468479965015
 51
254.2594514748312
  0
CIRCLE
  5
1BF6
330
21
100
AcDbEntity
  8
fuzoku
100
AcDbCircle
 10
92.01135507589615
 20
135.7261661999166
 30
0.0
 40
1.5
  0
ARC
  5
1BF7
330
21
100
AcDbEntity
  8
fuzoku
100
AcDbCircle
 10
92.01135507589615
 20
135.7261661999166
 30
0.0
 40
2.0
100
AcDbArc
 50
105.7405485251688
 51
155.8531520034985
  0
LINE
  5
1BF8
330
21
100
AcDbEntity
  8
fuzoku
100
AcDbLine
 10
93.83635507589614
 20
137.6511661999166
 30
0.0
 11
90.18635507589612
 21
137.6511661999166
 31
0.0
  0
LINE
  5
1BF9
330
21
100
AcDbEntity
  8
fuzoku
100
AcDbLine
 10
93.83635507589614
 20
137.9011661999166
 30
0.0
 11
90.18635507589612
 21
137.9011661999166
 31
0.0
  0
LINE
  5
1BFA
330
21
100
AcDbEntity
  8
fuzoku
100
AcDbLine
 10
93.83635507589616
 20
133.8011661999167
 30
0.0
 11
90.18635507589616
 21
133.8011661999167
 31
0.0
  0
LINE
  5
1BFB
330
21
100
AcDbEntity
  8
gaikei
100
AcDbLine
 10
90.18635507589616
 20
133.4011661999167
 30
0.0
 11
90.18635507589612
 21
139.9011661999166
 31
0.0
  0
LINE
  5
1BFC
330
21
100
AcDbEntity
  8
gaikei
100
AcDbLine
 10
93.83635507589616
 20
133.4011661999167
 30
0.0
 11
90.18635507589616
 21
133.4011661999167
 31
0.0
  0
LINE
  5
1BFD
330
21
100
AcDbEntity
  8
gaikei
100
AcDbLine
 10
93.83635507589614
 20
139.9011661999166
 30
0.0
 11
93.83635507589616
 21
133.4011661999167
 31
0.0
  0
LINE
  5
1BFE
330
21
100
AcDbEntity
  8
fuzoku
100
AcDbLine
 10
74.4613550758962
 20
134.4761661999166
 30
0.0
 11
74.76135507589617
 21
134.4761661999166
 31
0.0
  0
LINE
  5
1BFF
330
21
100
AcDbEntity
  8
fuzoku
100
AcDbLine
 10
78.81135507589616
 20
134.4761661999166
 30
0.0
 11
79.11135507589617
 21
134.4761661999166
 31
0.0
  0
LINE
  5
1C00
330
21
100
AcDbEntity
  8
fuzoku
100
AcDbLine
 10
83.16135507589619
 20
134.4761661999166
 30
0.0
 11
83.4613550758962
 21
134.4761661999166
 31
0.0
  0
LINE
  5
1C01
330
21
100
AcDbEntity
  8
fuzoku
100
AcDbLine
 10
87.51135507589614
 20
134.4761661999166
 30
0.0
 11
87.81135507589615
 21
134.4761661999166
 31
0.0
  0
LINE
  5
1C02
330
21
100
AcDbEntity
  8
fuzoku
100
AcDbLine
 10
91.86135507589616
 20
134.4761661999166
 30
0.0
 11
92.16135507589617
 21
134.4761661999166
 31
0.0
  0
LINE
  5
1C03
330
21
100
AcDbEntity
  8
fuzoku
100
AcDbLine
 10
91.86135507589616
 20
136.9761661999167
 30
0.0
 11
92.16135507589617
 21
136.9761661999167
 31
0.0
  0
LINE
  5
1C04
330
21
100
AcDbEntity
  8
fuzoku
100
AcDbLine
 10
87.51135507589614
 20
136.9761661999166
 30
0.0
 11
87.81135507589615
 21
136.9761661999166
 31
0.0
  0
LINE
  5
1C05
330
21
100
AcDbEntity
  8
fuzoku
100
AcDbLine
 10
83.16135507589615
 20
136.9761661999166
 30
0.0
 11
83.4613550758962
 21
136.9761661999166
 31
0.0
  0
LINE
  5
1C06
330
21
100
AcDbEntity
  8
fuzoku
100
AcDbLine
 10
78.81135507589616
 20
136.9761661999166
 30
0.0
 11
79.11135507589617
 21
136.9761661999166
 31
0.0
  0
LINE
  5
1C07
330
21
100
AcDbEntity
  8
fuzoku
100
AcDbLine
 10
74.46135507589616
 20
136.9761661999165
 30
0.0
 11
74.76135507589614
 21
136.9761661999165
 31
0.0
  0
LINE
  5
1C08
330
21
100
AcDbEntity
  8
fuzoku
100
AcDbLine
 10
74.4613550758962
 20
107.8261661999166
 30
0.0
 11
74.76135507589621
 21
107.8261661999166
 31
0.0
  0
LINE
  5
1C09
330
21
100
AcDbEntity
  8
fuzoku
100
AcDbLine
 10
78.81135507589622
 20
107.8261661999166
 30
0.0
 11
79.11135507589623
 21
107.8261661999166
 31
0.0
  0
LINE
  5
1C0A
330
21
100
AcDbEntity
  8
fuzoku
100
AcDbLine
 10
83.16135507589619
 20
107.8261661999166
 30
0.0
 11
83.46135507589622
 21
107.8261661999166
 31
0.0
  0
LINE
  5
1C0B
330
21
100
AcDbEntity
  8
fuzoku
100
AcDbLine
 10
87.51135507589621
 20
107.8261661999166
 30
0.0
 11
87.81135507589622
 21
107.8261661999166
 31
0.0
  0
LINE
  5
1C0C
330
21
100
AcDbEntity
  8
fuzoku
100
AcDbLine
 10
91.8613550758962
 20
107.8261661999166
 30
0.0
 11
92.16135507589621
 21
107.8261661999166
 31
0.0
  0
LINE
  5
1C0D
330
21
100
AcDbEntity
  8
fuzoku
100
AcDbLine
 10
91.8613550758962
 20
110.3261661999166
 30
0.0
 11
92.16135507589621
 21
110.3261661999166
 31
0.0
  0
LINE
  5
1C0E
330
21
100
AcDbEntity
  8
fuzoku
100
AcDbLine
 10
87.51135507589621
 20
110.3261661999166
 30
0.0
 11
87.81135507589622
 21
110.3261661999166
 31
0.0
  0
LINE
  5
1C0F
330
21
100
AcDbEntity
  8
fuzoku
100
AcDbLine
 10
83.16135507589619
 20
110.3261661999166
 30
0.0
 11
83.46135507589622
 21
110.3261661999166
 31
0.0
  0
LINE
  5
1C10
330
21
100
AcDbEntity
  8
fuzoku
100
AcDbLine
 10
78.81135507589622
 20
110.3261661999166
 30
0.0
 11
79.11135507589623
 21
110.3261661999166
 31
0.0
  0
LINE
  5
1C11
330
21
100
AcDbEntity
  8
fuzoku
100
AcDbLine
 10
74.4613550758962
 20
110.3261661999166
 30
0.0
 11
74.76135507589621
 21
110.3261661999166
 31
0.0
  0
CIRCLE
  5
1C12
330
21
100
AcDbEntity
  8
gaikei
100
AcDbCircle
 10
81.06135507589618
 20
125.4011661999166
 30
0.0
 40
1.5
  0
LINE
  5
1C13
330
21
100
AcDbEntity
  8
gaikei
100
AcDbLine
 10
84.56135507589619
 20
124.6511661999166
 30
0.0
 11
90.06135507589618
 21
124.6511661999166
 31
0.0
  0
LINE
  5
1C14
330
21
100
AcDbEntity
  8
gaikei
100
AcDbLine
 10
84.56135507589619
 20
126.9011661999166
 30
0.0
 11
90.06135507589618
 21
126.9011661999166
 31
0.0
  0
LINE
  5
1C15
330
21
100
AcDbEntity
  8
gaikei
100
AcDbLine
 10
84.56135507589619
 20
124.6511661999166
 30
0.0
 11
84.56135507589619
 21
126.9011661999166
 31
0.0
  0
LINE
  5
1C16
330
21
100
AcDbEntity
  8
gaikei
100
AcDbLine
 10
90.06135507589618
 20
124.6511661999166
 30
0.0
 11
90.06135507589618
 21
126.9011661999166
 31
0.0
  0
LINE
  5
1C17
330
21
100
AcDbEntity
  8
gaikei
100
AcDbLine
 10
147.6587738741525
 20
113.1011661999166
 30
0.0
 11
149.3921072074858
 21
113.1011661999167
 31
0.0
  0
LINE
  5
1C18
330
21
100
AcDbEntity
  8
gaikei
100
AcDbLine
 10
149.6587738741525
 20
112.9011661999167
 30
0.0
 11
150.6587738741525
 21
112.9011661999167
 31
0.0
  0
LINE
  5
1C19
330
21
100
AcDbEntity
  8
gaikei
100
AcDbLine
 10
80.06135507589618
 20
104.9011661999167
 30
0.0
 11
80.06135507589618
 21
103.9011661999167
 31
0.0
  0
LINE
  5
1C1A
330
21
100
AcDbEntity
  8
gaikei
100
AcDbLine
 10
86.56135507589615
 20
104.9011661999167
 30
0.0
 11
86.56135507589619
 21
103.9011661999167
 31
0.0
  0
LINE
  5
1C1B
330
21
100
AcDbEntity
  8
gaikei
100
AcDbLine
 10
129.5087738741526
 20
123.9011661999166
 30
0.0
 11
129.5087738741525
 21
120.9011661999167
 31
0.0
  0
LINE
  5
1C1C
330
21
100
AcDbEntity
  8
gaikei
100
AcDbLine
 10
129.5087738741525
 20
120.9011661999167
 30
0.0
 11
131.2587738741525
 21
120.9011661999167
 31
0.0
  0
LINE
  5
1C1D
330
21
100
AcDbEntity
  8
gaikei
100
AcDbLine
 10
129.5087738741526
 20
123.9011661999166
 30
0.0
 11
131.2587738741525
 21
123.9011661999167
 31
0.0
  0
LINE
  5
1C1E
330
21
100
AcDbEntity
  8
gaikei
100
AcDbLine
 10
129.2587738741526
 20
124.1511661999167
 30
0.0
 11
129.2587738741526
 21
120.6511661999167
 31
0.0
  0
LINE
  5
1C1F
330
21
100
AcDbEntity
  8
gaikei
100
AcDbLine
 10
131.2587738741525
 20
124.1511661999167
 30
0.0
 11
131.2587738741525
 21
120.6511661999167
 31
0.0
  0
ARC
  5
1C20
330
21
100
AcDbEntity
  8
gaikei
100
AcDbCircle
 10
117.6587738741525
 20
105.4011661999166
 30
0.0
 40
0.5
100
AcDbArc
 50
180.0
 51
270.0
  0
ARC
  5
1C21
102
{ACAD_REACTORS
330
1B66
102
}
330
21
100
AcDbEntity
  8
gaikei
100
AcDbCircle
 10
117.6587738741525
 20
139.4011661999167
 30
0.0
 40
0.5
100
AcDbArc
 50
90.0
 51
180.0
  0
LINE
  5
1C22
330
21
100
AcDbEntity
  8
gaikei
100
AcDbLine
 10
150.6587738741525
 20
112.9011661999167
 30
0.0
 11
150.6587738741525
 21
104.9011661999167
 31
0.0
  0
LINE
  5
1C23
330
21
100
AcDbEntity
  8
gaikei
100
AcDbLine
 10
150.6587738741526
 20
129.9011661999167
 30
0.0
 11
148.3087738741525
 21
130.6511661999167
 31
0.0
  0
LINE
  5
1C24
330
21
100
AcDbEntity
  8
gaikei
100
AcDbLine
 10
148.6587738741525
 20
113.6511661999167
 30
0.0
 11
150.6587738741525
 21
112.1511661999167
 31
0.0
  0
LINE
  5
1C25
330
21
100
AcDbEntity
  8
gaikei
100
AcDbLine
 10
147.6587738741525
 20
113.6511661999167
 30
0.0
 11
148.6587738741525
 21
113.6511661999167
 31
0.0
  0
LINE
  5
1C26
330
21
100
AcDbEntity
  8
gaikei
100
AcDbLine
 10
147.6587738741526
 20
131.1511661999167
 30
0.0
 11
148.3087738741526
 21
131.1511661999167
 31
0.0
  0
LINE
  5
1C27
330
21
100
AcDbEntity
  8
gaikei
100
AcDbLine
 10
148.3087738741526
 20
131.1511661999167
 30
0.0
 11
148.3087738741525
 21
130.6511661999167
 31
0.0
  0
LINE
  5
1C28
330
21
100
AcDbEntity
  8
gaikei
100
AcDbLine
 10
147.6587738741526
 20
131.1511661999167
 30
0.0
 11
147.6587738741525
 21
104.9011661999167
 31
0.0
  0
LINE
  5
1C29
330
21
100
AcDbEntity
  8
gaikei
100
AcDbLine
 10
129.2587738741526
 20
120.6511661999167
 30
0.0
 11
131.2587738741525
 21
120.6511661999167
 31
0.0
  0
LINE
  5
1C2A
330
21
100
AcDbEntity
  8
gaikei
100
AcDbLine
 10
129.2587738741526
 20
124.1511661999167
 30
0.0
 11
131.2587738741525
 21
124.1511661999167
 31
0.0
  0
LINE
  5
1C2B
330
21
100
AcDbEntity
  8
gaikei
100
AcDbLine
 10
93.56135507589618
 20
120.8511661999166
 30
0.0
 11
94.56135507589619
 21
120.8511661999166
 31
0.0
  0
LINE
  5
1C2C
330
21
100
AcDbEntity
  8
gaikei
100
AcDbLine
 10
93.56135507589618
 20
123.9511661999167
 30
0.0
 11
94.56135507589619
 21
123.9511661999166
 31
0.0
  0
LINE
  5
1C2D
330
21
100
AcDbEntity
  8
gaikei
100
AcDbLine
 10
72.36135507589617
 20
123.9511661999167
 30
0.0
 11
72.36135507589617
 21
120.8511661999166
 31
0.0
  0
LINE
  5
1C2E
330
21
100
AcDbEntity
  8
gaikei
100
AcDbLine
 10
73.06135507589619
 20
123.9511661999167
 30
0.0
 11
73.06135507589615
 21
120.8511661999166
 31
0.0
  0
LINE
  5
1C2F
330
21
100
AcDbEntity
  8
gaikei
100
AcDbLine
 10
117.1587738741525
 20
123.9511661999166
 30
0.0
 11
127.1587738741526
 21
123.9511661999166
 31
0.0
  0
LINE
  5
1C30
330
21
100
AcDbEntity
  8
gaikei
100
AcDbLine
 10
117.1587738741525
 20
120.8511661999167
 30
0.0
 11
127.1587738741526
 21
120.8511661999167
 31
0.0
  0
LINE
  5
1C31
330
21
100
AcDbEntity
  8
gaikei
100
AcDbLine
 10
117.1587738741525
 20
120.8511661999166
 30
0.0
 11
117.1587738741525
 21
105.4011661999166
 31
0.0
  0
LINE
  5
1C32
330
21
100
AcDbEntity
  8
gaikei
100
AcDbLine
 10
117.6587738741525
 20
123.9511661999166
 30
0.0
 11
117.6587738741525
 21
120.8511661999167
 31
0.0
  0
LINE
  5
1C33
330
21
100
AcDbEntity
  8
gaikei
100
AcDbLine
 10
94.26135507589618
 20
120.8511661999166
 30
0.0
 11
94.26135507589618
 21
123.9511661999166
 31
0.0
  0
LINE
  5
1C34
330
21
100
AcDbEntity
  8
gaikei
100
AcDbLine
 10
93.56135507589621
 20
120.8511661999166
 30
0.0
 11
93.56135507589621
 21
123.9511661999166
 31
0.0
  0
LINE
  5
1C35
102
{ACAD_REACTORS
330
1B63
330
1B60
330
1B5D
102
}
330
21
100
AcDbEntity
  8
gaikei
100
AcDbLine
 10
72.06135507589618
 20
139.9011661999166
 30
0.0
 11
72.06135507589618
 21
104.9011661999167
 31
0.0
  0
LINE
  5
1C36
102
{ACAD_REACTORS
330
1B63
102
}
330
21
100
AcDbEntity
  8
gaikei
100
AcDbLine
 10
94.56135507589619
 20
139.9011661999166
 30
0.0
 11
72.06135507589618
 21
139.9011661999166
 31
0.0
  0
LINE
  5
1C37
330
21
100
AcDbEntity
  8
gaikei
100
AcDbLine
 10
94.56135507589619
 20
104.9011661999167
 30
0.0
 11
94.56135507589619
 21
139.9011661999166
 31
0.0
  0
LINE
  5
1C38
330
21
100
AcDbEntity
  8
gaikei
100
AcDbLine
 10
72.06135507589618
 20
104.9011661999167
 30
0.0
 11
94.56135507589619
 21
104.9011661999167
 31
0.0
  0
ARC
  5
1C39
330
21
100
AcDbEntity
  8
gaikei
100
AcDbCircle
 10
79.43635507589618
 20
55.0746045343293
 30
0.0
 40
0.75
100
AcDbArc
 50
270.0
 51
0.0
  0
ARC
  5
1C3A
330
21
100
AcDbEntity
  8
gaikei
100
AcDbCircle
 10
87.18635507589619
 20
55.07460453432924
 30
0.0
 40
0.75
100
AcDbArc
 50
180.0
 51
269.999999999998
  0
LINE
  5
1C3B
330
21
100
AcDbEntity
  8
gaikei
100
AcDbLine
 10
87.18635507589615
 20
54.32460453432923
 30
0.0
 11
87.36135507589617
 21
54.32460453432923
 31
0.0
  0
LINE
  5
1C3C
330
21
100
AcDbEntity
  8
gaikei
100
AcDbLine
 10
79.2613550758962
 20
54.3246045343293
 30
0.0
 11
79.43635507589618
 21
54.3246045343293
 31
0.0
  0
LINE
  5
1C3D
330
21
100
AcDbEntity
  8
gaikei
100
AcDbLine
 10
80.18635507589616
 20
56.12460453432925
 30
0.0
 11
80.18635507589619
 21
55.0746045343293
 31
0.0
  0
LINE
  5
1C3E
330
21
100
AcDbEntity
  8
gaikei
100
AcDbLine
 10
86.43635507589621
 20
56.12460453432925
 30
0.0
 11
86.43635507589619
 21
55.07460453432924
 31
0.0
  0
LINE
  5
1C3F
330
21
100
AcDbEntity
  8
gaikei
100
AcDbLine
 10
79.2613550758962
 20
56.12460453432925
 30
0.0
 11
87.36135507589622
 21
56.12460453432925
 31
0.0
  0
LINE
  5
1C40
330
21
100
AcDbEntity
  8
gaikei
100
AcDbLine
 10
72.06135507589618
 20
56.72460453432927
 30
0.0
 11
94.56135507589619
 21
56.72460453432927
 31
0.0
  0
LINE
  5
1C41
330
21
100
AcDbEntity
  8
gaikei
100
AcDbLine
 10
79.2613550758962
 20
56.72460453432927
 30
0.0
 11
79.2613550758962
 21
53.72460453432927
 31
0.0
  0
LINE
  5
1C42
330
21
100
AcDbEntity
  8
gaikei
100
AcDbLine
 10
87.3613550758962
 20
56.72460453432927
 30
0.0
 11
87.36135507589617
 21
53.72460453432927
 31
0.0
  0
LINE
  5
1C43
330
21
100
AcDbEntity
  8
gaikei
100
AcDbLine
 10
80.06135507589622
 20
65.72460453432928
 30
0.0
 11
80.06135507589617
 21
63.72460453432927
 31
0.0
  0
LINE
  5
1C44
330
21
100
AcDbEntity
  8
gaikei
100
AcDbLine
 10
86.56135507589615
 20
65.72460453432928
 30
0.0
 11
86.56135507589615
 21
63.72460453432921
 31
0.0
  0
LINE
  5
1C45
330
21
100
AcDbEntity
  8
gaikei
100
AcDbLine
 10
72.06135507589618
 20
77.22460453432927
 30
0.0
 11
94.56135507589619
 21
77.22460453432927
 31
0.0
  0
LINE
  5
1C46
330
21
100
AcDbEntity
  8
gaikei
100
AcDbLine
 10
90.18635507589616
 20
87.22460453432921
 30
0.0
 11
90.18635507589616
 21
83.37460453432925
 31
0.0
  0
LINE
  5
1C47
330
21
100
AcDbEntity
  8
gaikei
100
AcDbLine
 10
93.8363550758962
 20
87.22460453432921
 30
0.0
 11
93.83635507589621
 21
83.37460453432925
 31
0.0
  0
LINE
  5
1C48
330
21
100
AcDbEntity
  8
fuzoku
100
AcDbLine
 10
90.18635507589619
 20
83.87460453432925
 30
0.0
 11
93.83635507589621
 21
83.87460453432925
 31
0.0
  0
LINE
  5
1C49
330
21
100
AcDbEntity
  8
gaikei
100
AcDbLine
 10
90.18635507589616
 20
83.37460453432925
 30
0.0
 11
93.83635507589621
 21
83.37460453432925
 31
0.0
  0
ELLIPSE
  5
1C4A
330
21
100
AcDbEntity
  8
fuzoku
100
AcDbEllipse
 10
92.01135507589617
 20
84.72460453432928
 30
0.0
 11
-1.5
 21
0.0
 31
0.0
210
0.0
220
0.0
230
1.0
 40
0.8854590366110906
 41
3.141592653589793
 42
4.612221559223117
  0
LINE
  5
1C4B
330
21
100
AcDbEntity
  8
fuzoku
100
AcDbLine
 10
91.86135507589623
 20
86.04613546058009
 30
0.0
 11
91.86135507589623
 21
85.22460453432927
 31
0.0
  0
LINE
  5
1C4C
330
21
100
AcDbEntity
  8
fuzoku
100
AcDbLine
 10
92.16135507589621
 20
86.04613546058009
 30
0.0
 11
92.16135507589621
 21
85.22460453432927
 31
0.0
  0
LINE
  5
1C4D
330
21
100
AcDbEntity
  8
fuzoku
100
AcDbLine
 10
91.86135507589623
 20
85.22460453432927
 30
0.0
 11
92.16135507589621
 21
85.22460453432927
 31
0.0
  0
ELLIPSE
  5
1C4E
330
21
100
AcDbEntity
  8
fuzoku
100
AcDbEllipse
 10
92.01135507589617
 20
84.72460453432928
 30
0.0
 11
-1.5
 21
0.0
 31
0.0
210
0.0
220
0.0
230
1.0
 40
0.8854590366110906
 41
4.812556401546224
 42
6.283185307179586
  0
LINE
  5
1C4F
330
21
100
AcDbEntity
  8
fuzoku
100
AcDbLine
 10
90.18635507589619
 20
84.37460453432924
 30
0.0
 11
93.83635507589621
 21
84.37460453432924
 31
0.0
  0
LINE
  5
1C50
330
21
100
AcDbEntity
  8
fuzoku
100
AcDbLine
 10
90.51135507589618
 20
84.72460453432928
 30
0.0
 11
93.51135507589617
 21
84.72460453432928
 31
0.0
  0
LINE
  5
1C51
330
21
100
AcDbEntity
  8
fuzoku
100
AcDbLine
 10
90.51135507589618
 20
84.72460453432928
 30
0.0
 11
90.51135507589618
 21
84.37460453432924
 31
0.0
  0
LINE
  5
1C52
330
21
100
AcDbEntity
  8
fuzoku
100
AcDbLine
 10
93.51135507589617
 20
84.72460453432928
 30
0.0
 11
93.51135507589617
 21
84.37460453432924
 31
0.0
  0
LINE
  5
1C53
330
21
100
AcDbEntity
  8
gaikei
100
AcDbLine
 10
85.83635507589617
 20
87.22460453432921
 30
0.0
 11
85.83635507589617
 21
83.37460453432925
 31
0.0
  0
LINE
  5
1C54
330
21
100
AcDbEntity
  8
gaikei
100
AcDbLine
 10
89.48635507589619
 20
87.22460453432921
 30
0.0
 11
89.48635507589619
 21
83.37460453432925
 31
0.0
  0
LINE
  5
1C55
330
21
100
AcDbEntity
  8
fuzoku
100
AcDbLine
 10
85.83635507589619
 20
83.87460453432925
 30
0.0
 11
89.48635507589619
 21
83.87460453432925
 31
0.0
  0
LINE
  5
1C56
330
21
100
AcDbEntity
  8
gaikei
100
AcDbLine
 10
85.83635507589617
 20
83.37460453432925
 30
0.0
 11
89.48635507589619
 21
83.37460453432925
 31
0.0
  0
ELLIPSE
  5
1C57
330
21
100
AcDbEntity
  8
fuzoku
100
AcDbEllipse
 10
87.66135507589618
 20
84.72460453432928
 30
0.0
 11
-1.5
 21
0.0
 31
0.0
210
0.0
220
0.0
230
1.0
 40
0.8854590366110906
 41
3.141592653589793
 42
4.612221559223117
  0
LINE
  5
1C58
330
21
100
AcDbEntity
  8
fuzoku
100
AcDbLine
 10
87.51135507589621
 20
86.04613546058009
 30
0.0
 11
87.51135507589621
 21
85.22460453432927
 31
0.0
  0
LINE
  5
1C59
330
21
100
AcDbEntity
  8
fuzoku
100
AcDbLine
 10
87.81135507589622
 20
86.04613546058009
 30
0.0
 11
87.81135507589622
 21
85.22460453432927
 31
0.0
  0
LINE
  5
1C5A
330
21
100
AcDbEntity
  8
fuzoku
100
AcDbLine
 10
87.51135507589621
 20
85.22460453432927
 30
0.0
 11
87.81135507589622
 21
85.22460453432927
 31
0.0
  0
ELLIPSE
  5
1C5B
330
21
100
AcDbEntity
  8
fuzoku
100
AcDbEllipse
 10
87.66135507589618
 20
84.72460453432928
 30
0.0
 11
-1.5
 21
0.0
 31
0.0
210
0.0
220
0.0
230
1.0
 40
0.8854590366110906
 41
4.812556401546224
 42
6.283185307179586
  0
LINE
  5
1C5C
330
21
100
AcDbEntity
  8
fuzoku
100
AcDbLine
 10
85.83635507589619
 20
84.37460453432924
 30
0.0
 11
89.48635507589619
 21
84.37460453432924
 31
0.0
  0
LINE
  5
1C5D
330
21
100
AcDbEntity
  8
fuzoku
100
AcDbLine
 10
86.16135507589618
 20
84.72460453432928
 30
0.0
 11
89.16135507589615
 21
84.72460453432928
 31
0.0
  0
LINE
  5
1C5E
330
21
100
AcDbEntity
  8
fuzoku
100
AcDbLine
 10
86.16135507589618
 20
84.72460453432928
 30
0.0
 11
86.16135507589618
 21
84.37460453432924
 31
0.0
  0
LINE
  5
1C5F
330
21
100
AcDbEntity
  8
fuzoku
100
AcDbLine
 10
89.16135507589618
 20
84.72460453432928
 30
0.0
 11
89.16135507589618
 21
84.37460453432924
 31
0.0
  0
LINE
  5
1C60
330
21
100
AcDbEntity
  8
gaikei
100
AcDbLine
 10
81.48635507589617
 20
87.22460453432921
 30
0.0
 11
81.48635507589617
 21
83.37460453432925
 31
0.0
  0
LINE
  5
1C61
330
21
100
AcDbEntity
  8
gaikei
100
AcDbLine
 10
85.1363550758962
 20
87.22460453432921
 30
0.0
 11
85.1363550758962
 21
83.37460453432925
 31
0.0
  0
LINE
  5
1C62
330
21
100
AcDbEntity
  8
fuzoku
100
AcDbLine
 10
81.4863550758962
 20
83.87460453432925
 30
0.0
 11
85.1363550758962
 21
83.87460453432925
 31
0.0
  0
LINE
  5
1C63
330
21
100
AcDbEntity
  8
gaikei
100
AcDbLine
 10
81.48635507589617
 20
83.37460453432925
 30
0.0
 11
85.1363550758962
 21
83.37460453432925
 31
0.0
  0
ELLIPSE
  5
1C64
330
21
100
AcDbEntity
  8
fuzoku
100
AcDbEllipse
 10
83.31135507589619
 20
84.72460453432928
 30
0.0
 11
-1.5
 21
0.0
 31
0.0
210
0.0
220
0.0
230
1.0
 40
0.8854590366110906
 41
3.141592653589793
 42
4.612221559223117
  0
LINE
  5
1C65
330
21
100
AcDbEntity
  8
fuzoku
100
AcDbLine
 10
83.16135507589624
 20
86.04613546058009
 30
0.0
 11
83.16135507589624
 21
85.22460453432927
 31
0.0
  0
LINE
  5
1C66
330
21
100
AcDbEntity
  8
fuzoku
100
AcDbLine
 10
83.4613550758962
 20
86.04613546058009
 30
0.0
 11
83.4613550758962
 21
85.22460453432927
 31
0.0
  0
LINE
  5
1C67
330
21
100
AcDbEntity
  8
fuzoku
100
AcDbLine
 10
83.16135507589624
 20
85.22460453432927
 30
0.0
 11
83.4613550758962
 21
85.22460453432927
 31
0.0
  0
ELLIPSE
  5
1C68
330
21
100
AcDbEntity
  8
fuzoku
100
AcDbEllipse
 10
83.31135507589619
 20
84.72460453432928
 30
0.0
 11
-1.5
 21
0.0
 31
0.0
210
0.0
220
0.0
230
1.0
 40
0.8854590366110906
 41
4.812556401546224
 42
6.283185307179586
  0
LINE
  5
1C69
330
21
100
AcDbEntity
  8
fuzoku
100
AcDbLine
 10
81.4863550758962
 20
84.37460453432924
 30
0.0
 11
85.1363550758962
 21
84.37460453432924
 31
0.0
  0
LINE
  5
1C6A
330
21
100
AcDbEntity
  8
fuzoku
100
AcDbLine
 10
81.81135507589615
 20
84.72460453432928
 30
0.0
 11
84.81135507589616
 21
84.72460453432928
 31
0.0
  0
LINE
  5
1C6B
330
21
100
AcDbEntity
  8
fuzoku
100
AcDbLine
 10
81.81135507589619
 20
84.72460453432928
 30
0.0
 11
81.81135507589619
 21
84.37460453432924
 31
0.0
  0
LINE
  5
1C6C
330
21
100
AcDbEntity
  8
fuzoku
100
AcDbLine
 10
84.81135507589618
 20
84.72460453432928
 30
0.0
 11
84.81135507589618
 21
84.37460453432924
 31
0.0
  0
LINE
  5
1C6D
330
21
100
AcDbEntity
  8
gaikei
100
AcDbLine
 10
77.13635507589614
 20
87.22460453432921
 30
0.0
 11
77.13635507589614
 21
83.37460453432925
 31
0.0
  0
LINE
  5
1C6E
330
21
100
AcDbEntity
  8
gaikei
100
AcDbLine
 10
80.78635507589618
 20
87.22460453432921
 30
0.0
 11
80.78635507589622
 21
83.37460453432925
 31
0.0
  0
LINE
  5
1C6F
330
21
100
AcDbEntity
  8
fuzoku
100
AcDbLine
 10
77.13635507589621
 20
83.87460453432925
 30
0.0
 11
80.78635507589622
 21
83.87460453432925
 31
0.0
  0
LINE
  5
1C70
330
21
100
AcDbEntity
  8
gaikei
100
AcDbLine
 10
77.13635507589614
 20
83.37460453432925
 30
0.0
 11
80.78635507589622
 21
83.37460453432925
 31
0.0
  0
ELLIPSE
  5
1C71
330
21
100
AcDbEntity
  8
fuzoku
100
AcDbEllipse
 10
78.96135507589619
 20
84.72460453432928
 30
0.0
 11
-1.5
 21
0.0
 31
0.0
210
0.0
220
0.0
230
1.0
 40
0.8854590366110906
 41
3.141592653589793
 42
4.612221559223117
  0
LINE
  5
1C72
330
21
100
AcDbEntity
  8
fuzoku
100
AcDbLine
 10
78.81135507589622
 20
86.04613546058009
 30
0.0
 11
78.81135507589622
 21
85.22460453432927
 31
0.0
  0
LINE
  5
1C73
330
21
100
AcDbEntity
  8
fuzoku
100
AcDbLine
 10
79.11135507589619
 20
86.04613546058009
 30
0.0
 11
79.11135507589619
 21
85.22460453432927
 31
0.0
  0
LINE
  5
1C74
330
21
100
AcDbEntity
  8
fuzoku
100
AcDbLine
 10
78.81135507589622
 20
85.22460453432927
 30
0.0
 11
79.11135507589619
 21
85.22460453432927
 31
0.0
  0
ELLIPSE
  5
1C75
330
21
100
AcDbEntity
  8
fuzoku
100
AcDbEllipse
 10
78.96135507589619
 20
84.72460453432928
 30
0.0
 11
-1.5
 21
0.0
 31
0.0
210
0.0
220
0.0
230
1.0
 40
0.8854590366110906
 41
4.812556401546224
 42
6.283185307179586
  0
LINE
  5
1C76
330
21
100
AcDbEntity
  8
fuzoku
100
AcDbLine
 10
77.13635507589621
 20
84.37460453432924
 30
0.0
 11
80.78635507589622
 21
84.37460453432924
 31
0.0
  0
LINE
  5
1C77
330
21
100
AcDbEntity
  8
fuzoku
100
AcDbLine
 10
77.46135507589617
 20
84.72460453432928
 30
0.0
 11
80.46135507589616
 21
84.72460453432928
 31
0.0
  0
LINE
  5
1C78
330
21
100
AcDbEntity
  8
fuzoku
100
AcDbLine
 10
77.46135507589619
 20
84.72460453432928
 30
0.0
 11
77.46135507589619
 21
84.37460453432924
 31
0.0
  0
LINE
  5
1C79
330
21
100
AcDbEntity
  8
fuzoku
100
AcDbLine
 10
80.46135507589619
 20
84.72460453432928
 30
0.0
 11
80.46135507589619
 21
84.37460453432924
 31
0.0
  0
LINE
  5
1C7A
330
21
100
AcDbEntity
  8
fuzoku
100
AcDbLine
 10
76.11135507589617
 20
84.72460453432928
 30
0.0
 11
76.11135507589617
 21
84.37460453432924
 31
0.0
  0
LINE
  5
1C7B
330
21
100
AcDbEntity
  8
fuzoku
100
AcDbLine
 10
73.11135507589617
 20
84.72460453432928
 30
0.0
 11
73.11135507589617
 21
84.37460453432924
 31
0.0
  0
LINE
  5
1C7C
330
21
100
AcDbEntity
  8
fuzoku
100
AcDbLine
 10
73.11135507589617
 20
84.72460453432928
 30
0.0
 11
76.11135507589617
 21
84.72460453432928
 31
0.0
  0
LINE
  5
1C7D
330
21
100
AcDbEntity
  8
fuzoku
100
AcDbLine
 10
72.78635507589618
 20
84.37460453432924
 30
0.0
 11
76.43635507589621
 21
84.37460453432924
 31
0.0
  0
ELLIPSE
  5
1C7E
330
21
100
AcDbEntity
  8
fuzoku
100
AcDbEllipse
 10
74.61135507589617
 20
84.72460453432928
 30
0.0
 11
-1.5
 21
0.0
 31
0.0
210
0.0
220
0.0
230
1.0
 40
0.8854590366110906
 41
4.812556401546224
 42
6.283185307179586
  0
LINE
  5
1C7F
330
21
100
AcDbEntity
  8
fuzoku
100
AcDbLine
 10
74.46135507589622
 20
85.22460453432927
 30
0.0
 11
74.76135507589621
 21
85.22460453432927
 31
0.0
  0
LINE
  5
1C80
330
21
100
AcDbEntity
  8
fuzoku
100
AcDbLine
 10
74.76135507589621
 20
86.04613546058009
 30
0.0
 11
74.76135507589621
 21
85.22460453432927
 31
0.0
  0
LINE
  5
1C81
330
21
100
AcDbEntity
  8
fuzoku
100
AcDbLine
 10
74.46135507589622
 20
86.04613546058009
 30
0.0
 11
74.46135507589622
 21
85.22460453432927
 31
0.0
  0
ELLIPSE
  5
1C82
330
21
100
AcDbEntity
  8
fuzoku
100
AcDbEllipse
 10
74.61135507589617
 20
84.72460453432928
 30
0.0
 11
-1.5
 21
0.0
 31
0.0
210
0.0
220
0.0
230
1.0
 40
0.8854590366110906
 41
3.141592653589793
 42
4.612221559223117
  0
LINE
  5
1C83
330
21
100
AcDbEntity
  8
gaikei
100
AcDbLine
 10
72.78635507589618
 20
83.37460453432925
 30
0.0
 11
76.43635507589621
 21
83.37460453432925
 31
0.0
  0
LINE
  5
1C84
330
21
100
AcDbEntity
  8
fuzoku
100
AcDbLine
 10
72.78635507589618
 20
83.87460453432925
 30
0.0
 11
76.43635507589621
 21
83.87460453432925
 31
0.0
  0
LINE
  5
1C85
330
21
100
AcDbEntity
  8
gaikei
100
AcDbLine
 10
76.43635507589618
 20
87.22460453432921
 30
0.0
 11
76.43635507589621
 21
83.37460453432925
 31
0.0
  0
LINE
  5
1C86
330
21
100
AcDbEntity
  8
gaikei
100
AcDbLine
 10
72.78635507589618
 20
87.22460453432921
 30
0.0
 11
72.78635507589618
 21
83.37460453432925
 31
0.0
  0
LINE
  5
1C87
330
21
100
AcDbEntity
  8
gaikei
100
AcDbLine
 10
93.8363550758962
 20
104.9011661999167
 30
0.0
 11
93.8363550758962
 21
111.4011661999167
 31
0.0
  0
LINE
  5
1C88
330
21
100
AcDbEntity
  8
gaikei
100
AcDbLine
 10
93.8363550758962
 20
111.4011661999167
 30
0.0
 11
90.18635507589619
 21
111.4011661999167
 31
0.0
  0
LINE
  5
1C89
330
21
100
AcDbEntity
  8
gaikei
100
AcDbLine
 10
90.18635507589619
 20
111.4011661999167
 30
0.0
 11
90.18635507589619
 21
104.9011661999167
 31
0.0
  0
LINE
  5
1C8A
330
21
100
AcDbEntity
  8
fuzoku
100
AcDbLine
 10
93.8363550758962
 20
111.0011661999166
 30
0.0
 11
90.18635507589619
 21
111.0011661999166
 31
0.0
  0
LINE
  5
1C8B
330
21
100
AcDbEntity
  8
fuzoku
100
AcDbLine
 10
93.8363550758962
 20
106.9011661999167
 30
0.0
 11
90.18635507589619
 21
106.9011661999167
 31
0.0
  0
LINE
  5
1C8C
330
21
100
AcDbEntity
  8
fuzoku
100
AcDbLine
 10
93.8363550758962
 20
107.1511661999167
 30
0.0
 11
90.18635507589619
 21
107.1511661999167
 31
0.0
  0
ARC
  5
1C8D
330
21
100
AcDbEntity
  8
fuzoku
100
AcDbCircle
 10
92.01135507589617
 20
109.0761661999166
 30
0.0
 40
2.0
100
AcDbArc
 50
204.1468479965015
 51
254.2594514748312
  0
CIRCLE
  5
1C8E
330
21
100
AcDbEntity
  8
fuzoku
100
AcDbCircle
 10
92.01135507589617
 20
109.0761661999166
 30
0.0
 40
1.5
  0
ARC
  5
1C8F
330
21
100
AcDbEntity
  8
fuzoku
100
AcDbCircle
 10
92.01135507589617
 20
109.0761661999166
 30
0.0
 40
2.0
100
AcDbArc
 50
105.7405485251688
 51
155.8531520034985
  0
ARC
  5
1C90
330
21
100
AcDbEntity
  8
fuzoku
100
AcDbCircle
 10
92.01135507589617
 20
109.0761661999166
 30
0.0
 40
2.0
100
AcDbArc
 50
24.1468479965015
 51
74.25945147483116
  0
ARC
  5
1C91
330
21
100
AcDbEntity
  8
fuzoku
100
AcDbCircle
 10
92.01135507589617
 20
109.0761661999166
 30
0.0
 40
2.0
100
AcDbArc
 50
285.7405485251685
 51
335.8531520034985
  0
LINE
  5
1C92
330
21
100
AcDbEntity
  8
fuzoku
100
AcDbLine
 10
92.16135507589621
 20
110.3261661999166
 30
0.0
 11
92.16135507589617
 21
109.2261661999166
 31
0.0
  0
LINE
  5
1C93
330
21
100
AcDbEntity
  8
fuzoku
100
AcDbLine
 10
91.8613550758962
 20
110.3261661999166
 30
0.0
 11
91.8613550758962
 21
109.2261661999166
 31
0.0
  0
LINE
  5
1C94
330
21
100
AcDbEntity
  8
fuzoku
100
AcDbLine
 10
92.16135507589617
 20
109.2261661999166
 30
0.0
 11
93.50383623155611
 21
109.2261661999166
 31
0.0
  0
LINE
  5
1C95
330
21
100
AcDbEntity
  8
fuzoku
100
AcDbLine
 10
92.16135507589617
 20
108.9261661999167
 30
0.0
 11
93.50383623155611
 21
108.9261661999167
 31
0.0
  0
LINE
  5
1C96
330
21
100
AcDbEntity
  8
fuzoku
100
AcDbLine
 10
92.16135507589617
 20
108.9261661999167
 30
0.0
 11
92.16135507589621
 21
107.8261661999166
 31
0.0
  0
LINE
  5
1C97
330
21
100
AcDbEntity
  8
fuzoku
100
AcDbLine
 10
91.86135507589616
 20
108.9261661999167
 30
0.0
 11
91.86135507589623
 21
107.8261661999166
 31
0.0
  0
LINE
  5
1C98
330
21
100
AcDbEntity
  8
fuzoku
100
AcDbLine
 10
90.51887392023624
 20
108.9261661999167
 30
0.0
 11
91.86135507589616
 21
108.9261661999167
 31
0.0
  0
LINE
  5
1C99
330
21
100
AcDbEntity
  8
fuzoku
100
AcDbLine
 10
90.51887392023624
 20
109.2261661999166
 30
0.0
 11
91.8613550758962
 21
109.2261661999166
 31
0.0
  0
LINE
  5
1C9A
330
21
100
AcDbEntity
  8
gaikei
100
AcDbLine
 10
90.18635507589619
 20
105.9011661999167
 30
0.0
 11
93.8363550758962
 21
105.9011661999167
 31
0.0
  0
LINE
  5
1C9B
330
21
100
AcDbEntity
  8
gaikei
100
AcDbLine
 10
89.48635507589619
 20
104.9011661999167
 30
0.0
 11
89.48635507589619
 21
111.4011661999167
 31
0.0
  0
LINE
  5
1C9C
330
21
100
AcDbEntity
  8
gaikei
100
AcDbLine
 10
89.48635507589619
 20
111.4011661999167
 30
0.0
 11
85.83635507589619
 21
111.4011661999167
 31
0.0
  0
LINE
  5
1C9D
330
21
100
AcDbEntity
  8
gaikei
100
AcDbLine
 10
85.83635507589619
 20
111.4011661999167
 30
0.0
 11
85.83635507589619
 21
104.9011661999167
 31
0.0
  0
LINE
  5
1C9E
330
21
100
AcDbEntity
  8
fuzoku
100
AcDbLine
 10
89.48635507589619
 20
111.0011661999166
 30
0.0
 11
85.83635507589619
 21
111.0011661999166
 31
0.0
  0
LINE
  5
1C9F
330
21
100
AcDbEntity
  8
fuzoku
100
AcDbLine
 10
89.48635507589619
 20
106.9011661999167
 30
0.0
 11
85.83635507589619
 21
106.9011661999167
 31
0.0
  0
LINE
  5
1CA0
330
21
100
AcDbEntity
  8
fuzoku
100
AcDbLine
 10
89.48635507589619
 20
107.1511661999167
 30
0.0
 11
85.83635507589619
 21
107.1511661999167
 31
0.0
  0
ARC
  5
1CA1
330
21
100
AcDbEntity
  8
fuzoku
100
AcDbCircle
 10
87.66135507589618
 20
109.0761661999166
 30
0.0
 40
2.0
100
AcDbArc
 50
204.1468479965015
 51
254.2594514748312
  0
CIRCLE
  5
1CA2
330
21
100
AcDbEntity
  8
fuzoku
100
AcDbCircle
 10
87.66135507589618
 20
109.0761661999166
 30
0.0
 40
1.5
  0
ARC
  5
1CA3
330
21
100
AcDbEntity
  8
fuzoku
100
AcDbCircle
 10
87.66135507589618
 20
109.0761661999166
 30
0.0
 40
2.0
100
AcDbArc
 50
105.7405485251688
 51
155.8531520034985
  0
ARC
  5
1CA4
330
21
100
AcDbEntity
  8
fuzoku
100
AcDbCircle
 10
87.66135507589618
 20
109.0761661999166
 30
0.0
 40
2.0
100
AcDbArc
 50
24.1468479965015
 51
74.25945147483116
  0
ARC
  5
1CA5
330
21
100
AcDbEntity
  8
fuzoku
100
AcDbCircle
 10
87.66135507589618
 20
109.0761661999166
 30
0.0
 40
2.0
100
AcDbArc
 50
285.7405485251685
 51
335.8531520034985
  0
LINE
  5
1CA6
330
21
100
AcDbEntity
  8
fuzoku
100
AcDbLine
 10
87.81135507589622
 20
110.3261661999166
 30
0.0
 11
87.81135507589619
 21
109.2261661999166
 31
0.0
  0
LINE
  5
1CA7
330
21
100
AcDbEntity
  8
fuzoku
100
AcDbLine
 10
87.51135507589621
 20
110.3261661999166
 30
0.0
 11
87.51135507589621
 21
109.2261661999166
 31
0.0
  0
LINE
  5
1CA8
330
21
100
AcDbEntity
  8
fuzoku
100
AcDbLine
 10
87.81135507589619
 20
109.2261661999166
 30
0.0
 11
89.1538362315561
 21
109.2261661999166
 31
0.0
  0
LINE
  5
1CA9
330
21
100
AcDbEntity
  8
fuzoku
100
AcDbLine
 10
87.81135507589619
 20
108.9261661999167
 30
0.0
 11
89.1538362315561
 21
108.9261661999167
 31
0.0
  0
LINE
  5
1CAA
330
21
100
AcDbEntity
  8
fuzoku
100
AcDbLine
 10
87.81135507589619
 20
108.9261661999167
 30
0.0
 11
87.81135507589619
 21
107.8261661999166
 31
0.0
  0
LINE
  5
1CAB
330
21
100
AcDbEntity
  8
fuzoku
100
AcDbLine
 10
87.51135507589614
 20
108.9261661999167
 30
0.0
 11
87.51135507589621
 21
107.8261661999166
 31
0.0
  0
LINE
  5
1CAC
330
21
100
AcDbEntity
  8
fuzoku
100
AcDbLine
 10
86.16887392023626
 20
108.9261661999167
 30
0.0
 11
87.51135507589614
 21
108.9261661999167
 31
0.0
  0
LINE
  5
1CAD
330
21
100
AcDbEntity
  8
fuzoku
100
AcDbLine
 10
86.16887392023626
 20
109.2261661999166
 30
0.0
 11
87.51135507589621
 21
109.2261661999166
 31
0.0
  0
LINE
  5
1CAE
330
21
100
AcDbEntity
  8
gaikei
100
AcDbLine
 10
85.83635507589619
 20
105.9011661999167
 30
0.0
 11
89.48635507589619
 21
105.9011661999167
 31
0.0
  0
LINE
  5
1CAF
330
21
100
AcDbEntity
  8
gaikei
100
AcDbLine
 10
76.43635507589618
 20
104.9011661999167
 30
0.0
 11
76.43635507589618
 21
111.4011661999167
 31
0.0
  0
LINE
  5
1CB0
330
21
100
AcDbEntity
  8
gaikei
100
AcDbLine
 10
76.43635507589618
 20
111.4011661999167
 30
0.0
 11
72.78635507589618
 21
111.4011661999167
 31
0.0
  0
LINE
  5
1CB1
330
21
100
AcDbEntity
  8
gaikei
100
AcDbLine
 10
72.78635507589618
 20
111.4011661999167
 30
0.0
 11
72.78635507589618
 21
104.9011661999167
 31
0.0
  0
LINE
  5
1CB2
330
21
100
AcDbEntity
  8
fuzoku
100
AcDbLine
 10
76.43635507589618
 20
111.0011661999166
 30
0.0
 11
72.78635507589618
 21
111.0011661999166
 31
0.0
  0
LINE
  5
1CB3
330
21
100
AcDbEntity
  8
fuzoku
100
AcDbLine
 10
76.43635507589618
 20
106.9011661999167
 30
0.0
 11
72.78635507589618
 21
106.9011661999167
 31
0.0
  0
LINE
  5
1CB4
330
21
100
AcDbEntity
  8
fuzoku
100
AcDbLine
 10
76.43635507589618
 20
107.1511661999167
 30
0.0
 11
72.78635507589618
 21
107.1511661999167
 31
0.0
  0
ARC
  5
1CB5
330
21
100
AcDbEntity
  8
fuzoku
100
AcDbCircle
 10
74.61135507589617
 20
109.0761661999166
 30
0.0
 40
2.0
100
AcDbArc
 50
204.1468479965015
 51
254.2594514748312
  0
CIRCLE
  5
1CB6
330
21
100
AcDbEntity
  8
fuzoku
100
AcDbCircle
 10
74.61135507589617
 20
109.0761661999166
 30
0.0
 40
1.5
  0
ARC
  5
1CB7
330
21
100
AcDbEntity
  8
fuzoku
100
AcDbCircle
 10
74.61135507589617
 20
109.0761661999166
 30
0.0
 40
2.0
100
AcDbArc
 50
105.7405485251688
 51
155.8531520034985
  0
ARC
  5
1CB8
330
21
100
AcDbEntity
  8
fuzoku
100
AcDbCircle
 10
74.61135507589617
 20
109.0761661999166
 30
0.0
 40
2.0
100
AcDbArc
 50
24.1468479965015
 51
74.25945147483116
  0
ARC
  5
1CB9
330
21
100
AcDbEntity
  8
fuzoku
100
AcDbCircle
 10
74.61135507589617
 20
109.0761661999166
 30
0.0
 40
2.0
100
AcDbArc
 50
285.7405485251685
 51
335.8531520034985
  0
LINE
  5
1CBA
330
21
100
AcDbEntity
  8
fuzoku
100
AcDbLine
 10
74.76135507589621
 20
110.3261661999166
 30
0.0
 11
74.76135507589621
 21
109.2261661999166
 31
0.0
  0
LINE
  5
1CBB
330
21
100
AcDbEntity
  8
fuzoku
100
AcDbLine
 10
74.4613550758962
 20
110.3261661999166
 30
0.0
 11
74.4613550758962
 21
109.2261661999166
 31
0.0
  0
LINE
  5
1CBC
330
21
100
AcDbEntity
  8
fuzoku
100
AcDbLine
 10
74.76135507589621
 20
109.2261661999166
 30
0.0
 11
76.10383623155613
 21
109.2261661999166
 31
0.0
  0
LINE
  5
1CBD
330
21
100
AcDbEntity
  8
fuzoku
100
AcDbLine
 10
74.76135507589621
 20
108.9261661999167
 30
0.0
 11
76.10383623155613
 21
108.9261661999167
 31
0.0
  0
LINE
  5
1CBE
330
21
100
AcDbEntity
  8
fuzoku
100
AcDbLine
 10
74.76135507589621
 20
108.9261661999167
 30
0.0
 11
74.76135507589621
 21
107.8261661999166
 31
0.0
  0
LINE
  5
1CBF
330
21
100
AcDbEntity
  8
fuzoku
100
AcDbLine
 10
74.46135507589616
 20
108.9261661999167
 30
0.0
 11
74.46135507589622
 21
107.8261661999166
 31
0.0
  0
LINE
  5
1CC0
330
21
100
AcDbEntity
  8
fuzoku
100
AcDbLine
 10
73.11887392023627
 20
108.9261661999167
 30
0.0
 11
74.46135507589616
 21
108.9261661999167
 31
0.0
  0
LINE
  5
1CC1
330
21
100
AcDbEntity
  8
fuzoku
100
AcDbLine
 10
73.11887392023627
 20
109.2261661999166
 30
0.0
 11
74.4613550758962
 21
109.2261661999166
 31
0.0
  0
LINE
  5
1CC2
330
21
100
AcDbEntity
  8
gaikei
100
AcDbLine
 10
72.78635507589618
 20
105.9011661999167
 30
0.0
 11
76.43635507589618
 21
105.9011661999167
 31
0.0
  0
LINE
  5
1CC3
330
21
100
AcDbEntity
  8
gaikei
100
AcDbLine
 10
80.78635507589618
 20
104.9011661999167
 30
0.0
 11
80.78635507589618
 21
111.4011661999167
 31
0.0
  0
LINE
  5
1CC4
330
21
100
AcDbEntity
  8
gaikei
100
AcDbLine
 10
80.78635507589618
 20
111.4011661999167
 30
0.0
 11
77.13635507589621
 21
111.4011661999167
 31
0.0
  0
LINE
  5
1CC5
330
21
100
AcDbEntity
  8
gaikei
100
AcDbLine
 10
77.13635507589621
 20
111.4011661999167
 30
0.0
 11
77.13635507589621
 21
104.9011661999167
 31
0.0
  0
LINE
  5
1CC6
330
21
100
AcDbEntity
  8
fuzoku
100
AcDbLine
 10
80.78635507589618
 20
111.0011661999166
 30
0.0
 11
77.13635507589621
 21
111.0011661999166
 31
0.0
  0
LINE
  5
1CC7
330
21
100
AcDbEntity
  8
fuzoku
100
AcDbLine
 10
80.78635507589618
 20
106.9011661999167
 30
0.0
 11
77.13635507589621
 21
106.9011661999167
 31
0.0
  0
LINE
  5
1CC8
330
21
100
AcDbEntity
  8
fuzoku
100
AcDbLine
 10
80.78635507589618
 20
107.1511661999167
 30
0.0
 11
77.13635507589621
 21
107.1511661999167
 31
0.0
  0
ARC
  5
1CC9
330
21
100
AcDbEntity
  8
fuzoku
100
AcDbCircle
 10
78.96135507589619
 20
109.0761661999166
 30
0.0
 40
2.0
100
AcDbArc
 50
204.1468479965015
 51
254.2594514748312
  0
CIRCLE
  5
1CCA
330
21
100
AcDbEntity
  8
fuzoku
100
AcDbCircle
 10
78.96135507589619
 20
109.0761661999166
 30
0.0
 40
1.5
  0
ARC
  5
1CCB
330
21
100
AcDbEntity
  8
fuzoku
100
AcDbCircle
 10
78.96135507589619
 20
109.0761661999166
 30
0.0
 40
2.0
100
AcDbArc
 50
105.7405485251688
 51
155.8531520034985
  0
ARC
  5
1CCC
330
21
100
AcDbEntity
  8
fuzoku
100
AcDbCircle
 10
78.96135507589619
 20
109.0761661999166
 30
0.0
 40
2.0
100
AcDbArc
 50
24.1468479965015
 51
74.25945147483116
  0
ARC
  5
1CCD
330
21
100
AcDbEntity
  8
fuzoku
100
AcDbCircle
 10
78.96135507589619
 20
109.0761661999166
 30
0.0
 40
2.0
100
AcDbArc
 50
285.7405485251685
 51
335.8531520034985
  0
LINE
  5
1CCE
330
21
100
AcDbEntity
  8
fuzoku
100
AcDbLine
 10
79.11135507589623
 20
110.3261661999166
 30
0.0
 11
79.11135507589619
 21
109.2261661999166
 31
0.0
  0
LINE
  5
1CCF
330
21
100
AcDbEntity
  8
fuzoku
100
AcDbLine
 10
78.81135507589622
 20
110.3261661999166
 30
0.0
 11
78.81135507589622
 21
109.2261661999166
 31
0.0
  0
LINE
  5
1CD0
330
21
100
AcDbEntity
  8
fuzoku
100
AcDbLine
 10
79.11135507589619
 20
109.2261661999166
 30
0.0
 11
80.45383623155613
 21
109.2261661999166
 31
0.0
  0
LINE
  5
1CD1
330
21
100
AcDbEntity
  8
fuzoku
100
AcDbLine
 10
79.11135507589619
 20
108.9261661999167
 30
0.0
 11
80.45383623155613
 21
108.9261661999167
 31
0.0
  0
LINE
  5
1CD2
330
21
100
AcDbEntity
  8
fuzoku
100
AcDbLine
 10
79.11135507589619
 20
108.9261661999167
 30
0.0
 11
79.11135507589619
 21
107.8261661999166
 31
0.0
  0
LINE
  5
1CD3
330
21
100
AcDbEntity
  8
fuzoku
100
AcDbLine
 10
78.81135507589616
 20
108.9261661999167
 30
0.0
 11
78.81135507589624
 21
107.8261661999166
 31
0.0
  0
LINE
  5
1CD4
330
21
100
AcDbEntity
  8
fuzoku
100
AcDbLine
 10
77.46887392023626
 20
108.9261661999167
 30
0.0
 11
78.81135507589616
 21
108.9261661999167
 31
0.0
  0
LINE
  5
1CD5
330
21
100
AcDbEntity
  8
fuzoku
100
AcDbLine
 10
77.46887392023626
 20
109.2261661999166
 30
0.0
 11
78.81135507589622
 21
109.2261661999166
 31
0.0
  0
LINE
  5
1CD6
330
21
100
AcDbEntity
  8
gaikei
100
AcDbLine
 10
77.13635507589621
 20
105.9011661999167
 30
0.0
 11
80.78635507589618
 21
105.9011661999167
 31
0.0
  0
LINE
  5
1CD7
330
21
100
AcDbEntity
  8
gaikei
100
AcDbLine
 10
81.48635507589617
 20
105.9011661999167
 30
0.0
 11
85.1363550758962
 21
105.9011661999167
 31
0.0
  0
LINE
  5
1CD8
330
21
100
AcDbEntity
  8
fuzoku
100
AcDbLine
 10
81.81887392023625
 20
109.2261661999166
 30
0.0
 11
83.16135507589619
 21
109.2261661999166
 31
0.0
  0
LINE
  5
1CD9
330
21
100
AcDbEntity
  8
fuzoku
100
AcDbLine
 10
81.81887392023625
 20
108.9261661999167
 30
0.0
 11
83.16135507589619
 21
108.9261661999167
 31
0.0
  0
LINE
  5
1CDA
330
21
100
AcDbEntity
  8
fuzoku
100
AcDbLine
 10
83.16135507589619
 20
108.9261661999167
 30
0.0
 11
83.16135507589624
 21
107.8261661999166
 31
0.0
  0
LINE
  5
1CDB
330
21
100
AcDbEntity
  8
fuzoku
100
AcDbLine
 10
83.4613550758962
 20
108.9261661999167
 30
0.0
 11
83.4613550758962
 21
107.8261661999166
 31
0.0
  0
LINE
  5
1CDC
330
21
100
AcDbEntity
  8
fuzoku
100
AcDbLine
 10
83.4613550758962
 20
108.9261661999167
 30
0.0
 11
84.80383623155612
 21
108.9261661999167
 31
0.0
  0
LINE
  5
1CDD
330
21
100
AcDbEntity
  8
fuzoku
100
AcDbLine
 10
83.4613550758962
 20
109.2261661999166
 30
0.0
 11
84.80383623155612
 21
109.2261661999166
 31
0.0
  0
LINE
  5
1CDE
330
21
100
AcDbEntity
  8
fuzoku
100
AcDbLine
 10
83.16135507589619
 20
110.3261661999166
 30
0.0
 11
83.16135507589619
 21
109.2261661999166
 31
0.0
  0
LINE
  5
1CDF
330
21
100
AcDbEntity
  8
fuzoku
100
AcDbLine
 10
83.46135507589622
 20
110.3261661999166
 30
0.0
 11
83.4613550758962
 21
109.2261661999166
 31
0.0
  0
LINE
  5
1CE0
330
21
100
AcDbEntity
  8
hojo
100
AcDbLine
 10
81.48635507589617
 20
109.0761661999166
 30
0.0
 11
85.1363550758962
 21
109.0761661999166
 31
0.0
  0
ARC
  5
1CE1
330
21
100
AcDbEntity
  8
fuzoku
100
AcDbCircle
 10
83.31135507589619
 20
109.0761661999166
 30
0.0
 40
2.0
100
AcDbArc
 50
285.7405485251685
 51
335.8531520034985
  0
ARC
  5
1CE2
330
21
100
AcDbEntity
  8
fuzoku
100
AcDbCircle
 10
83.31135507589619
 20
109.0761661999166
 30
0.0
 40
2.0
100
AcDbArc
 50
24.1468479965015
 51
74.25945147483116
  0
ARC
  5
1CE3
330
21
100
AcDbEntity
  8
fuzoku
100
AcDbCircle
 10
83.31135507589619
 20
109.0761661999166
 30
0.0
 40
2.0
100
AcDbArc
 50
105.7405485251688
 51
155.8531520034985
  0
CIRCLE
  5
1CE4
330
21
100
AcDbEntity
  8
fuzoku
100
AcDbCircle
 10
83.31135507589619
 20
109.0761661999166
 30
0.0
 40
1.5
  0
ARC
  5
1CE5
330
21
100
AcDbEntity
  8
fuzoku
100
AcDbCircle
 10
83.31135507589619
 20
109.0761661999166
 30
0.0
 40
2.0
100
AcDbArc
 50
204.1468479965015
 51
254.2594514748312
  0
LINE
  5
1CE6
330
21
100
AcDbEntity
  8
fuzoku
100
AcDbLine
 10
85.1363550758962
 20
107.1511661999167
 30
0.0
 11
81.48635507589617
 21
107.1511661999167
 31
0.0
  0
LINE
  5
1CE7
330
21
100
AcDbEntity
  8
gaikei
100
AcDbLine
 10
72.06135507589618
 20
120.8511661999166
 30
0.0
 11
73.06135507589615
 21
120.8511661999166
 31
0.0
  0
LINE
  5
1CE8
330
21
100
AcDbEntity
  8
gaikei
100
AcDbLine
 10
72.06135507589618
 20
123.9511661999166
 30
0.0
 11
73.06135507589615
 21
123.9511661999166
 31
0.0
  0
LINE
  5
1CE9
330
21
100
AcDbEntity
  8
gaikei
100
AcDbLine
 10
93.56135507589618
 20
131.4011661999166
 30
0.0
 11
93.56135507589618
 21
113.4011661999167
 31
0.0
  0
LINE
  5
1CEA
330
21
100
AcDbEntity
  8
gaikei
100
AcDbLine
 10
73.06135507589619
 20
131.4011661999166
 30
0.0
 11
73.06135507589619
 21
113.4011661999167
 31
0.0
  0
LINE
  5
1CEB
330
21
100
AcDbEntity
  8
gaikei
100
AcDbLine
 10
73.06135507589619
 20
113.4011661999167
 30
0.0
 11
93.56135507589618
 21
113.4011661999167
 31
0.0
  0
LINE
  5
1CEC
330
21
100
AcDbEntity
  8
gaikei
100
AcDbLine
 10
73.06135507589619
 20
131.4011661999166
 30
0.0
 11
93.56135507589618
 21
131.4011661999166
 31
0.0
  0
LINE
  5
1CED
330
21
100
AcDbEntity
  8
fuzoku
100
AcDbLine
 10
85.1363550758962
 20
106.9011661999167
 30
0.0
 11
81.48635507589617
 21
106.9011661999167
 31
0.0
  0
LINE
  5
1CEE
330
21
100
AcDbEntity
  8
fuzoku
100
AcDbLine
 10
85.1363550758962
 20
111.0011661999166
 30
0.0
 11
81.48635507589617
 21
111.0011661999166
 31
0.0
  0
LINE
  5
1CEF
330
21
100
AcDbEntity
  8
gaikei
100
AcDbLine
 10
81.48635507589617
 20
111.4011661999167
 30
0.0
 11
81.48635507589617
 21
104.9011661999167
 31
0.0
  0
LINE
  5
1CF0
330
21
100
AcDbEntity
  8
gaikei
100
AcDbLine
 10
85.1363550758962
 20
111.4011661999167
 30
0.0
 11
81.48635507589617
 21
111.4011661999167
 31
0.0
  0
LINE
  5
1CF1
330
21
100
AcDbEntity
  8
gaikei
100
AcDbLine
 10
85.1363550758962
 20
104.9011661999167
 30
0.0
 11
85.1363550758962
 21
111.4011661999167
 31
0.0
  0
LINE
  5
1CF2
330
21
100
AcDbEntity
  8
gaikei
100
AcDbLine
 10
94.56135507589619
 20
87.22460453432928
 30
0.0
 11
94.56135507589619
 21
53.72460453432927
 31
0.0
  0
LINE
  5
1CF3
330
21
100
AcDbEntity
  8
gaikei
100
AcDbLine
 10
72.06135507589618
 20
87.22460453432928
 30
0.0
 11
94.56135507589619
 21
87.22460453432928
 31
0.0
  0
LINE
  5
1CF4
330
21
100
AcDbEntity
  8
gaikei
100
AcDbLine
 10
72.06135507589618
 20
53.72460453432927
 30
0.0
 11
94.56135507589619
 21
53.72460453432927
 31
0.0
  0
LINE
  5
1CF5
330
21
100
AcDbEntity
  8
gaikei
100
AcDbLine
 10
72.06135507589618
 20
87.22460453432928
 30
0.0
 11
72.06135507589618
 21
53.72460453432927
 31
0.0
  0
LINE
  5
1CF6
330
21
100
AcDbEntity
  8
gaikei
100
AcDbLine
 10
127.1587738741525
 20
139.9011661999166
 30
0.0
 11
127.1587738741525
 21
104.9011661999167
 31
0.0
  0
LINE
  5
1CF7
102
{ACAD_REACTORS
330
1B66
102
}
330
21
100
AcDbEntity
  8
gaikei
100
AcDbLine
 10
150.6587738741526
 20
139.9011661999167
 30
0.0
 11
150.6587738741526
 21
129.9011661999167
 31
0.0
  0
LINE
  5
1CF8
330
21
100
AcDbEntity
  8
gaikei
100
AcDbLine
 10
117.1587738741525
 20
139.4011661999167
 30
0.0
 11
117.1587738741525
 21
123.9511661999166
 31
0.0
  0
LINE
  5
1CF9
330
21
100
AcDbEntity
  8
gaikei
100
AcDbLine
 10
117.6587738741525
 20
104.9011661999166
 30
0.0
 11
150.6587738741525
 21
104.9011661999167
 31
0.0
  0
LINE
  5
1CFA
330
21
100
AcDbEntity
  8
gaikei
100
AcDbLine
 10
117.6587738741525
 20
139.9011661999167
 30
0.0
 11
150.6587738741526
 21
139.9011661999167
 31
0.0
  0
VIEWPORT
  5
1886
330
187F
100
AcDbEntity
 67
     1
  8
0
100
AcDbViewport
 10
221.8988813324755
 20
100.8062472343445
 30
0.0
 40
512.0405926593053
 41
222.1517806396485
 68
     1
 69
     1
 12
221.8988813324755
 22
100.8062472343445
 13
0.0
 23
0.0
 14
10.0
 24
10.0
 15
10.0
 25
10.0
 16
0.0
 26
0.0
 36
1.0
 17
0.0
 27
0.0
 37
0.0
 42
50.0
 43
0.0
 44
0.0
 45
222.1517806396485
 50
0.0
 51
0.0
 72
  1000
 90
    32800
  1

281
     0
 71
     1
 74
     0
110
0.0
120
0.0
130
0.0
111
1.0
121
0.0
131
0.0
112
0.0
122
1.0
132
0.0
 79
     0
146
0.0
170
     0
  0
VIEWPORT
  5
1888
330
187F
100
AcDbEntity
 67
     1
  8
hojo
100
AcDbViewport
 10
144.2825528925341
 20
102.1391580989504
 30
0.0
 40
282.4235581177303
 41
192.5315437884264
 68
     2
 69
     2
 12
190.2203607897572
 22
97.76443033407272
 13
0.0
 23
0.0
 14
10.0
 24
10.0
 15
10.0
 25
10.0
 16
0.0
 26
0.0
 36
1.0
 17
0.0
 27
0.0
 37
0.0
 42
50.0
 43
0.0
 44
0.0
 45
245.6642201174587
 50
0.0
 51
0.0
 72
  1000
 90
    32864
  1

281
     0
 71
     1
 74
     0
110
0.0
120
0.0
130
0.0
111
1.0
121
0.0
131
0.0
112
0.0
122
1.0
132
0.0
 79
     0
146
0.0
170
     0
  0
ENDSEC
  0
SECTION
  2
OBJECTS
  0
DICTIONARY
  5
C
330
0
100
AcDbDictionary
281
     1
  3
ACAD_COLOR
350
1C
  3
ACAD_GROUP
350
D
  3
ACAD_LAYOUT
350
1A
  3
ACAD_MATERIAL
350
1B
  3
ACAD_MLEADERSTYLE
350
1DAF
  3
ACAD_MLINESTYLE
350
17
  3
ACAD_PLOTSETTINGS
350
19
  3
ACAD_PLOTSTYLENAME
350
E
  3
ACAD_SCALELIST
350
1D8D
  3
ACAD_TABLESTYLE
350
1D8B
  3
ACAD_VISUALSTYLE
350
1D7A
  3
ACDB_RECOMPOSE_DATA
350
1DDC
  3
AcDbVariableDictionary
350
1DD6
  0
DICTIONARY
  5
5C
330
2
100
AcDbDictionary
280
     1
281
     1
  3
ACAD_LAYERFILTERS
360
89B
  3
ACAD_LAYERSTATES
360
5D
  0
DICTIONARY
  5
1DC4
330
10
100
AcDbDictionary
280
     1
281
     1
  3
ADSK_XREC_LAYER_RECONCILED
360
1DC5
  0
DICTIONARY
  5
1DC6
330
2D
100
AcDbDictionary
280
     1
281
     1
  3
ADSK_XREC_LAYER_RECONCILED
360
1DC7
  0
DICTIONARY
  5
1DC8
330
2E
100
AcDbDictionary
280
     1
281
     1
  3
ADSK_XREC_LAYER_RECONCILED
360
1DC9
  0
DICTIONARY
  5
1DCA
330
2F
100
AcDbDictionary
280
     1
281
     1
  3
ADSK_XREC_LAYER_RECONCILED
360
1DCB
  0
DICTIONARY
  5
1DCC
330
30
100
AcDbDictionary
280
     1
281
     1
  3
ADSK_XREC_LAYER_RECONCILED
360
1DCD
  0
DICTIONARY
  5
1DCE
330
48
100
AcDbDictionary
280
     1
281
     1
  3
ADSK_XREC_LAYER_RECONCILED
360
1DCF
  0
DICTIONARY
  5
1DD0
330
B26
100
AcDbDictionary
280
     1
281
     1
  3
ADSK_XREC_LAYER_RECONCILED
360
1DD1
  0
DICTIONARY
  5
1DD2
330
B29
100
AcDbDictionary
280
     1
281
     1
  3
ADSK_XREC_LAYER_RECONCILED
360
1DD3
  0
DICTIONARY
  5
1DD4
330
B2A
100
AcDbDictionary
280
     1
281
     1
  3
ADSK_XREC_LAYER_RECONCILED
360
1DD5
  0
DICTIONARY
  5
1B5C
330
1B5B
100
AcDbDictionary
280
     1
281
     1
  3
ACAD_DIMASSOC
360
1B5D
  0
DICTIONARY
  5
1B5F
330
1B5E
100
AcDbDictionary
280
     1
281
     1
  3
ACAD_DIMASSOC
360
1B60
  0
DICTIONARY
  5
1B62
330
1B61
100
AcDbDictionary
280
     1
281
     1
  3
ACAD_DIMASSOC
360
1B63
  0
DICTIONARY
  5
1B65
330
1B64
100
AcDbDictionary
280
     1
281
     1
  3
ACAD_DIMASSOC
360
1B66
  0
DICTIONARY
  5
1C
102
{ACAD_REACTORS
330
C
102
}
330
C
100
AcDbDictionary
281
     1
  0
DICTIONARY
  5
D
102
{ACAD_REACTORS
330
C
102
}
330
C
100
AcDbDictionary
281
     1
  3
*A1
350
AE8
  0
DICTIONARY
  5
1A
102
{ACAD_REACTORS
330
C
102
}
330
C
100
AcDbDictionary
281
     1
  3
Model
350
24
  3
レイアウト1
350
1880
  0
DICTIONARY
  5
1B
102
{ACAD_REACTORS
330
C
102
}
330
C
100
AcDbDictionary
281
     1
  3
ByBlock
350
1D72
  3
ByLayer
350
1D6A
  3
Global
350
55
  0
DICTIONARY
  5
1DAF
102
{ACAD_REACTORS
330
C
102
}
330
C
100
AcDbDictionary
281
     1
  3
Standard
350
1DB0
  0
DICTIONARY
  5
17
102
{ACAD_REACTORS
330
C
102
}
330
C
100
AcDbDictionary
281
     1
  3
Standard
350
18
  0
DICTIONARY
  5
19
102
{ACAD_REACTORS
330
C
102
}
330
C
100
AcDbDictionary
281
     1
  0
ACDBDICTIONARYWDFLT
  5
E
102
{ACAD_REACTORS
330
C
102
}
330
C
100
AcDbDictionary
281
     1
  3
Normal
350
F
100
AcDbDictionaryWithDefault
340
F
  0
DICTIONARY
  5
1D8D
102
{ACAD_REACTORS
330
C
102
}
330
C
100
AcDbDictionary
281
     1
  3
A0
350
1D8E
  3
A1
350
1D8F
  3
A2
350
1D90
  3
A3
350
1D91
  3
A4
350
1D92
  3
A5
350
1D93
  3
A6
350
1D94
  3
A7
350
1D95
  3
A8
350
1D96
  3
A9
350
1D97
  3
B0
350
1D98
  3
B1
350
1D99
  3
B2
350
1D9A
  3
B3
350
1D9B
  3
B4
350
1D9C
  3
B5
350
1D9D
  3
B6
350
1D9E
  3
B7
350
1D9F
  3
B8
350
1DA0
  3
B9
350
1DA1
  3
C0
350
1DA2
  3
C1
350
1DA3
  3
C2
350
1DA4
  3
C3
350
1DA5
  3
C4
350
1DA6
  3
C5
350
1DA7
  3
C6
350
1DA8
  3
C7
350
1DA9
  3
C8
350
1DAA
  3
C9
350
1DAB
  3
D0
350
1DAC
  3
D1
350
1DAD
  3
D2
350
1DAE
  0
DICTIONARY
  5
1D8B
102
{ACAD_REACTORS
330
C
102
}
330
C
100
AcDbDictionary
281
     1
  3
Standard
350
1D8C
  0
DICTIONARY
  5
1D7A
102
{ACAD_REACTORS
330
C
102
}
330
C
100
AcDbDictionary
281
     1
  3
2dWireframe
350
1D80
  3
3D Hidden
350
1D82
  3
3dWireframe
350
1D81
  3
Basic
350
1D7F
  3
Brighten
350
1D86
  3
ColorChange
350
1D8A
  3
Conceptual
350
1D83
  3
Dim
350
1D85
  3
Facepattern
350
1D89
  3
Flat
350
1D7B
  3
FlatWithEdges
350
1D7C
  3
Gouraud
350
1D7D
  3
GouraudWithEdges
350
1D7E
  3
Linepattern
350
1D88
  3
Realistic
350
1D84
  3
Thicken
350
1D87
  0
XRECORD
  5
1DDC
102
{ACAD_REACTORS
330
C
102
}
330
C
100
AcDbXrecord
280
     1
 90
        1
330
1D8C
  0
DICTIONARY
  5
1DD6
102
{ACAD_REACTORS
330
C
102
}
330
C
100
AcDbDictionary
281
     1
  3
CANNOSCALE
350
1DD9
  3
CMLEADERSTYLE
350
1DD8
  3
CTABLESTYLE
350
1DD7
  0
DICTIONARY
  5
89B
102
{ACAD_REACTORS
330
5C
102
}
330
5C
100
AcDbDictionary
281
     1
  0
DICTIONARY
  5
5D
102
{ACAD_REACTORS
330
5C
102
}
330
5C
100
AcDbDictionary
281
     1
  0
XRECORD
  5
1DC5
102
{ACAD_REACTORS
330
1DC4
102
}
330
1DC4
100
AcDbXrecord
280
     1
290
     1
  0
XRECORD
  5
1DC7
102
{ACAD_REACTORS
330
1DC6
102
}
330
1DC6
100
AcDbXrecord
280
     1
290
     1
  0
XRECORD
  5
1DC9
102
{ACAD_REACTORS
330
1DC8
102
}
330
1DC8
100
AcDbXrecord
280
     1
290
     1
  0
XRECORD
  5
1DCB
102
{ACAD_REACTORS
330
1DCA
102
}
330
1DCA
100
AcDbXrecord
280
     1
290
     1
  0
XRECORD
  5
1DCD
102
{ACAD_REACTORS
330
1DCC
102
}
330
1DCC
100
AcDbXrecord
280
     1
290
     1
  0
XRECORD
  5
1DCF
102
{ACAD_REACTORS
330
1DCE
102
}
330
1DCE
100
AcDbXrecord
280
     1
290
     1
  0
XRECORD
  5
1DD1
102
{ACAD_REACTORS
330
1DD0
102
}
330
1DD0
100
AcDbXrecord
280
     1
290
     1
  0
XRECORD
  5
1DD3
102
{ACAD_REACTORS
330
1DD2
102
}
330
1DD2
100
AcDbXrecord
280
     1
290
     1
  0
XRECORD
  5
1DD5
102
{ACAD_REACTORS
330
1DD4
102
}
330
1DD4
100
AcDbXrecord
280
     1
290
     1
  0
DIMASSOC
  5
1B5D
102
{ACAD_REACTORS
330
1B5C
102
}
330
1B5C
100
AcDbDimAssoc
330
1B5B
 90
        3
 70
     0
 71
     0
  1
AcDbOsnapPointRef
 72
    13
331
1C35
 73
     2
 91
        0
 40
0.0
 10
0.0
 20
0.0
 30
2.000000000000000E+50
 75
     0
  1
AcDbOsnapPointRef
 72
    13
331
1B96
 73
     2
 91
        0
 40
0.0
 10
0.0
 20
0.0
 30
2.000000000000000E+50
 75
     0
  0
DIMASSOC
  5
1B60
102
{ACAD_REACTORS
330
1B5F
102
}
330
1B5F
100
AcDbDimAssoc
330
1B5E
 90
        3
 70
     0
 71
     0
  1
AcDbOsnapPointRef
 72
    13
331
1C35
 73
     2
 91
        0
 40
0.0
 10
0.0
 20
0.0
 30
2.000000000000000E+50
 75
     0
  1
AcDbOsnapPointRef
 72
     1
331
1C35
 73
     2
 91
        0
 40
1.0
 10
0.0
 20
0.0
 30
2.000000000000000E+50
 75
     0
  0
DIMASSOC
  5
1B63
102
{ACAD_REACTORS
330
1B62
102
}
330
1B62
100
AcDbDimAssoc
330
1B61
 90
        3
 70
     0
 71
     0
  1
AcDbOsnapPointRef
 72
    13
331
1C35
 73
     2
 91
        0
 40
0.0
 10
0.0
 20
0.0
 30
2.000000000000000E+50
 75
     0
  1
AcDbOsnapPointRef
 72
    13
331
1C36
 73
     2
 91
        0
 40
0.0
 10
0.0
 20
0.0
 30
2.000000000000000E+50
 75
     0
  0
DIMASSOC
  5
1B66
102
{ACAD_REACTORS
330
1B65
102
}
330
1B65
100
AcDbDimAssoc
330
1B64
 90
        3
 70
     0
 71
     0
  1
AcDbOsnapPointRef
 72
     1
331
1C21
 73
     2
 91
        0
 40
3.141592653589793
 10
0.0
 20
0.0
 30
2.000000000000000E+50
 75
     0
  1
AcDbOsnapPointRef
 72
    13
331
1CF7
 73
     2
 91
        0
 40
0.0
 10
0.0
 20
0.0
 30
2.000000000000000E+50
 75
     0
  0
GROUP
  5
AE8
102
{ACAD_REACTORS
330
D
102
}
330
D
100
AcDbGroup
300

 70
     1
 71
     1
  0
LAYOUT
  5
24
102
{ACAD_REACTORS
330
1A
102
}
330
1A
100
AcDbPlotSettings
  1

  2
none_device
  4
Letter_(8.50_x_11.00_Inches)
  6

 40
6.349999904632568
 41
6.349999904632568
 42
6.350006103515625
 43
6.350006103515625
 44
215.8999938964844
 45
279.3999938964844
 46
0.0
 47
0.0
 48
0.0
 49
0.0
140
0.0
141
0.0
142
1.0
143
1.0
 70
 11952
 72
     1
 73
     1
 74
     0
  7

 75
     0
147
1.0
 76
     0
 77
     2
 78
   300
148
-83.36161879895561
149
0.0
100
AcDbLayout
  1
Model
 70
     1
 71
     0
 10
0.0
 20
0.0
 11
12.0
 21
9.0
 12
0.0
 22
0.0
 32
0.0
 14
0.0
 24
0.0
 34
0.0
 15
0.0
 25
0.0
 35
0.0
146
0.0
 13
0.0
 23
0.0
 33
0.0
 16
1.0
 26
0.0
 36
0.0
 17
0.0
 27
1.0
 37
0.0
 76
     0
330
21
331
1D68
  0
LAYOUT
  5
1880
102
{ACAD_XDICTIONARY
360
1DC1
102
}
102
{ACAD_REACTORS
330
1A
102
}
330
1A
100
AcDbPlotSettings
  1

  2
Canon MP990 series Printer
  4
A4
  6

 40
4.180416584014892
 41
5.831417560577392
 42
4.180404663085937
 43
3.757080078125
 44
209.9733276367187
 45
296.9683227539062
 46
0.0
 47
0.0
 48
0.0
 49
0.0
140
0.0
141
0.0
142
1.0
143
1.0
 70
   688
 72
     1
 73
     1
 74
     5
  7

 75
    16
147
1.0
 76
     1
 77
     2
 78
   300
148
0.0
149
0.0
100
AcDbLayout
  1
レイアウト1
 70
     1
 71
     1
 10
-3.757080078125
 20
-4.180416584014892
 11
293.2112426757813
 21
205.7929110527039
 12
0.0
 22
0.0
 32
0.0
 14
3.070773833669022
 24
5.873386204737187
 34
0.0
 15
285.4943319513993
 25
198.4049299931636
 35
0.0
146
0.0
 13
0.0
 23
0.0
 33
0.0
 16
1.0
 26
0.0
 36
0.0
 17
0.0
 27
1.0
 37
0.0
 76
     0
330
187F
331
1886
  0
MATERIAL
  5
1D72
102
{ACAD_XDICTIONARY
360
1D73
102
}
102
{ACAD_REACTORS
330
1B
102
}
330
1B
100
AcDbMaterial
  1
ByBlock
 72
     0
 43
0.0008202099737533
 43
0.0
 43
0.0
 43
0.0
 43
0.0
 43
0.0008202099737533
 43
0.0
 43
0.0
 43
0.0
 43
0.0
 43
1.0
 43
0.0
 43
0.0
 43
0.0
 43
0.0
 43
1.0
 77
     0
 47
0.0008202099737533
 47
0.0
 47
0.0
 47
0.0
 47
0.0
 47
0.0008202099737533
 47
0.0
 47
0.0
 47
0.0
 47
0.0
 47
1.0
 47
0.0
 47
0.0
 47
0.0
 47
0.0
 47
1.0
171
     0
 49
0.0008202099737533
 49
0.0
 49
0.0
 49
0.0
 49
0.0
 49
0.0008202099737533
 49
0.0
 49
0.0
 49
0.0
 49
0.0
 49
1.0
 49
0.0
 49
0.0
 49
0.0
 49
0.0
 49
1.0
175
     0
142
0.0008202099737533
142
0.0
142
0.0
142
0.0
142
0.0
142
0.0008202099737533
142
0.0
142
0.0
142
0.0
142
0.0
142
1.0
142
0.0
142
0.0
142
0.0
142
0.0
142
1.0
179
     0
144
0.0008202099737533
144
0.0
144
0.0
144
0.0
144
0.0
144
0.0008202099737533
144
0.0
144
0.0
144
0.0
144
0.0
144
1.0
144
0.0
144
0.0
144
0.0
144
0.0
144
1.0
147
0.0008202099737533
147
0.0
147
0.0
147
0.0
147
0.0
147
0.0008202099737533
147
0.0
147
0.0
147
0.0
147
0.0
147
1.0
147
0.0
147
0.0
147
0.0
147
0.0
147
1.0
  0
MATERIAL
  5
1D6A
102
{ACAD_XDICTIONARY
360
1D6B
102
}
102
{ACAD_REACTORS
330
1B
102
}
330
1B
100
AcDbMaterial
  1
ByLayer
 72
     0
 43
0.0008202099737533
 43
0.0
 43
0.0
 43
0.0
 43
0.0
 43
0.0008202099737533
 43
0.0
 43
0.0
 43
0.0
 43
0.0
 43
1.0
 43
0.0
 43
0.0
 43
0.0
 43
0.0
 43
1.0
 77
     0
 47
0.0008202099737533
 47
0.0
 47
0.0
 47
0.0
 47
0.0
 47
0.0008202099737533
 47
0.0
 47
0.0
 47
0.0
 47
0.0
 47
1.0
 47
0.0
 47
0.0
 47
0.0
 47
0.0
 47
1.0
171
     0
 49
0.0008202099737533
 49
0.0
 49
0.0
 49
0.0
 49
0.0
 49
0.0008202099737533
 49
0.0
 49
0.0
 49
0.0
 49
0.0
 49
1.0
 49
0.0
 49
0.0
 49
0.0
 49
0.0
 49
1.0
175
     0
142
0.0008202099737533
142
0.0
142
0.0
142
0.0
142
0.0
142
0.0008202099737533
142
0.0
142
0.0
142
0.0
142
0.0
142
1.0
142
0.0
142
0.0
142
0.0
142
0.0
142
1.0
179
     0
144
0.0008202099737533
144
0.0
144
0.0
144
0.0
144
0.0
144
0.0008202099737533
144
0.0
144
0.0
144
0.0
144
0.0
144
1.0
144
0.0
144
0.0
144
0.0
144
0.0
144
1.0
147
0.0008202099737533
147
0.0
147
0.0
147
0.0
147
0.0
147
0.0008202099737533
147
0.0
147
0.0
147
0.0
147
0.0
147
1.0
147
0.0
147
0.0
147
0.0
147
0.0
147
1.0
  0
MATERIAL
  5
55
102
{ACAD_XDICTIONARY
360
56
102
}
102
{ACAD_REACTORS
330
1B
102
}
330
1B
100
AcDbMaterial
  1
Global
 43
0.0208000000566244
 43
0.0
 43
0.0
 43
0.0
 43
0.0
 43
0.0208000000566244
 43
0.0
 43
0.0
 43
0.0
 43
0.0
 43
1.0
 43
0.0
 43
0.0
 43
0.0
 43
0.0
 43
1.0
 49
0.0208000000566244
 49
0.0
 49
0.0
 49
0.0
 49
0.0
 49
0.0208000000566244
 49
0.0
 49
0.0
 49
0.0
 49
0.0
 49
1.0
 49
0.0
 49
0.0
 49
0.0
 49
0.0
 49
1.0
142
0.0208000000566244
142
0.0
142
0.0
142
0.0
142
0.0
142
0.0208000000566244
142
0.0
142
0.0
142
0.0
142
0.0
142
1.0
142
0.0
142
0.0
142
0.0
142
0.0
142
1.0
144
0.0208000000566244
144
0.0
144
0.0
144
0.0
144
0.0
144
0.0208000000566244
144
0.0
144
0.0
144
0.0
144
0.0
144
1.0
144
0.0
144
0.0
144
0.0
144
0.0
144
1.0
1001
ACAD
1070
    -1
1070
     3
1070
     0
1000

1071
        0
1070
     0
  0
MLEADERSTYLE
  5
1DB0
102
{ACAD_REACTORS
330
1DAF
102
}
330
1DAF
100
AcDbMLeaderStyle
170
     2
171
     1
172
     0
 90
        2
 40
0.0
 41
0.0
173
     1
 91
-1056964608
340
14
 92
       -2
290
     1
 42
2.0
291
     1
 43
0.36
  3
Standard
 44
4.0
300

342
11
174
     1
178
     6
175
     1
176
     0
 93
-1056964608
 45
4.0
292
     0
297
     0
 46
4.0
 94
-1056964608
 47
1.0
 49
1.0
140
1.0
293
     1
141
0.0
294
     1
177
     0
142
1.0
295
     0
296
     0
143
0.125
1001
ACAD_MLEADERVER
1070
     2
  0
MLINESTYLE
  5
18
102
{ACAD_REACTORS
330
17
102
}
330
17
100
AcDbMlineStyle
  2
STANDARD
 70
     0
  3

 62
   256
 51
90.0
 52
90.0
 71
     2
 49
0.5
 62
   256
  6
BYLAYER
 49
-0.5
 62
   256
  6
BYLAYER
  0
ACDBPLACEHOLDER
  5
F
102
{ACAD_REACTORS
330
E
102
}
330
E
  0
SCALE
  5
1D8E
102
{ACAD_REACTORS
330
1D8D
102
}
330
1D8D
100
AcDbScale
 70
     0
300
1:1
140
1.0
141
1.0
290
     1
  0
SCALE
  5
1D8F
102
{ACAD_REACTORS
330
1D8D
102
}
330
1D8D
100
AcDbScale
 70
     0
300
1:2
140
1.0
141
2.0
290
     0
  0
SCALE
  5
1D90
102
{ACAD_REACTORS
330
1D8D
102
}
330
1D8D
100
AcDbScale
 70
     0
300
1:4
140
1.0
141
4.0
290
     0
  0
SCALE
  5
1D91
102
{ACAD_REACTORS
330
1D8D
102
}
330
1D8D
100
AcDbScale
 70
     0
300
1:5
140
1.0
141
5.0
290
     0
  0
SCALE
  5
1D92
102
{ACAD_REACTORS
330
1D8D
102
}
330
1D8D
100
AcDbScale
 70
     0
300
1:8
140
1.0
141
8.0
290
     0
  0
SCALE
  5
1D93
102
{ACAD_REACTORS
330
1D8D
102
}
330
1D8D
100
AcDbScale
 70
     0
300
1:10
140
1.0
141
10.0
290
     0
  0
SCALE
  5
1D94
102
{ACAD_REACTORS
330
1D8D
102
}
330
1D8D
100
AcDbScale
 70
     0
300
1:16
140
1.0
141
16.0
290
     0
  0
SCALE
  5
1D95
102
{ACAD_REACTORS
330
1D8D
102
}
330
1D8D
100
AcDbScale
 70
     0
300
1:20
140
1.0
141
20.0
290
     0
  0
SCALE
  5
1D96
102
{ACAD_REACTORS
330
1D8D
102
}
330
1D8D
100
AcDbScale
 70
     0
300
1:30
140
1.0
141
30.0
290
     0
  0
SCALE
  5
1D97
102
{ACAD_REACTORS
330
1D8D
102
}
330
1D8D
100
AcDbScale
 70
     0
300
1:40
140
1.0
141
40.0
290
     0
  0
SCALE
  5
1D98
102
{ACAD_REACTORS
330
1D8D
102
}
330
1D8D
100
AcDbScale
 70
     0
300
1:50
140
1.0
141
50.0
290
     0
  0
SCALE
  5
1D99
102
{ACAD_REACTORS
330
1D8D
102
}
330
1D8D
100
AcDbScale
 70
     0
300
1:100
140
1.0
141
100.0
290
     0
  0
SCALE
  5
1D9A
102
{ACAD_REACTORS
330
1D8D
102
}
330
1D8D
100
AcDbScale
 70
     0
300
2:1
140
2.0
141
1.0
290
     0
  0
SCALE
  5
1D9B
102
{ACAD_REACTORS
330
1D8D
102
}
330
1D8D
100
AcDbScale
 70
     0
300
4:1
140
4.0
141
1.0
290
     0
  0
SCALE
  5
1D9C
102
{ACAD_REACTORS
330
1D8D
102
}
330
1D8D
100
AcDbScale
 70
     0
300
8:1
140
8.0
141
1.0
290
     0
  0
SCALE
  5
1D9D
102
{ACAD_REACTORS
330
1D8D
102
}
330
1D8D
100
AcDbScale
 70
     0
300
10:1
140
10.0
141
1.0
290
     0
  0
SCALE
  5
1D9E
102
{ACAD_REACTORS
330
1D8D
102
}
330
1D8D
100
AcDbScale
 70
     0
300
100:1
140
100.0
141
1.0
290
     0
  0
SCALE
  5
1D9F
102
{ACAD_REACTORS
330
1D8D
102
}
330
1D8D
100
AcDbScale
 70
     0
300
1/128" = 1'-0"
140
0.0078125
141
12.0
290
     0
  0
SCALE
  5
1DA0
102
{ACAD_REACTORS
330
1D8D
102
}
330
1D8D
100
AcDbScale
 70
     0
300
1/64" = 1'-0"
140
0.015625
141
12.0
290
     0
  0
SCALE
  5
1DA1
102
{ACAD_REACTORS
330
1D8D
102
}
330
1D8D
100
AcDbScale
 70
     0
300
1/32" = 1'-0"
140
0.03125
141
12.0
290
     0
  0
SCALE
  5
1DA2
102
{ACAD_REACTORS
330
1D8D
102
}
330
1D8D
100
AcDbScale
 70
     0
300
1/16" = 1'-0"
140
0.0625
141
12.0
290
     0
  0
SCALE
  5
1DA3
102
{ACAD_REACTORS
330
1D8D
102
}
330
1D8D
100
AcDbScale
 70
     0
300
3/32" = 1'-0"
140
0.09375
141
12.0
290
     0
  0
SCALE
  5
1DA4
102
{ACAD_REACTORS
330
1D8D
102
}
330
1D8D
100
AcDbScale
 70
     0
300
1/8" = 1'-0"
140
0.125
141
12.0
290
     0
  0
SCALE
  5
1DA5
102
{ACAD_REACTORS
330
1D8D
102
}
330
1D8D
100
AcDbScale
 70
     0
300
3/16" = 1'-0"
140
0.1875
141
12.0
290
     0
  0
SCALE
  5
1DA6
102
{ACAD_REACTORS
330
1D8D
102
}
330
1D8D
100
AcDbScale
 70
     0
300
1/4" = 1'-0"
140
0.25
141
12.0
290
     0
  0
SCALE
  5
1DA7
102
{ACAD_REACTORS
330
1D8D
102
}
330
1D8D
100
AcDbScale
 70
     0
300
3/8" = 1'-0"
140
0.375
141
12.0
290
     0
  0
SCALE
  5
1DA8
102
{ACAD_REACTORS
330
1D8D
102
}
330
1D8D
100
AcDbScale
 70
     0
300
1/2" = 1'-0"
140
0.5
141
12.0
290
     0
  0
SCALE
  5
1DA9
102
{ACAD_REACTORS
330
1D8D
102
}
330
1D8D
100
AcDbScale
 70
     0
300
3/4" = 1'-0"
140
0.75
141
12.0
290
     0
  0
SCALE
  5
1DAA
102
{ACAD_REACTORS
330
1D8D
102
}
330
1D8D
100
AcDbScale
 70
     0
300
1" = 1'-0"
140
1.0
141
12.0
290
     0
  0
SCALE
  5
1DAB
102
{ACAD_REACTORS
330
1D8D
102
}
330
1D8D
100
AcDbScale
 70
     0
300
1-1/2" = 1'-0"
140
1.5
141
12.0
290
     0
  0
SCALE
  5
1DAC
102
{ACAD_REACTORS
330
1D8D
102
}
330
1D8D
100
AcDbScale
 70
     0
300
3" = 1'-0"
140
3.0
141
12.0
290
     0
  0
SCALE
  5
1DAD
102
{ACAD_REACTORS
330
1D8D
102
}
330
1D8D
100
AcDbScale
 70
     0
300
6" = 1'-0"
140
6.0
141
12.0
290
     0
  0
SCALE
  5
1DAE
102
{ACAD_REACTORS
330
1D8D
102
}
330
1D8D
100
AcDbScale
 70
     0
300
1'-0" = 1'-0"
140
12.0
141
12.0
290
     0
  0
TABLESTYLE
  5
1D8C
102
{ACAD_XDICTIONARY
360
1DDA
102
}
102
{ACAD_REACTORS
330
1D8B
102
}
330
1D8B
100
AcDbTableStyle
  3
Standard
 70
     0
 71
     0
 40
1.5
 41
1.5
280
     0
281
     0
  7
Standard
140
4.5
170
     2
 62
     0
 63
     7
283
     0
274
    -2
284
     1
 64
     0
275
    -2
285
     1
 65
     0
276
    -2
286
     1
 66
     0
277
    -2
287
     1
 67
     0
278
    -2
288
     1
 68
     0
279
    -2
289
     1
 69
     0
  7
Standard
140
6.0
170
     5
 62
     0
 63
     7
283
     0
274
    -2
284
     1
 64
     0
275
    -2
285
     1
 65
     0
276
    -2
286
     1
 66
     0
277
    -2
287
     1
 67
     0
278
    -2
288
     1
 68
     0
279
    -2
289
     1
 69
     0
  7
Standard
140
4.5
170
     5
 62
     0
 63
     7
283
     0
274
    -2
284
     1
 64
     0
275
    -2
285
     1
 65
     0
276
    -2
286
     1
 66
     0
277
    -2
287
     1
 67
     0
278
    -2
288
     1
 68
     0
279
    -2
289
     1
 69
     0
  0
VISUALSTYLE
  5
1D80
102
{ACAD_REACTORS
330
1D7A
102
}
330
1D7A
100
AcDbVisualStyle
  2
2dWireframe
 70
     4
 71
     0
 72
     2
 73
     0
 90
        0
 40
-0.6
 41
-30.0
 62
     5
 63
     7
421
 16777215
 74
     1
 91
        4
 64
     7
 65
   257
 75
     1
175
     1
 42
1.0
 92
        0
 66
   257
 43
1.0
 76
     1
 77
     6
 78
     2
 67
     7
 79
     5
170
     0
171
     0
290
     0
174
     0
 93
        1
 44
0.0
173
     0
291
     0
 45
0.0
1001
ACAD
1000
AcDbSavedByObjectVersion
1070
     0
  0
VISUALSTYLE
  5
1D82
102
{ACAD_REACTORS
330
1D7A
102
}
330
1D7A
100
AcDbVisualStyle
  2
3D Hidden
 70
     6
 71
     1
 72
     2
 73
     2
 90
        0
 40
-0.6
 41
-30.0
 62
     5
 63
     7
421
 16777215
 74
     2
 91
        2
 64
     7
 65
   257
 75
     2
175
     1
 42
40.0
 92
        0
 66
   257
 43
1.0
 76
     1
 77
     6
 78
     2
 67
     7
 79
     3
170
     0
171
     0
290
     0
174
     0
 93
        1
 44
0.0
173
     0
291
     0
 45
0.0
1001
ACAD
1000
AcDbSavedByObjectVersion
1070
     0
  0
VISUALSTYLE
  5
1D81
102
{ACAD_REACTORS
330
1D7A
102
}
330
1D7A
100
AcDbVisualStyle
  2
3dWireframe
 70
     5
 71
     0
 72
     2
 73
     0
 90
        0
 40
-0.6
 41
-30.0
 62
     5
 63
     7
421
 16777215
 74
     1
 91
        4
 64
     7
 65
   257
 75
     1
175
     1
 42
1.0
 92
        0
 66
   257
 43
1.0
 76
     1
 77
     6
 78
     2
 67
     7
 79
     5
170
     0
171
     0
290
     0
174
     0
 93
        1
 44
0.0
173
     0
291
     0
 45
0.0
1001
ACAD
1000
AcDbSavedByObjectVersion
1070
     0
  0
VISUALSTYLE
  5
1D7F
102
{ACAD_REACTORS
330
1D7A
102
}
330
1D7A
100
AcDbVisualStyle
  2
Basic
 70
     7
 71
     1
 72
     0
 73
     1
 90
        0
 40
-0.6
 41
-30.0
 62
     5
 63
     7
421
 16777215
 74
     0
 91
        4
 64
     7
 65
   257
 75
     1
175
     1
 42
1.0
 92
        8
 66
     7
 43
1.0
 76
     1
 77
     6
 78
     2
 67
     7
 79
     5
170
     0
171
     0
290
     0
174
     0
 93
        1
 44
0.0
173
     0
291
     1
 45
0.0
1001
ACAD
1000
AcDbSavedByObjectVersion
1070
     0
  0
VISUALSTYLE
  5
1D86
102
{ACAD_REACTORS
330
1D7A
102
}
330
1D7A
100
AcDbVisualStyle
  2
Brighten
 70
    12
 71
     2
 72
     2
 73
     0
 90
        0
 40
-0.6
 41
-30.0
 62
     5
 63
     7
421
 16777215
 74
     1
 91
        4
 64
     7
 65
   257
 75
     1
175
     1
 42
1.0
 92
        8
 66
     7
 43
1.0
 76
     1
 77
     6
 78
     2
 67
     7
 79
     5
170
     0
171
     0
290
     0
174
     0
 93
        1
 44
50.0
173
     0
291
     1
 45
0.0
1001
ACAD
1000
AcDbSavedByObjectVersion
1070
     0
  0
VISUALSTYLE
  5
1D8A
102
{ACAD_REACTORS
330
1D7A
102
}
330
1D7A
100
AcDbVisualStyle
  2
ColorChange
 70
    16
 71
     2
 72
     2
 73
     3
 90
        0
 40
-0.6
 41
-30.0
 62
     5
 63
     8
421
  8421504
 74
     1
 91
        4
 64
     7
 65
   257
 75
     1
175
     1
 42
1.0
 92
        8
 66
     8
424
  8421504
 43
1.0
 76
     1
 77
     6
 78
     2
 67
     7
 79
     5
170
     0
171
     0
290
     0
174
     0
 93
        1
 44
0.0
173
     0
291
     1
 45
0.0
1001
ACAD
1000
AcDbSavedByObjectVersion
1070
     0
  0
VISUALSTYLE
  5
1D83
102
{ACAD_REACTORS
330
1D7A
102
}
330
1D7A
100
AcDbVisualStyle
  2
Conceptual
 70
     9
 71
     3
 72
     2
 73
     0
 90
        0
 40
-0.6
 41
-30.0
 62
     5
 63
     7
421
 16777215
 74
     2
 91
        2
 64
     7
 65
   257
 75
     1
175
     1
 42
40.0
 92
        8
 66
     7
 43
1.0
 76
     1
 77
     6
 78
     2
 67
     7
 79
     3
170
     0
171
     0
290
     0
174
     0
 93
        1
 44
0.0
173
     0
291
     0
 45
0.0
1001
ACAD
1000
AcDbSavedByObjectVersion
1070
     0
  0
VISUALSTYLE
  5
1D85
102
{ACAD_REACTORS
330
1D7A
102
}
330
1D7A
100
AcDbVisualStyle
  2
Dim
 70
    11
 71
     2
 72
     2
 73
     0
 90
        0
 40
-0.6
 41
-30.0
 62
     5
 63
     7
421
 16777215
 74
     1
 91
        4
 64
     7
 65
   257
 75
     1
175
     1
 42
1.0
 92
        8
 66
     7
 43
1.0
 76
     1
 77
     6
 78
     2
 67
     7
 79
     5
170
     0
171
     0
290
     0
174
     0
 93
        1
 44
-50.0
173
     0
291
     1
 45
0.0
1001
ACAD
1000
AcDbSavedByObjectVersion
1070
     0
  0
VISUALSTYLE
  5
1D89
102
{ACAD_REACTORS
330
1D7A
102
}
330
1D7A
100
AcDbVisualStyle
  2
Facepattern
 70
    15
 71
     2
 72
     2
 73
     0
 90
        0
 40
-0.6
 41
-30.0
 62
     5
 63
     7
421
 16777215
 74
     1
 91
        4
 64
     7
 65
   257
 75
     1
175
     1
 42
1.0
 92
        8
 66
     7
 43
1.0
 76
     1
 77
     6
 78
     2
 67
     7
 79
     5
170
     0
171
     0
290
     0
174
     0
 93
        1
 44
0.0
173
     0
291
     1
 45
0.0
1001
ACAD
1000
AcDbSavedByObjectVersion
1070
     0
  0
VISUALSTYLE
  5
1D7B
102
{ACAD_REACTORS
330
1D7A
102
}
330
1D7A
100
AcDbVisualStyle
  2
Flat
 70
     0
 71
     2
 72
     1
 73
     1
 90
        2
 40
-0.6
 41
30.0
 62
     5
 63
     7
421
 16777215
 74
     0
 91
        4
 64
     7
 65
   257
 75
     1
175
     1
 42
1.0
 92
        8
 66
     7
 43
1.0
 76
     1
 77
     6
 78
     2
 67
     7
 79
     5
170
     0
171
     0
290
     0
174
     0
 93
       13
 44
0.0
173
     0
291
     1
 45
0.0
1001
ACAD
1000
AcDbSavedByObjectVersion
1070
     0
  0
VISUALSTYLE
  5
1D7C
102
{ACAD_REACTORS
330
1D7A
102
}
330
1D7A
100
AcDbVisualStyle
  2
FlatWithEdges
 70
     1
 71
     2
 72
     1
 73
     1
 90
        2
 40
-0.6
 41
30.0
 62
     5
 63
     7
421
 16777215
 74
     1
 91
        4
 64
     7
 65
   257
 75
     1
175
     1
 42
1.0
 92
        0
 66
   257
 43
1.0
 76
     1
 77
     6
 78
     2
 67
     7
 79
     5
170
     0
171
     0
290
     0
174
     0
 93
       13
 44
0.0
173
     0
291
     1
 45
0.0
1001
ACAD
1000
AcDbSavedByObjectVersion
1070
     0
  0
VISUALSTYLE
  5
1D7D
102
{ACAD_REACTORS
330
1D7A
102
}
330
1D7A
100
AcDbVisualStyle
  2
Gouraud
 70
     2
 71
     2
 72
     2
 73
     1
 90
        2
 40
-0.6
 41
30.0
 62
     5
 63
     7
421
 16777215
 74
     0
 91
        4
 64
     7
 65
   257
 75
     1
175
     1
 42
1.0
 92
        0
 66
     7
 43
1.0
 76
     1
 77
     6
 78
     2
 67
     7
 79
     5
170
     0
171
     0
290
     0
174
     0
 93
       13
 44
0.0
173
     0
291
     1
 45
0.0
1001
ACAD
1000
AcDbSavedByObjectVersion
1070
     0
  0
VISUALSTYLE
  5
1D7E
102
{ACAD_REACTORS
330
1D7A
102
}
330
1D7A
100
AcDbVisualStyle
  2
GouraudWithEdges
 70
     3
 71
     2
 72
     2
 73
     1
 90
        2
 40
-0.6
 41
30.0
 62
     5
 63
     7
421
 16777215
 74
     1
 91
        4
 64
     7
 65
   257
 75
     1
175
     1
 42
1.0
 92
        0
 66
   257
 43
1.0
 76
     1
 77
     6
 78
     2
 67
     7
 79
     5
170
     0
171
     0
290
     0
174
     0
 93
       13
 44
0.0
173
     0
291
     1
 45
0.0
1001
ACAD
1000
AcDbSavedByObjectVersion
1070
     0
  0
VISUALSTYLE
  5
1D88
102
{ACAD_REACTORS
330
1D7A
102
}
330
1D7A
100
AcDbVisualStyle
  2
Linepattern
 70
    14
 71
     2
 72
     2
 73
     0
 90
        0
 40
-0.6
 41
-30.0
 62
     5
 63
     7
421
 16777215
 74
     1
 91
        4
 64
     7
 65
   257
 75
     7
175
     7
 42
1.0
 92
        8
 66
     7
 43
1.0
 76
     1
 77
     6
 78
     2
 67
     7
 79
     5
170
     0
171
     0
290
     0
174
     0
 93
        1
 44
0.0
173
     0
291
     1
 45
0.0
1001
ACAD
1000
AcDbSavedByObjectVersion
1070
     0
  0
VISUALSTYLE
  5
1D84
102
{ACAD_REACTORS
330
1D7A
102
}
330
1D7A
100
AcDbVisualStyle
  2
Realistic
 70
     8
 71
     2
 72
     2
 73
     0
 90
        0
 40
-0.6
 41
-30.0
 62
     5
 63
     7
421
 16777215
 74
     1
 91
        0
 64
     7
 65
   257
 75
     1
175
     1
 42
1.0
 92
        8
 66
     8
424
  7895160
 43
1.0
 76
     1
 77
     6
 78
     2
 67
     7
 79
     5
170
     0
171
     0
290
     0
174
     0
 93
       13
 44
0.0
173
     0
291
     0
 45
0.0
1001
ACAD
1000
AcDbSavedByObjectVersion
1070
     0
  0
VISUALSTYLE
  5
1D87
102
{ACAD_REACTORS
330
1D7A
102
}
330
1D7A
100
AcDbVisualStyle
  2
Thicken
 70
    13
 71
     2
 72
     2
 73
     0
 90
        0
 40
-0.6
 41
-30.0
 62
     5
 63
     7
421
 16777215
 74
     1
 91
        4
 64
     7
 65
   257
 75
     1
175
     1
 42
1.0
 92
       12
 66
     7
 43
1.0
 76
     1
 77
     6
 78
     2
 67
     7
 79
     5
170
     0
171
     0
290
     0
174
     0
 93
        1
 44
0.0
173
     0
291
     1
 45
0.0
1001
ACAD
1000
AcDbSavedByObjectVersion
1070
     0
  0
DICTIONARYVAR
  5
1DD9
102
{ACAD_REACTORS
330
1DD6
102
}
330
1DD6
100
DictionaryVariables
280
     0
  1
1:1
  0
DICTIONARYVAR
  5
1DD8
102
{ACAD_REACTORS
330
1DD6
102
}
330
1DD6
100
DictionaryVariables
280
     0
  1
STANDARD
  0
DICTIONARYVAR
  5
1DD7
102
{ACAD_REACTORS
330
1DD6
102
}
330
1DD6
100
DictionaryVariables
280
     0
  1
STANDARD
  0
DICTIONARY
  5
1DC1
330
1880
100
AcDbDictionary
280
     1
281
     1
  3
ADSK_XREC_LAYOUTTHUMBNAIL
360
1DC2
  0
DICTIONARY
  5
1D73
330
1D72
100
AcDbDictionary
280
     1
281
     1
  3
ACAD_XREC_ROUNDTRIP
360
1DDF
  3
BUMPTILE
360
1D75
  3
DIFFUSETILE
360
1D74
  3
OPACITYTILE
360
1D78
  3
REFLECTIONTILE
360
1D77
  3
REFRACTIONTILE
360
1D79
  3
SPECULARTILE
360
1D76
  0
DICTIONARY
  5
1D6B
330
1D6A
100
AcDbDictionary
280
     1
281
     1
  3
ACAD_XREC_ROUNDTRIP
360
1DDE
  3
BUMPTILE
360
1D6D
  3
DIFFUSETILE
360
1D6C
  3
OPACITYTILE
360
1D70
  3
REFLECTIONTILE
360
1D6F
  3
REFRACTIONTILE
360
1D71
  3
SPECULARTILE
360
1D6E
  0
DICTIONARY
  5
56
330
55
100
AcDbDictionary
280
     1
281
     1
  3
ACAD_XREC_ROUNDTRIP
360
1DDD
  3
BUMPTILE
360
58
  3
DIFFUSETILE
360
59
  3
OPACITYTILE
360
5A
  3
REFLECTIONTILE
360
5B
  0
DICTIONARY
  5
1DDA
330
1D8C
100
AcDbDictionary
280
     1
281
     1
  3
ACAD_ROUNDTRIP_2008_TABLESTYLE_CELLSTYLEMAP
360
1DDB
  3
ACAD_XREC_ROUNDTRIP
360
1DE0
  0
XRECORD
  5
1DC2
102
{ACAD_REACTORS
330
1DC1
102
}
330
1DC1
100
AcDbXrecord
280
     1
310
28000000B40000007F00000001000800000000004C59000000000000000000000001000000000000FFFFFF0000000000FFFFFF000000000000000000000000000000000000000000000000000000000000000000330000006600000099000000CC000000FF00000000330000333300006633000099330000CC330000FF3300
310
0000660000336600006666000099660000CC660000FF66000000990000339900006699000099990000CC990000FF99000000CC000033CC000066CC000099CC0000CCCC0000FFCC000000FF000033FF000066FF000099FF0000CCFF0000FFFF000000003300330033006600330099003300CC003300FF003300003333003333
310
33006633330099333300CC333300FF33330000663300336633006666330099663300CC663300FF66330000993300339933006699330099993300CC993300FF99330000CC330033CC330066CC330099CC3300CCCC3300FFCC330000FF330033FF330066FF330099FF3300CCFF3300FFFF330000006600330066006600660099
310
006600CC006600FF00660000336600333366006633660099336600CC336600FF33660000666600336666006666660099666600CC666600FF66660000996600339966006699660099996600CC996600FF99660000CC660033CC660066CC660099CC6600CCCC6600FFCC660000FF660033FF660066FF660099FF6600CCFF6600
310
FFFF660000009900330099006600990099009900CC009900FF00990000339900333399006633990099339900CC339900FF33990000669900336699006666990099669900CC669900FF66990000999900339999006699990099999900CC999900FF99990000CC990033CC990066CC990099CC9900CCCC9900FFCC990000FF99
310
0033FF990066FF990099FF9900CCFF9900FFFF99000000CC003300CC006600CC009900CC00CC00CC00FF00CC000033CC003333CC006633CC009933CC00CC33CC00FF33CC000066CC003366CC006666CC009966CC00CC66CC00FF66CC000099CC003399CC006699CC009999CC00CC99CC00FF99CC0000CCCC0033CCCC0066CC
310
CC0099CCCC00CCCCCC00FFCCCC0000FFCC0033FFCC0066FFCC0099FFCC00CCFFCC00FFFFCC000000FF003300FF006600FF009900FF00CC00FF00FF00FF000033FF003333FF006633FF009933FF00CC33FF00FF33FF000066FF003366FF006666FF009966FF00CC66FF00FF66FF000099FF003399FF006699FF009999FF00CC
310
99FF00FF99FF0000CCFF0033CCFF0066CCFF0099CCFF00CCCCFF00FFCCFF0000FFFF0033FFFF0066FFFF0099FFFF00CCFFFF00FFFFFF00000000000D0D0D001A1A1A00282828003535350043434300505050005D5D5D006B6B6B00787878008686860093939300A1A1A100AEAEAE00BBBBBB00C9C9C900D6D6D600E4E4E400
310
F1F1F100FFFFFF0000000000000000000000000000000000000000000000000000000000000000000000000000000000E2E2E2E2E2E2E2E2E2E2E2E2E2E2E2E2E2E2E2E2E2E2E2E2E2E2E2E2E2E2E2E2E2E2E2E2E2E2E2E2E2E2E2E2E2E2E2E2E2E2E2E2E2E2E2E2E2E2E2E2E2E2E2E2E2E2E2E2E2E2E2E2E2E2E2E2E2E2E2
310
E2E2E2E2E2E2E2E2E2E2E2E2E2E2E2E2E2E2E2E2E2E2E2E2E2E2E2E2E2E2E2E2E2E2E2E2E2E2E2E2E2E2E2E2E2E2E2E2E2E2E2E2E2E2E2E2E2E2E2E2E2E2E2E2E2E2E2E2E2E2E2E2E2E2E2E2E2E2E2E2E2E2E2E2E2E2E2E2E2E2E2E2E2E2E2E2E2E2E2E2E2F5F5F5F5F5F5F5F5F5F5F5F5F5F5F5F5F5F5F5F5F5F5F5F5F5F5
310
F5F5F5F5F5F5F5F5F5F5F5F5F5F5F5F5F5F5F5F5F5F5F5F5F5F5F5F5F5F5F5F5F5F5F5F5F5F5F5F5F5F5F5F5F5F5F5F5F5F5F5F5F5F5F5F5F5F5F5F5F5F5F5F5F5F5F5F5F5F5F5F5F5F5F5F5F5F5F5F5F5F5F5F5F5F5F5F5F5F5F5F5F5F5F5F5F5F5F5F5F5F5F5F5F5F5F5F5F5F5F5F5F5F5F5F5F5F5F5F5F5F5F5F5F5F5F5
310
F5F5F5F5F5F5F5F5F5F5F5F5F5F5F5F5F5F5F5F5F5F5F5F5F5E2E2F5F5F5F5F5F5F5F5F5F5F5F5F5F5F5F5F5F5F5F5F5F5F5F5F5F5F5F5F5F5F5F5F5F5F5F5F5F5F5F5F5F5F5F5F5F5F5F5F5F5F5F5F5F5F5F5F5F5F5F5F5F5F5F5F5F5F5F5F5F5F5F5F5F5F5F5F5F5F5F5F5F5F5F5F5F5F5F5F5F5F5F5F5F5F5F5F5F5F5F5
310
F5F5F5F5F5F5F5F5F5F5F5F5F5F5F5F5F5F5F5F5F5F5F5F5F5F5F5F5F5F5F5F5F5F5F5F5F5F5F5F5F5F5F5F5F5F5F5F5F5F5F5F5F5F5F5F5F5F5F5F5F5F5F5F5F5F5F5F5F5F5F5F5F5F5F5F5F5F5E2E2F5F5E2E2E2E2E2E2E2E2F5F5F5F5F5F5F5F5F5E2E2E2E2E2E2E2E2E2E2E2E2E2E2E2E2F5F5F5F5F5F5F5F5F5E2E2E2
310
E2E2E2E2E2E2E2E2E2E2E2E2E2F5F5F5F5F5F5F5F5E2E2E2E2E2E2E2E2E2E2E2E2E2E2E2E2F5F5F5F5F5F5F5F5F5E2E2E2E2E2E2E2E2E2E2E2E2E2E2E2E2F5F5F5F5F5F5F5F5E2E2E2E2E2E2E2E2E2E2E2E2E2E2E2E2F5F5F5F5F5F5F5F5F5E2E2E2E2E2E2E2E2E2E2E2E2E2E2E2E2F5F5F5F5F5F5F5F5F5E2E2E2E2E2E2E2
310
E2F5F5F5E2E2F5F5E2F5F5F5F5F5F5F5F5F5F5F5F5F5F5F5F5F5F5F5F5F5F5F5F5F5F5F5F5F5F5F5F5F5F5F5F5F5F5F5F5F5F5F5F5F5F5F5F5F5F5F5F5F5F5F5F5F5F5F5F5F5F5F5F5F5F5F5F5F5F5F5F5F5F5F5F5F5F5F5F5F5F5F5F5F5F5F5F5F5F5F5F5F5F5F5F5F5F5F5F5F5F5F5F5F5F5F5F5F5F5F5F5F5F5F5F5F5F5
310
F5F5F5F5F5F5F5F5F5F5F5F5F5F5F5F5F5F5F5F5F5F5F5F5F5F5F5F5F5F5F5F5F5F5F5F5F5F5F5F5F5F5F5F5F5F5F5F5F5F5F5F5F5E2F5F5F5E2E2F5F5E2F5F5F5F5F5F5F5F5F5F5F5F5F5F5F5F5F5F5F5F5F5F5F5F5F5F5F5F5F5F5F5F5F5F5F5F5F5F5F5F5F5F5F5F5F5F5F5F5F5F5F5F5F5F5F5F5F5F5F5F5F5F5F5F5F5
310
F5F5F5F5F5F5F5F5F5F5F5F5F5F5F5F5F5F5F5F5F5F5F5F5F5F5F5F5F5F5F5F5F5F5F5F5F5F5F5F5F5F5F5F5F5F5F5F5F5F5F5F5F5F5F5F5F5F5F5F5F5F5F5F5F5F5F5F5F5F5F5F5F5F5F5F5F5F5F5F5F5F5F5F5F5F5F5F5F5F5F5F5F5F5F5F5F5F5F5F5F5F5F5F5F5F5E2F5F5F5E2E2F5F5E2C3C3C3C3C3C3C3C3C3C3C3C3
310
C3C3C3C3C3C3C3C3C3C3C3C3C3C3C3C3C3C3C3C3C3C3C3C3C3C3C3C3C3C3C3C3C3C3C3C3C3C3C3C3C3C3C3C3C3C3C3C3C3C3C3C3C3C3C3C3C3C3C3C3C3C3C3C3C3C3C3C3C3C3C3C3C3C3C3C3C3C3C3C3C3C3C3C3C3C3C3C3C3C3C3C3C3C3C3C3C3C3C3C3C3C3C3C3C3C3C3C3C3C3C3C3C3C3C3C3C3C3C3C3C3C3C3C3C3C3C3
310
C3C3C3C3C3C3C3C3C3C3C3C3C3C3C3C3C3C3C3C3C3C3C3C3C3C3C3C3C3C3C3C3E2F5F5F5E2E2F5F5E2C3F5F5F5F5F5F5F5F5F5F5F5F5F5F5F5F5F5F5F5F5F5F5F5F5F5F5F5F5F5F5F5F5F5F5F5F5F5F5F5F5F5F5F5F5F5F5F5F5F5F5F5F5F5F5F5F5F5F5F5F5F5F5F5F5F5F5F5F5F5F5F5F5F5F5F5F5F5F5F5F5F5F5F5F5F5
310
F5F5F5F5F5F5F5F5F5F5F5F5F5F5F5F5F5F5F5F5F5F5F5F5F5F5F5F5F5F5F5F5F5F5F5F5F5F5F5F5F5F5F5F5F5F5F5F5F5F5F5F5F5F5F5F5F5F5F5F5F5F5F5F5F5F5F5F5F5F5F5F5F5F5F5F5F5F5F5F5F5F5F5F5C3E2F5F5F5E2E2F5F5E2C3F5F5F5F5F5F5F5F5F5F5F5F5F5F5F5F5F5F5F5F5F5F5F5F5F5F5F5F5F5F5F5F5
310
F5F5F5F5F5F5F5F5F5F5F5F5F5F5F5F5F5F5F5F5F5F5F5F5F5F5F5F5F5F5F5F5F5F5F5F5F5F5F5F5F5F5F5F5F5F5F5F5F5F5F5F5F5F5F5F5F5F5F5F5F5F5F5F5F5F5F5F5F5F5F5F5F5F5F5F5F5F5F5F5F5F5F5F5F5F5F5F5F5F5F5F5F5F5F5F5F5F5F5F5F5F5F5F5F5F5F5F5F5F5F5F5F5F5F5F5F5F5F5F5F5F5F5F5F5F5F5
310
F5F5F5F5F5F5F5F5F5F5C3E2F5F5F5E2E2F5F5E2C3F5F5F5F5F5F5F5F5F5F5F5F5F5F5F5F5F5F5F5F5F5F5F5F5F5F5F5F5F5F5F5F5F5F5F5F5F5F5F5F5F5F5F5F5F5F5F5F5F5F5F5F5F5F5F5F5F5F5F5F5F5F5F5F5F5F5F5F5F5F5F5F5F5F5F5F5F5F5F5F5F5F5F5F5F5F5F5F5F5F5F5F5F5F5F5F5F5F5F5F5F5F5F5F5F5F5
310
F5F5F5E2E2E2E2E2E2E2E2E2E2E2E2E2E2E2E2E2E2E2E2E2E2E2E2E2E2E2E2E2E2E2E2E2E2E2E2E2E2E2E2E2E2E2E2E2E2E2E2E2E2E2E2E2E2E2E2E2E2E2F5C3E2F5F5F5E2E2F5F5E2C3F5F5F5F5F5F5F5F5F5F5F5F5F5F5F5F5F5F5F5F5F5F5F5F5F5F5F5F5F5F5F5F5F5F5F5F5F5F5F5F5F5F5F5F5F5F5F5F5F5F5F5F5F5
310
F5F5F5F5F5F5F5F5F5F5F5F5F5F5F5F5F5F5F5F5F5F5F5F5F5F5F5F5F5F5F5F5F5F5F5F5F5F5F5F5F5F5F5F5F5F5F5F5F5F5F5F5F5F5F5F5E2F5F5F5F5F5F5F528282828282828F52828282828282828282828282828282828282828282828282828F528282828F52828282828F5F5F5F5F5E2F5C3E2F5F5F5E2E2F5F5F5C3
310
F5F5F5F5F5F5F5F5F5F5F5F5F5F5F5F5F5F5F5F5F5F5F5F5F5F5F5F5F5F5F5F5F5F5F5F5F5F5F5F5F5F5F5F5F5F5F5F5F5F5F5F5F5F5F5F5F5F5F5F5F5F5F5F5F5F5F5F5F5F5F5F5F5F5F5F5F5F5F5F5F5F5F5F5F5F5F5F5F5F5F5F5F5F5F5F5F5F5F5F5F5F5F5F5F5F5F5F5F5E2F5F5F5F5F5F5F528282828282828282828
310
2828282828282828282828282828F528282828282828F528F5282828F5F528282828F5F5F5F5F5F5E2F5C3F5F5F5F5E2E2F5F5F5C3F5F5F5F5F5F5F5F5F5F5F5F5F5F5F5F5F5F5F5F5F5F5F5F5F5F5F5F5F5F5F5F5F5F5F5F5F5F5F5F5F5F5F5F5F5F5F5F5F5F5F5F5F5F5F5F5F5F5F5F5F5F5F5F5F5F5F5F5F5F5F5F5F5F5
310
F5F5F5F5F5F5F5F5F5F5F5F5F5F5F5F5F5F5F5F5F5F5F5F5F5F5F5F5F5F5F5F5F5F5F5E2F5F5F5F5F5F5282828282828282828F5282828282828282828F528282828282828F5F528282828F528F5282828F5F5282828F5F5F5F5F5F5F5E2F5C3F5F5F5F5E2E2F5F5F5C3F5F5F5F5F5F5F5F5F5F5F5F5F5F5F5F5F5F5F5F5F5
310
F5F5F5F5F5F5F5F5F5F5F5F5F5F5F5F5F5F5F5F5F5F5F5F5F5F5F5F5F5F5F5F5F5F5F5F5F5F5F5F5F5F5F5F5F5F5F5F5F5F5F5F5F5F5F5F5F5F5F5F5F5F5F5F5F5F5F5F5F5F5F5F5F5F5F5F5F5F5F5F5F5F5F5F5F5F5F5F5E2E2E2E2E2E2E2E2E2E2E2E2E2E2E2E2E2E2E2E2E2E2E2E2E2E2E2E2E2E2E2E2E2E2E2E2E2E2E2
310
E2E2E2E2E2E2E2E2E2E2E2E2E2E2E2E2E2E2E2E2F5C3F5F5F5F5E2E2F5F5F5C3F5F5F5F5F5F5F5F5F5F5F5F5F5F5F5F5F5F5F5F5F5F5F5F5F5F5F5F5F5F5F5F5F5F5F5F5F5F5F5F5F5F5F5F5F5F5F5F5F5F5F5F5F5F5F5F5F5F5F5F5F5F5F5F5F5F5F5F5F5F5F5F5F5F5F5F5F5F5F5F5F5F5F5F5F5F5F5F5F5F5F5F5F5F5F5
310
F5F5F5F5F5F5F5F5F5F5F5F5F5F5E2F52828F52828F5E2F5F5F52828282828F5F528F5282828F5F5282828282828F528282828F5F52828F5F5F5F5F5F5F5F5F5F5F5F5F5F5F5F5F5E2F5C3F5F5F5F5E2E2F5F5F5C3F5F5F5F5F5F5F5F5F5F5F5F5F5F5F5F5F5F5F5F5F5F5F5F5F5F5F5F5F5F5F5F5F5F5F5F5F5F5F5F5F5F5
310
F5F5F5F5F5F5F5F5F5F5F5F5F5F5F5F5F5F5F5F5F5F5F5F5F5F5F5F5F5F5F5F5F5F5F5F5F5F5F5F5F5F5F5F5F5F5F5F5F5F5F5F5F5F5F5F5F5F5F5F5F5F5F5F5F5F5F5E2F52828282828F5E2F5F5F528282828282828282828282828282828282828F52828F528282828F528F5F5F5F5F5F5F5F5F5F5F5F5F5F5F5F5F5E2F5
310
C3F5F5F5F5E2E2F5F5F5C3F5F5F5F5F5F5F5F5F5F5F5F5F5F5F5F5F5F5F5F5F5F5F5F5F5F5F5F5F5F5F5F5F5F5F5F5F5F5F5F5F5F5F5F5F5F5F5F5F5F5F5F5F5F5F5F5F5F5F5F5F5F5F5F5F5F5F5F5F5F5F5F5F5F5F5F5F5F5F5F5F5F5F5F5F5F5F5F5F5F5F5F5F5F5F5F5F5F5F5F5F5F5F5F5F5F5F5F5F5E2F52828282828
310
F5E2F5F5282828282828F5F52828282828F5F52828282828282828282828F5F52828F5F5F5F5F5F5F5F5F5F5F5F5F5F5F5F5F5E2F5C3F5F5F5F5E2E2F5F5F5C3F5F5F5F5F5F5F5F5F5F5F5F5F5F5F5F5F5F5F5F5F5F5F5F5F5F5F5F5F5F5F5F5F5F5F5F5F5F5F5F5F5F5F5F5F5F5F5F5F5F5F5F5F5F5F5F5F5F5F5F5F5F5F5
310
F5F5F5F5F5F5F5F5F5F5F5F5F5F5F5F5F5F5F5F5F5F5F5F5F5F5F5F5F5F5F5F5F5F5F5F5F5F5F5F5F5F5F5F5F5F5E2E2E2E2E2E2E2E2E2E2E2E2E2E2E2E2E2E2E2E2E2E2E2E2E2E2E2E2E2E2E2E2E2E2E2E2E2E2E2E2E2E2E2E2E2E2E2E2E2E2E2E2E2E2E2E2E2E2E2F5C3F5F5F5F5E2E2F5F5F5C3F5F5F5F5F5F5F5F5F5F5
310
F5F5F5F5F5F5F5F5F5F5F5F5F5F5F5F5F5F5F5F5F5F5F5F5F5F5F5F5F5F5F5F5F5F5F5F5F5F5F5F5F5F5F5F5F5F5F5F5F5F5F5F5F5F5F5F5F5F5F5F5F5F5F5F5F5F5F5F5F5F5F5F5F5F5F5F5F5F5F5F5F5F5F5F5F5F5F5F5F5F5F5F5F5F5F5F5F5F5F5E2F5282828F528F5E2F5F5F5F5F528F52828F5F5F528282828F5F5F5
310
282828282828F5F5F5F5F5F5F5E2F5F528282828F5E2F5282828282828F5E2F5C3F5F5F5F5E2E2F5F5F5C3F5F5F5F5F5F5F5F5F5F5F5F5F5F5F5F5F5F5F5F5F5F5F5F5F5F5F5F5F5F5F5F5F5F5F5F5F5F5F5F5F5F5F5F5F5F5F5F5F5F5F5F5F5F5F5F5F5F5F5F5F5F5F5F5F5F5F5F5F5F5F5F5F5F5F5F5F5F5F5F5F5F5F5F5
310
F5F5F5F5F5F5F5F5F5F5F5F5F5F5F5F5F5F5F5F5F5F5F5F5F5E2F52828282828F5E2F5F5F5F5F52828282828282828282828282828282828282828F5F5F5F5F5F5F5E2F52828282828F5E2F5282828282828F5E2F5C3F5F5F5F5E2E2F5F5E2C3F5F5F5F5F5F5F5F5F5F5F5F5F5F5F5F5F5F5F5F5F5F5F5F5F5F5F5F5F5F5F5
310
F5F5F5F5F5F5F5F5F5F5F5F5F5F5F5F5F5F5F5F5F5F5F5F5F5F5F5F5F5F5F5F5F5F5F5F5F5F5F5F5F5F5F5F5F5F5F5F5F5F5F5F5F5F5F5F5F5F5F5F5F5F5F5F5F5F5F5F5F5F5F5F5F5F5F5F5F5F5E2F52828282828F5E2F5F5F5F5F5F528282828F5F528F52828F5F5F5282828282828F5F5F5F5F5F5F5E2F52828282828F5
310
E2F5282828282828F5E2F5C3E2F5F5F5E2E2F5F5E2C3F5F5F5F5F5F5F5F5F5F5F5F5F5F5F5F5F5F5F5F5F5F5F5F5F5F5F5F5F5F5F5F5F5F5F5F5F5F5F5F5F5F5F5F5F5F5F5F5F5F5F5F5F5F5F5F5F5F5F5F5F5F5F5F5F5F5F5F5F5F5F5F5F5F5F5F5F5F5F5F5F5F5F5F5F5F5F5F5F5F5F5F5F5F5F5F5F5F5F5F5F5F5F5F5F5
310
F5F5F5F5E2E2E2E2E2E2E2E2E2E2E2E2E2E2E2E2E2E2E2E2E2E2E2E2E2E2E2E2E2E2E2E2E2E2E2E2E2E2E2E2E2E2E2E2E2E2E2E2E2E2E2E2E2E2E2E2E2E2E2F5C3E2F5F5F5E2E2F5F5E2C3F5F5F5F5F5F5F5F5F5F5F5F5F5F5F5F5F5F5F5F5F5F5F5F5F5F5F5F5F5F5F5F5F5F5F5F5F5F5F5F5F5F5F5F5F5F5F5F5F5F5F5F5
310
F5F5F5F5F5F5F5F5F5F5F5F5F5F5F5F5F5F5F5F5F5F5F5F5F5F5F5F5F5F5F5F5F5F5F5F5F5F5F5F5F5F5F5F5F5F5F5F5F5F5F5F5F5F5F5F5F5E2F52828282828F5E2F528282828282828282828282828F5F528F5282828F5282828F5282828F5F5F5E2F528F5282828F5E2F5F5F5F5F5F5F5F5E2F5C3E2F5F5F5E2E2F5F5E2
310
C3F5F5F5F5F5F5F5F5F5F5F5F5F5F5F5F5F5F5F5F5F5F5F5F5F5F5F5F5F5F5F5F5F5F5F5F5F5F5F5F5F5F5F5F5F5F5F5F5F5F5F5F5F5F5F5F5F5F5F5F5F5F5F5F5F5F5F5F5F5F5F5F5F5F5F5F5F5F5F5F5F5F5F5F5F5F5F5F5F5F5F5F5F5F5F5F5F5F5F5F5F5F5F5F5F5F5F5F5F5E2F52828282828F5E2F528282828282828
310
282828282828F5F5F5282828282828282828282828F5F5F5E2F52828282828F5E2F5F5F5F5F5F5F5F5E2F5C3E2F5F5F5E2E2F5F5E2C3F5F5F5F5F5F5F5F5F5F5F5F5F5F5F5F5F5F5F5F5F5F5F5F5F5F5F5F5F5F5F5F5F5F5F5F5F5F5F5F5F5F5F5F5F5F5F5F5F5F5F5F5F5F5F5F5F5F5F5F5F5F5F5F5F5F5F5F5F5F5F5F5F5
310
F5F5F5F5F5F5F5F5F5F5F5F5F5F5F5F5F5F5F5F5F5F5F5F5F5F5F5F5F5F5F5F5F5F5F5F5E2F52828282828F5E2F528282828282828282828282828F5F528282828282828282828282828F5F5F5E2F52828282828F5E2F5282828282828F5E2F5C3E2F5F5F5E2E2F5F5E2C3F5F5F5F5F5F5F5F5F5F5F5F5F5F5F5F5F5F5F5F5
310
F5F5F5F5F5F5F5F5F5F5F5F5F5F5F5F5F5F5F5F5F5F5F5F5F5F5F5F5F5F5F5F5F5F5F5F5F5F5F5F5F5F5F5F5F5F5F5F5F5F5F5F5F5F5F5F5F5F5F5F5F5F5F5F5F5F5F5F5F5F5F5F5F5F5F5F5F5F5F5F5F5F5F5F5F5F5F5F5F5E2F528F5F528F5F5E2F528F5F5F52828F52828F5282828F5F5F52828F5F528F5282828F5F5F5
310
F5F5F5E2F5F5F5F528F5F5E2F5F5F5F5F5F5F5F5E2F5C3E2F5F5F5E2E2F5F5E2C3F5F5F5F5F5F5F5F5F5F5F5F5F5F5F5F5F5F5F5F5F5F5F5F5F5F5F5F5F5F5F5F5F5F5F5F5F5F5F5F5F5F5F5F5F5F5F5F5F5F5F5F5F5F5F5F5F5F5F5F5F5F5F5F5F5F5F5F5F5F5F5F5F5F5F5F5F5F5F5F5F5F5F5F5F5F5F5F5F5F5F5F5F5F5
310
F5F5F5F5F5F5F5F5F5F5F5F5F5F5F5E2E2E2E2E2E2E2E2E2E2E2E2E2E2E2E2E2E2E2E2E2E2E2E2E2E2E2E2E2E2E2E2E2E2E2E2E2E2E2E2E2E2E2E2E2E2E2E2E2E2E2E2E2E2E2E2E2E2E2F5C3E2F5F5F5E2E2F5F5E2C3F5F5F5F5F5F5F5F5F5F5F5F5F5F5F5F5F5F5F5F5F5F5F5F5F5F5F5F5F5F5F5F5F5F5F5F5F5F5F5F5F5
310
F5F5F5F5F5F5F5F5F5F5F5F5F5F5F5F5F5F5F5F5F5F5F5F5F5F5F5F5F5F5F5F5F5F5F5F5F5F5F5F5F5F5F5F5F5F5F5F5F5F5F5F5F5F5F5F5F5F5F5F5F5F5F5F5F5F5F5F5F5F5F5F5F5F5F5F5F5F5F5F5F5F5F5F5F5F5F5F5F5F5F5F5F5F5F5F5F5F5F5F5F5F5F5F5F5F5F5F5F5F5F5F5F5F5F5F5F5F5F5F5F5F5F5F5F5F5F5
310
F5C3E2F5F5F5E2E2F5F5E2C3F5F5F5F5F5F5F5F5F5F5F5F5F5F5F5F5F5F5F5F5F5F5F5F5F5F5F5F5F5F5F5F5F5F5F5F5F5F5F5F5F5F5F5F5F5F5F5F5F5F5F5F5F5F5F5F5F5F5F5F5F5F5F5F5F5F5F5F5F5F5F5F5F5F5F5F5F5F5F5F5F5F5F5F5F5F5F5F5F5F5F5F5F5F5F5F5F5F5F5F5F5F5F5F5F5F5F5F5F5F5F5F5F5F5F5
310
F5F5F5F5F5F5F5F5F5F5F5F5F5F5F5F5F5F5F5F5F5F5F5F5F5F5F5F5F5F5F5F5F5F5F5F5F5F5F5F5F5F5F5F5F5F5F5F5F5F5F5F5F5F5C3E2F5F5F5E2E2F5F5E2C3F5F5F5F5F5F5F5F5F5F5F5F5F5F5F5F5F5F5F5F5F5F5F5F5F5F5F5F5F5F5F5F5F5F5F5F5F5F5F5F5F5F5F5F5F5F5F5F5F5F5F5F5F5F5F5F5F5F5F5F5F5F5
310
F5F5F5F5F5F5F5F5F5F5F5F5F5F5F5F5F5F5F5F5F5F5F5F5F5F5F5F5F5F5F5F5F5F5F5F5F5F5F5F5F5F5F5F5F5F5F5F5F5F5F5F5F5F5F5F5F5F5F5F5F5F5F5F5F5F5F5F5F5F5F5F5F5F5F5F5F5F5F5F5F5F5F5F5F5F5F5F5F5F5F5F5F5F5F5F5F5F5F5F5F5F5F5F5F5F5F5C3E2F5F5F5E2E2F5F5E2C3F5F5F5F5F5F5F5F5F5
310
F5F5F5F5F5F5F5F5F5F5F5F5F5F5F5F5F5F5F5F5F5F5F5F5F5F5F5F5F5F5F5F5F5F5F5F5F5F5F5F5F5F5F5F5F5F5F5F5F5F5F5F5F5F5F5F5F5F5F5F5F5F5F5F5F5F5F5F5F5F5F5F5F5F5F5F5F5F5F5F5F5F5F5F5F5F5F5F5F5F5F5F5F5F5F5F5F5F5F5F5F5F5F5F5F5F5F5F5F5F5F5F5F5F5F5F5F5F5F5F5F5F5F5F5F5F5F5
310
F5F5F5F5F5F5F5F5F5F5F5F5F5F5F5F5F5F5F5F5F5F5F5F5F5F5F5F5F5F5F5F5F5C3E2F5F5F5E2E2F5F5E2C3F5F5F5F5F5F5F5F5F5F5F5F5F5F5F5F5F5F5F5F5F5F5F5F5F5F5F5F5F5F5F5F5F5F5F5F5F5F5F5F5F5F5F5F5F5F5F5F5F5F5F5F5F5F5F5F5F5F5F5F5F5F5F5F5F5F5F5F5F5F5F5F5F5F5F5F5F5F5F5F5F5F5F5
310
F5F5F5F5F5F5F5F5F5F5F5F5F5F5F5F5F5F5F5F5F5F5F5F5F5F5F5F5F5F5F5F5F5F5F5F5F5F5F5F5F5F5F5F5F5F5F5F5F5F5F5F5F5F5F5F5F5F5F5F5F5F5F5F5F5F5F5F5F5F5F5F5F5F5F5F5F5F5F5F5F5F5F5F5F5F5C3E2F5F5F5E2E2F5F5E2C3F5F5F5F5F5F5F5F5F5F5F5F5F5F5F5F5F5F5F5F5F5F5F5F5F5F5F5F5F5F5
310
F5F5F5F5F5F5F5F5F5F5F5F5F5F5F5F5F5F5F5F5F5F5F5F5F5F5F5F5F5F5F5F5F5F5F5F5F5F5F5F5F5F5F5F5F5F5F5F5F5F5F5F5F5F5F5F5F5F5F5F5F5F5F5F5F5F5F5F5F5F5F5F5F5F5F5F5F5F5F5F5F5F5F5F5F5F5F5F5F5F5F5F5F5F5F5F5F5F5F5F5F5F5F5F5F5F5F5F5F5F5F5F5F5F5F5F5F5F5F5F5F5F5F5F5F5F5F5
310
F5F5F5F5F5F5F5F5F5F5F5F5C3E2F5F5F5E2E2F5F5E2C3F5F5F5F5F5F5F5F5F5F5F5F5F5F5F5F5F5F5F5F5F5F5F5F5F5F5F5F5F5F5F5F5F5F5F5F5F5F5F5F5F5F5F5F5F5F5F5F5F5F5F5F5F5F5F5F5F5F5F5F5F5F5F5F5F5F5F5F5F5F5F5F5F5F5F5F5F5F5F5F5F5F5F5F5F5F5F5F5F5F5F5F5F5F5F5F5F5F5F5F5F5F5F5F5
310
F5F5F5F5F5F5F5F5F5F5F5F5F5F5F5F5F5F5F5F5F5F5F5F5F5F5F5F5F5F5F5F5F5F5F5F5F5F5F5F5F5F5F5F5F5F5F5F5F5F5F5F5F5F5F5F5F5F5F5F5F5F5F5F5F5C3E2F5F5F5E2E2F5F5E2C3F5F5F5F5F5F5F5F5F5F5F5F5F5F5F5F5F5F5F5F5F5F5F5F5F5F5F5F5F5F5F5F5F5F5F5F5F5F5F5F5F5F5F5F5F5F5F5F5F5F5F5
310
F5F5F5F5F5F5F5F5F5F5F5F5F5F5F5F5F5F5F5F5F5F5F5F5F5F5F5F5F5F5F5F5F5F5F5F5F5F5F5F5F5F5F5F5F5F5F5F5F5F5F5F5F5F5F5F5F5F5F5F5F5F5F5F5F5F5F5F5F5F5F5F5F5F5F5F5F5F5F5F5F5F5F5F5F5F5F5F5F5F5F5F5F5F5F5F5F5F5F5F5F5F5F5F5F5F5F5F5F5F5F5F5F5F5F5F5F5F5C3E2F5F5F5E2E2F5F5
310
F5C3F5F5F5F5F5F5F5F5F5F5F5F5F5F5F5F5F5F5F5F5F5F5F5F5F5F5F5F5F5F5F5F5F5F5F5F5F5F5F5F5F5F5F5F5F5F5F5F5F5F5F5F5F5F5F5F5F5F5F5F5F5F5F5F5F5F5F5F5F5F5F5F5F5F5F5F5F5F5F5F5F5F5F5F5F5F5F5F5F5F5F5F5F5F5F5F5F5F5F5F5F5F5F5F5F5F5F5F5F5F5F5F5F5F5F5F5F5F5F5F5F5F5F5F5F5
310
F5F5F5F5F5F5F5F5F5F5F5F5F5F5F5F5F5F5F5F5F5F5F5F5F5F5F5F5F5F5F5F5F5F5F5F5F5F5F5F5F5F5F5F5C3F5F5F5F5E2E2F5F5F5C3F5F5F5F5F5F5F5F5F5F5F5F5F5F5F5F5F5F5F5F5F5F5F5F5F5F5F5F5F5F5F5F5F5F5F5F5F5F5F5F5F5F5F5F5F5F5F5F5F5F5F5F5F5F5F5F5F5F5F5F5F5F5F5F5F5F5F5F5F5F5F5F5
310
F5F5F5F5F5F5F5F5F5F5F5F5F5F5F5F5F5F5F5F5F5F5F5F5F5F5F5F5F5F5F5F5F5F5F5F5F5F5F5F5F5F5F5F5F5F5F5F5F5F5F5F5F5F5F5F5F5F5F5F5F5F5F5F5F5F5F5F5F5F5F5F5F5F5F5F5F5F5F5F5F5F5F5F5F5F5F5F5F5F5F5F5F5F5F5F5F5C3F5F5F5F5E2E2F5F5F5C3F5F5F5F5F5F5F5F5F5F5F5F5F5F5F5F5F5F5F5
310
F5F5F5F5F5F5F5F5F5F5F5F5F5F5F5F5F5F5F5F5F5F5F5F5F5F5F5F5F5F5F5F5F5F5F5F5F5F5F5F5F5F5F5F5F5F5F5F5F5F5F5F5F5F5F5F5F5F5F5F5F5F5F5F5F5F5F5F5F5F5F5F5F5F5F5F5F5F5F5F5F5F5F5F5F5F5F5F5F5F5F5F5F5F5F5F5F5F5F5F5F5F5F5F5F5F5F5F5F5F5F5F5F5F5F5F5F5F5F5F5F5F5F5F5F5F5F5
310
F5F5F5F5F5F5F5F5F5F5F5F5F5F5F5F5F5F5F5F5F5F5F5C3F5F5F5F5E2E2F5F5F5C3F5F5F5F5F5F5F5F5F5F5F5F5F5F5F5F5F5F5F5F5F5F5F5F5F5F5F5F5F5F5F5F5F5F5F5F5F5F5F5F5F5F5F5F5F5F5F5F5F5F5F5F5F5F5F5F5F5F5F5F5F5F5F5F5F5F5F5F5F5F5F5F5F5F5F5F5F5F5F5F5F5F5F5F5F5F5F5F5F5F5F5F5F5
310
F5F5F5F5F5F5F5F5F5F5F5F5F5F5F5F5F5F5F5F5F5F5F5F5F5F5F5F5F5F5F5F5F5F5F5F5F5F5F5F5F5F5F5F5F5F5F5F5F5F5F5F5F5F5F5F5F5F5F5F5F5F5F5F5F5F5F5F5F5F5F5F5F5F5F5F5C3F5F5F5F5E2E2F5F5F5C3F5F5F5F5F5F5F5F5F5F5F5F5F5F5F5F5F5F5F5F5F5F5F5F5F5F5F5F5F5F5F5F5F5F5F5F5F5F5F5F5
310
F5F5F5F5F5F5F5F5F5F5F5F5F5F5F5F5F5F5F5F5F5F5F5F5F5F5F5F5F5F5F5F5F5F5F5F5F5F5F5F5F5F5F5F5F5F5F5F5F5F5F5F5F5F5F5F5F5F5F5F5F5F5F5F5F5F5F5F5F5F5F5F5F5F5F5F5F5F5F5F5F5F5F5F5F5F5F5F5F5F5F5F5F5F5F5F5F5F5F5F5F5F5F5F5F5F5F5F5F5F5F5F5F5F5F5F5F5F5F5F5F5F5F5F5F5F5F5
310
F5F5C3F5F5F5F5E2E2F5F5F5C3F5F5F5F5F5F5F5F5F5F5F5F5F5F5F5F5F5F5F5F5F5F5F5F5F5F5F5F5F5F5F5F5F5F5F5F5F5F5F5F5F5F5F5F5F5F5F5F5F5F5F5F5F5F5F5F5F5F5F5F5F5F5F5F5F5F5F5F5F5F5F5F5F5F5F5F5F5F5F5F5F5F5F5F5F5F5F5F5F5F5F5F5F5F5F5F5F5F5F5F5F5F5F5F5F5F5F5F5F5F5F5F5F5F5
310
F5F5F5F5F5F5F5F5F5F5F5F5F5F5F5F5F5F5F5F5F5F5F5F5F5F5F5F5F5F5F5F5F5F5F5F5F5F5F5F5F5F5F5F5F5F5F5F5F5F5F5F5F5F5F5C3F5F5F5F5E2E2F5F5F5C3F5F5F5F5F5F5F5F5F5F5F5F5F5F5F5F5F5F5F5F5F5F5F5F5F5F5F5F5F5F5F5F5F5F5F5F5F5F5F5F5F5F5F5F5F5F5F5F5F5F5F5F5F5F5F5F5F5F5F5F5F5
310
F5F5F5F5F5F5F5F5F5F5F5F5F5F5F5F5F5F5F5F5F5F5F5F5F5F5F5F5F5F5F5F5F5F5F5F5F5F5F5F5F5F5F5F5F5F5F5F5F5F5E2E2E2E2E2E2E2E2E2E2E2E2E2E2E2E2E2E2E2E2E2E2E2E2E2E2E2E2E2E2E2E2E2E2E2E2E2E2E2E2E2E2E2E2E2E2E2E2F5F5F5F5F5F5F5F5F5F5C3F5F5F5F5E2E2F5F5F5C3F5F5F5F5F5F5F5F5
310
F5F5F5F5F5F5F5F5F5F5F5F5F5F5F5F5F5F5F5F5F5F5F5F5F5F5F5F5F5F5F5F5F5F5F5F5F5F5F5F5F5F5F5F5F5F5F5F5F5F5F5F5F5F5F5F5F5F5F5F5F5F5F5F5F5F5F5F5F5F5F5F5F5F5F5F5F5F5F5F5F5F5F5F5F5F5F5F5F5F5F5F5F5F5F5F5F5F5F5F5F5F5F5E2DCDCDCDCDCDCDCF5F5DCF5F5DCDCDCDCDCDCDCDCDCDCDC
310
DCDCDCF5F5F5F5F5F5F5F5F5F5F5F5F5F5F5F5F5F5F5F5E2F5F5F5F5F5F5F5F5F5F5C3F5F5F5F5E2E2F5F5F5C3F5F5F5F5F5F5F5F5F5F5F5F5F5F5F5F5F5F5F5F5F5F5F5F5F5F5F5F5F5E2E2E2E2E2E2E2E2E2E2E2E2F5F5F5F5F5F5F5F5F5F5F5F5F5F5F5F5F5F5F5F5F5F5F5F5F5F5F5F5F5F5F5F5F5F5F5F5F5F5F5F5F5
310
F5F5F5F5F5F5F5F5F5F5F5F5F5F5F5F5F5F5F5F5F5F5F5F5F5F5F5F5F5E2E2E2E2E2E2E2E2E2E2E2E2E2E2E2E2E2E2E2E2E2E2E2E2E2E2E2E2E2E2E2E2E2E2E2E2E2E2E2E2E2E2E2E2E2E2E2E2F5F5F5F5F5F5F5F5F5F5C3F5F5F5F5E2E2F5F5E2C3F5F5F5F5F5F5F5F5F5F5F5F5F5F5F5F5F5F5F5F5F5F5F5F5F5F5F5F5F5
310
E2E2E2E2E2E2E2E2E2E2E2E2F5F5F5F5F5F5F5F5F5F5F5F5F5F5F5F5F5F5F5F5F5F5F5F5F5F5F5F5F5F5F5F5F5F5F5F5F5F5F5F5F5F5F5F5F5F5F5F5F5F5F5F5F5F5F5F5F5F5F5F5F5F5F5F5F5F5F5F5F5F5E2DCDCDCDCF5F5DCF5DCDCDCDCDCDCDCDCF5F5F5F5F5F5F5F5F5F5F5F5F5F5F5F5F5F5F5F5F5F5F5F5F5F5F5F5
310
F5F5E2F5F5F5F5F5F5F5F5F5F5C3E2F5F5F5E2E2F5F5E2C3F5F5F5F5F5F5F5F5F5F5F5F5F5F5F5F5F5F5F5F5F5F5F5F5F5F5F5F5F5E2F5F5F5F5F5F5F5F5F5F5E2F5F5F5F5F5F5F5F5F5F5F5F5F5F5F5F5F5F5F5F5F5F5F5F5F5F5F5F5F5F5F5F5F5F5F5F5F5F5F5F5F5F5F5F5F5F5F5F5F5F5F5F5F5F5F5F5F5F5F5F5F5F5
310
F5F5F5F5F5F5F5F5E2DCDCDCDCF5F5DCF5F5DCDCDCDCDCDCDCF5F5F5F5F5F5F5F5F5F5F5F5F5F5F5F5F5F5F5F5F5F5F5F5F5F5F5F5F5F5E2F5F5F5F5F5F5F5F5F5F5C3E2F5F5F5E2E2F5F5E2C3F5F5F5F5F5F5F5F5F5F5F5F5F5F5F5F5F5F5F5F5F5F5F5F5F5F5F5F5F5E2F5F5F5F5F5F5F5F5F5F5E2F5F5F5F5F5F5F5F5F5
310
F5F5F5F5F5F5F5F5F5F5F5F5F5F5F5F5F5F5F5F5F5F5F5F5F5F5F5F5F5F5F5F5F5F5F5F5F5F5F5F5F5F5F5F5F5F5F5F5F5F5F5F5F5F5F5F5F5F5F5F5F5E2E2E2E2E2E2E2E2E2E2E2E2E2E2E2E2E2E2E2E2E2E2E2E2E2E2E2E2E2E2E2E2E2E2E2E2E2E2E2E2E2E2E2E2E2E2E2E2F5F5F5F5F5F5F5F5F5F5C3E2F5F5F5E2E2F5
310
F5E2C3F5F5F5F5F5F5F5F5F5F5F5F5F5F5F5F5F5F5F5F5F5F5F5F5F5F5F5F5F5E2F5F5F5F5F5F5F5F5F5F5E2F5F5F5F5F5F5F5F5F5F5F5F5F5F5F5F5F5F5F5F5F5F5F5F5F5F5F5F5F5F5F5F5F5F5F5F5F5F5F5F5F5F5F5F5F5F5F5F5F5F5F5F5F5F5F5F5F5F5F5F5F5F5F5F5F5F5F5F5F5F5E2DCDCDCDCDCDCDCF5F5DCF5F5
310
F5DCDCDCDCDCDCDCDCDCDCDCDCDCDCDCDCDCDCDCDCDCDCDCDCDCDCF5F5F5F5F5F5F5E2F5F5F5F5F5F5F5F5F5F5C3E2F5F5F5E2E2F5F5E2C3F5F5F5F5F5F5F5F5F5F5F5F5F5F5F5F5F5F5F5F5F5F5F5F5F5F5F5F5F5E2F5F5F5E2E2E2E2F5F5F5E2F5F5F5F5F5F5F5F5F5F5F5F5F5F5F5F5F5F5F5F5F5F5F5F5F5F5F5F5F5F5
310
F5F5F5F5F5F5F5F5F5F5F5F5F5F5F5F5F5F5F5F5F5F5F5F5F5F5F5F5F5F5F5F5F5F5F5F5F5F5F5F5E2E2E2E2E2E2E2E2E2E2E2E2E2E2E2E2E2E2E2E2E2E2E2E2E2E2E2E2E2E2E2E2E2E2E2E2E2E2E2E2E2E2E2E2E2E2E2E2F5F5F5F5F5F5F5F5F5F5C3E2F5F5F5E2E2F5F5E2C3F5F5F5F5F5F5F5F5F5F5F5F5F5F5F5F5F5F5
310
F5F5F5F5F5F5F5F5F5F5F5E2F5F5F5F5F5F5F5F5F5F5E2F5F5F5F5F5F5F5F5F5F5F5F5F5F5F5F5F5F5F5F5F5F5F5F5F5F5F5F5F5F5F5F5F5F5F5F5F5F5F5F5F5F5F5F5F5F5F5F5F5F5F5F5F5F5F5F5F5F5F5F5F5F5F5F5F5F5F5F5F5F5E2DCDCDCDCDCDCDCF5F5DCF5F5DCDCDCDCDCDCDCDCDCDCDCDCDCDCDCDCDCF5F5F5F5
310
F5F5F5F5F5F5F5F5F5F5F5F5F5E2F5F5F5F5F5F5F5F5F5F5C3E2F5F5F5E2E2F5F5E2C3F5F5F5F5F5F5F5F5F5F5F5F5F5F5F5F5F5F5F5F5F5F5F5F5F5F5F5F5F5E2F5F5F5F5F5F5F5F5F5F5E2F5F5F5F5F5F5F5F5F5F5F5F5F5F5F5F5F5F5F5F5F5F5F5F5F5F5F5F5F5F5F5F5F5F5F5F5F5F5F5F5F5F5F5F5F5F5F5F5F5F5F5
310
F5F5F5F5F5F5F5F5F5F5F5F5F5F5F5F5F5F5F5E2E2E2E2E2E2E2E2E2E2E2E2E2E2E2E2E2E2E2E2E2E2E2E2E2E2E2E2E2E2E2E2E2E2E2E2E2E2E2E2E2E2E2E2E2E2E2E2F5F5F5F5F5F5F5F5F5F5C3E2F5F5F5E2E2F5F5E2C3F5F5F5F5F5F5F5F5F5F5F5F5F5F5F5F5F5F5F5F5F5F5F5F5F5F5F5F5F5E2F5F5F5F5F5F5F5F5F5
310
F5E2F5F5F5F5F5F5F5F5F5F5F5F5F5F5F5F5F5F5F5F5F5F5F5F5F5F5F5F5F5F5F5F5F5F5F5F5F5F5F5F5F5F5F5F5F5F5F5F5F5F5F5F5F5F5F5F5F5F5F5F5F5F5F5F5F5F5F5F5F5F5E2DCDCDCDCDCDCDCDCDCDCDCF5DCDCF5DCDCDCF5F5F5F5F5F5F5F5F5F5F5F5F5F5F5F5F5F5F5F5F5F5F5F5F5F5F5F5E2F5F5F5F5F5F5F5
310
F5F5F5C3E2F5F5F5E2E2F5F5E2C3F5F5F5F5F5F5F5F5F5F5F5F5F5F5F5F5F5F5F5F5F5F5F5F5F5F5F5F5F5E2F5F5F5F5F5F5F5F5F5F5E2F5F5F5F5F5F5F5F5F5F5F5F5F5F5F5F5F5F5F5F5F5F5F5F5F5F5F5F5F5F5F5F5F5F5F5F5F5F5F5F5F5F5F5F5F5F5F5F5F5F5F5F5F5F5F5F5F5F5F5F5F5F5F5F5F5F5F5F5F5F5E2DC
310
DCF5F5DCF5DCDCDCDCDCF5DCDCF5DCDCDCF5F5F5F5F5F5F5F5F5F5F5F5F5F5F5F5F5F5F5F5F5F5F5F5F5F5F5F5E2F5F5F5F5F5F5F5F5F5F5C3E2F5F5F5E2E2F5F5E2C3F5F5F5F5F5F5F5F5F5F5F5F5F5F5F5F5F5F5F5F5F5F5F5F5F5F5F5F5F5E2F5F5F5F5F5F5F5F5F5F5E2F5F5F5F5F5F5F5F5F5F5F5F5F5F5F5F5F5F5F5
310
F5F5F5F5F5F5F5F5F5F5F5F5F5F5F5F5F5F5F5F5F5F5F5F5F5F5F5F5F5F5F5F5F5F5F5F5F5F5F5F5F5F5F5F5F5F5F5F5F5F5F5E2E2E2E2E2E2E2E2E2E2E2E2E2E2E2E2E2E2E2E2E2E2E2E2E2E2E2E2E2E2E2E2E2E2E2E2E2E2E2E2E2E2E2E2E2E2E2E2F5F5F5F5F5F5F5F5F5F5C3E2F5F5F5E2E2F5F5E2C3F5F5F5F5F5F5F5
310
F5F5F5F5F5F5F5F5F5F5F5F5F5F5F5F5F5F5F5F5F5F5E2E2E2E2E2E2E2E2E2E2E2E2F5F5F5F5F5F5F5F5F5F5F5F5F5F5F5F5F5F5F5F5F5F5F5F5F5F5F5F5F5F5F5F5F5F5F5F5F5F5F5F5F5F5F5F5F5F5F5F5F5F5F5F5F5F5F5F5F5F5F5F5F5F5F5F5F5F5F5F5F5F5E2DCDCDCDCDCDCDCDCDCDCDCDCF5F5DCF5F5DCDCF5F5F5
310
F5F5F5F5F5F5F5F5F5F5F5F5F5F5F5F5F5F5F5F5F5F5F5F5E2F5F5F5F5F5F5F5F5F5F5C3E2F5F5F5E2E2F5F5E2C3F5F5F5F5F5F5F5F5F5F5F5F5F5F5F5F5F5F5F5F5F5F5F5F5F5F5F5F5F5E2F5F5F5F5F5F5F5F5F5F5E2F5F5F5F5F5F5F5F5F5F5F5F5F5F5F5F5F5F5F5F5F5F5F5F5F5F5F5F5F5F5F5F5F5F5F5F5F5F5F5F5
310
F5F5F5F5F5F5F5F5F5F5F5F5F5F5F5F5F5F5F5F5F5F5F5F5F5F5F5F5F5F5E2E2E2E2E2E2E2E2E2E2E2E2E2E2E2E2E2E2E2E2E2E2E2E2E2E2E2E2E2E2E2E2E2E2E2E2E2E2E2E2E2E2E2E2E2E2E2E2F5F5F5F5F5F5F5F5F5F5C3E2F5F5F5E2E2F5F5E2C3F5F5F5F5F5F5F5F5F5F5F5F5F5F5F5F5F5F5F5F5F5F5F5F5F5F5F5F5
310
F5E2F5F5F5F5F5F5F5F5F5F5E2F5F5F5F5F5F5F5F5F5F5F5F5F5F5F5F5F5F5F5F5F5F5F5F5F5F5F5F5F5F5F5F5F5F5F5F5F5F5F5F5F5F5F5F5F5F5F5F5F5F5F5F5F5F5F5F5F5F5F5F5F5F5F5F5F5F5F5F5F5F5E2DCDCDCDCDCDCDCDCDCDCDCDCDCDCDCDCF5DCDCF5DCDCDCF5F5F5F5F5F5F5F5F5F5F5F5F5F5F5F5F5F5F5F5
310
F5F5F5E2F5F5F5F5F5F5F5F5F5F5C3E2F5F5F5E2E2F5F5E2C3F5F5F5F5F5F5F5F5F5F5F5F5F5F5F5F5F5F5F5F5F5F5F5F5F5F5F5F5F5E228E22828282828282828E2F5F5F5F5F5F5F5F5F5F5F5F5F5F5F5F5F5F5F5F5F5F5F5F5F5F5F5F5F5F5F5F5F5F5F5F5F5F5F5F5F5F5F5F5F5F5F5F5F5F5F5F5F5F5F5F5F5F5F5F5F5
310
F5F5F5F5F5F5F5F5F5E2E2E2E2E2E2E2E2E2E2E2E2E2E2E2E2E2E2E2E2E2E2E2E2E2E2E2E2E2E2E2E2E2E2E2E2E2E2E2E2E2E2E2E2E2E2E2E2F5F5F5F5F5F5F5F5F5F5C3E2F5F5F5E2E2F5F5E2C3F5F5F5F5F5F5F5F5F5F5F5F5F5F5F5F5F5F5F5F5F5F5F5F5F5F5F5F5F5E228E22828282828282828E2F5F5F5F5F5F5F5F5
310
F5F5F5F5F5F5F5F5F5F5F5F5F5F5F5F5F5F5F5F5F5F5F5F5F5F5F5F5F5F5F5F5F5F5F5F5F5F5F5F5F5F5F5F5F5F5F5F5F5F5F5F5F5F5F5F5F5F5F5F5F5F5E2DCDCDCDCDCDCDCDCDCDCDCF5DCDCF5DCDCDCF5F5F5F5F5F5F5F5F5F5F5F5F5F5F5F5F5F5F5F5F5F5F5F5F5F5F5F5E2F5F5F5F5F5F5F5F5F5F5C3E2F5F5F5E2E2
310
F5F5F5C3F5F5F5F5F5F5F5F5F5F5F5F5F5F5F5F5F5F5F5F5F5F5F5F5F5F5F5F5F5E2E2E2E2E2E2E2E2E2E2E2E2F5F5F5F5F5F5F5F5F5F5F5F5F5F5F5F5F5F5F5F5F5F5F5F5F5F5F5F5F5F5F5F5F5F5F5F5F5F5F5F5F5F5F5F5F5F5F5F5F5F5F5F5F5F5F5F5F5F5F5F5F5F5F5F5F5F5F5F5F5F5E2DCDCDCDCDCDCDCDCDCDCDC
310
F5DCDCF5DCDCDCF5F5F5F5F5F5F5F5F5F5F5F5F5F5F5F5F5F5F5F5F5F5F5F5F5F5F5F5E2F5F5F5F5F5F5F5F5F5F5C3F5F5F5F5E2E2F5F5F5C3F5F5F5F5F5F5F5F5F5F5F5F5F5F5F5F5F5F5F5F5F5F5F5F5F5F5F5F5F5F5F5F5F5F5F5F5F5F5F5F5F5F5F5F5F5F5F5F5F5F5F5F5F5F5F5F5F5F5F5F5F5F5F5F5F5F5F5F5F5F5
310
F5F5F5F5F5F5F5F5F5F5F5F5F5F5F5F5F5F5F5F5F5F5F5F5F5F5F5F5F5F5F5F5F5F5F5F5F5F5F5F5F5E2E2E2E2E2E2E2E2E2E2E2E2E2E2E2E2E2E2E2E2E2E2E2E2E2E2E2E2E2E2E2E2E2E2E2E2E2E2E2E2E2E2E2E2E2E2E2E2F5F5F5F5F5F5F5F5F5F5C3F5F5F5F5E2E2F5F5F5C3F5F5F5F5F5F5F5F5F5F5F5F5F5F5F5F5F5
310
F5F5F5F5F5F5F5F5F5F5F5F5F5F5F5F5F5F5F5F5F5F5F5F5F5F5F5F5F5F5F5F5F5F5F5F5F5F5F5F5F5F5F5F5F5F5F5F5F5F5F5F5F5F5F5F5F5F5F5F5F5F5F5F5F5F5F5F5F5F5F5F5F5F5F5F5F5F5F5F5F5F5F5F5F5F5F5F5F5F5F5F5F5F5E2DCDCDCDCDCDCDCDCDCDCDCF5DCDCF5DCDCDCF5F5F5F5F5F5F5F5F5F5F5F5F5F5
310
F5F5F5F5F5F5F5F5F5F5F5F5F5F5E2F5F5F5F5F5F5F5F5F5F5C3F5F5F5F5E2E2F5F5F5C3F5F5F5F5F5F5F5F5F5F5F5F5F5F5F5F5F5F5F5F5F5F5F5F5F5F5F5F5F5F5F5F5F5F5F5F5F5F5F5F5F5F5F5F5F5F5F5F5F5F5F5F5F5F5F5F5F5F5F5F5F5F5F5F5F5F5F5F5F5F5F5F5F5F5F5F5F5F5F5F5F5F5F5F5F5F5F5F5F5F5F5
310
F5F5F5F5F5F5F5F5F5F5F5F5F5F5F5F5F5F5F5F5E2E2E2E2E2E2E2E2E2E2E2E2E2E2E2E2E2E2E2E2E2E2E2E2E2E2E2E2E2E2E2E2E2E2E2E2E2E2E2E2E2E2E2E2E2E2E2E2F5F5F5F5F5F5F5F5F5F5C3F5F5F5F5E2E2F5F5F5C3F5F5F5F5F5F5F5F5F5F5F5F5F5F5F5F5F5F5F5F5F5F5F5F5F5F5F5F5F5F5F5F5F5F5F5F5F5F5
310
F5F5F5F5F5F5F5F5F5F5F5F5F5F5F5F5F5F5F5F5F5F5F5F5F5F5F5F5F5F5F5F5F5F5F5F5F5F5F5F5F5F5F5F5F5F5F5F5F5F5F5F5F5F5F5F5F5F5F5F5F5F5F5F5F5F5F5F5F5F5F5F5F5E2DCDCDCDCDCDCDCF5F5DCF5F5DCDCDCDCDCF5DCDCDCF5DCDCDCDCDCDCDCF5F5F5F5F5F5F5F5F5F5F5F5F5F5F5F5F5E2F5F5F5F5F5F5
310
F5F5F5F5C3F5F5F5F5E2E2F5F5F5C3F5F5F5F5F5F5F5F5F5F5F5F5F5F5F5F5F5F5F5F5F5F5F5F5F5F5F5F5F5F5F5F5F5F5F5F5F5F5F5F5F5F5F5F5F5F5F5F5F5F5F5F5F5F5F5F5F5F5F5F5F5F5F5F5F5F5F5F5F5F5F5F5F5F5F5F5F5F5F5F5F5F5F5F5F5F5F5F5F5F5F5F5F5F5F5F5F5F5F5F5F5F5F5F5F5F5F5F5F5F5F5E2
310
DCDCDCDCDCDCDCE2E2DCE2E2DCDCE2DCDCE2DCDCDCE2DCDCDCDCDCDCDCE2E2E2E2E2E2E2E2E2E2E2E2E2E2E2E2E2E2F5F5F5F5F5F5F5F5F5F5C3F5F5F5F5E2E2F5F5F5C3F5F5F5F5F5F5F5F5F5F5F5F5F5F5F5F5F5F5F5F5F5F5F5F5F5F5F5F5F5F5F5F5F5F5F5F5F5F5F5F5F5F5F5F5F5F5F5F5F5F5F5F5F5F5F5F5F5F5F5
310
F5F5F5F5F5F5F5F5F5F5F5F5F5F5F5F5F5F5F5F5F5F5F5F5F5F5F5F5F5F5F5F5F5F5F5F5F5F5F5F5F5F5F5F5F5F5F5F5F5F5F5F5E2DCDCDCDCDCDCDCF5F5DCF5F5DCDCDCDCDCDCDCDCF5F5F5F5F5F5F5F5F5F5F5F5F5F5F5F5F5F5F5F5F5F5F5F5F5F5E2F5F5F5F5F5F5F5F5F5F5C3F5F5F5F5E2E2F5F5F5C3F5F5F5F5F5F5
310
F5F5F5F5F5F5F5F5F5F5F5F52D2D2D2D2D2D2D2D2D2D2D2D2DF5F5E2E2E2E2F5F5F5F5F5F5F5F5F5F5F5F5F5F5F5F5F5F5F5F5F5F5F5F5E2F5F5F5F5F5F5F5F5F5F5F5F5F5F5F5F5F5F5F5F5F5F5F5F5F5F5F5F5F5F5F5F5F5F5F5F5F5F5F5F5F5F5F5F5F5F5F5F5F5E2DCDCDCDCDCDCDCF5F5DCF5F5DCDCDCDCDCDCDCF5F5
310
F5F5F5F5F5F5F5F5F5F5F5F5F5F5F5F5F5F5F5F5F5F5F5F5F5E2F5F5F5F5F5F5F5F5F5F5C3F5F5F5F5E2E2F5F5F5C3F5F5F5F5F5F5F5F5F5F5F5F5F5F5F5F5F5F5F52D2D2D2D2D2D2D2D2DF5E2E2E2E2E2E2E2E2E2E2E2E2F5F5F5F5F5F5F5F5F5E2E2E2E2E2E2E2E2E2E2E2E2E2E2E2E2E2F5F5F5F5F5F5F5F5F5F5F5F5F5
310
F5F5F5F5F5F5F5F5F5F5F5F5F5F5F5F5F5F5F5F5F5F5F5F5F5F5F5F5F5F5F5E2E2E2E2E2E2E2E2E2E2E2E2E2E2E2E2E2E2E2E2E2E2E2E2E2E2E2E2E2E2E2E2E2E2E2E2E2E2E2E2E2E2E2E2E2E2E2E2F5F5F5F5F5F5F5F5F5F5C3F5F5F5F5E2E2F5F5E2C3F5F5F5F5F5F5F5F5F5F5F5F5F5F5F5F5F5F5F52D2DF52DF5F5F5F5
310
F5F528282828E228E228282828E2F5F5F5F5F5F5F5F5F5E2F5F5F5F5E2F5F5F5F5F5F5F5F5E2F5E2F5F5F5F5F5F5F5F5F5F5F5F5F5F5F5F5F5F5F5F5F5F5F5F5F5F5F5F5F5F5F5F5F5F5F5F5F5F5F5F5F5F5F5F5E2F5DCDCDCDCDCDCDCDCDCF5F5F5F5F5F5F5F5F5DCDCDCF5DCDCDCDCDCDCDCDCDCDCF5F5F5F5F5F5F5F5F5
310
F5F5F5F5E2F5F5F5F5F5F5F5F5F5F5C3E2F5F5F5E2E2F5F5E2C3F5F5F5F5F5F5F5F5F5F5F5F5F5F5F5F5F5F5F52DF5F52DF5F5F5F5F5F528282828E228E228282828E2F5F5F5F5F5F5F5F5F5E2F5F5F5F5E2F5F5F5F5F5F5F5F5E2F5E2F5F5F5F5F5F5F5F5F5F5F5F5F5F5F5F5F5F5F5F5F5F5F5F5F5F5F5F5F5F5F5F5F5F5
310
F5F5F5F5F5F5F5F5F5F5E2F5DCDCDCDCF5DCDCDCDCF5F5F5F5F5F5F5F5F5DCDCDCF5DCDCDCDCDCF5DCDCDCDCF5F5F5F5F5F5F5F5F5F5F5F5F5E2F5F5F5F5F5F5F5F5F5F5C3E2F5F5F5E2E2F5F5E2C3F5F5F5F5F5F5F5F5F5F5F5F5F5F5F5F5F5F5F52DF5F52DF5F5F5F5F5F528282828E2E2E228282828E2F5F5F5F5F5F5F5
310
F5F5E2F5F5F5F5E2F5F5F5F5F5F5F5F5E2F5E2F5F5F5F5F5F5F5F5F5F5F5F5F5F5F5F5F5F5F5F5F5F5F5F5F5F5F5F5F5F5F5F5F5F5F5F5F5F5F5F5F5F5F5F5E2DCDCDCDCDCDCDCDCDCDCDCDCDCDCF5F5DCF5F5DCDCDCDCDCDCDCDCF5DCDCDCDCDCF5F5F5F5F5F5F5F5F5F5F5F5F5E2F5F5F5F5F5F5F5F5F5F5C3E2F5F5F5E2
310
E2F5F5E2C3F5F5F5F5F5F5F5F5F5F5F5F5F5F5F5F5F5F5F52DF5F52DF5F5F5F5F5F5E2E2E2E2E2E2E2E2E2E2E2E2F5F5F5F5F5F5F5F5F5E2F5F5F5F5E2F5F5F5F5F5F5F5F5E2E2E2F5F5F5F5F5F5F5F5F5F5F5F5F5F5F5F5F5F5F5F5F5F5F5F5F5F5F5F5F5F5F5F5F5F5F5F5F5F5F5F5F5F5F5F5E2E2E2E2E2E2E2E2E2E2E2
310
E2E2E2E2E2E2E2E2E2E2E2E2E2E2E2E2E2E2E2E2E2E2E2E2E2E2E2E2E2E2E2E2E2E2E2E2E2F5F5F5F5F5F5F5F5F5F5C3E2F5F5F5E2E2F5F5E2C3F5F5F5F5F5F5F5F5F5F5F5F5F5F5F5F5F5F5F52DF5F52DF5F5F5F5F5F5E2F5F5F5F5F5F5F5F5F5E2E2F5F5F5F5F5F5F5F5F5E2F5F5F5F5E2F5F5F5F5F5F5F5F5E2F5F5F5F5
310
F5F5F5F5F5F5F5F5F5F5F5F5F5F5F5F5F5F5F5F5F5F5F5F5F5F5F5F5F5F5F5F5F5F5F5F5F5F5F5F5F5F5E2F5F5F5F5F5F5F5F5F5F5F5F5F5F5F5DCDCDCDCDCDCDCDCF5DCDCDCDCF5DCDCDCF5F5F5F5F5F5F5F5F5F5F5F5F5F5E2F5F5F5F5F5F5F5F5F5F5C3E2F5F5F5E2E2F5F5E2C3F5F5F5F5F5F5F5F5F5F5F5F5F5F5F5F5
310
F5F5F52DF5F52DF5F5F5F5F5F5E2F5F5F5F5F5F5F5F5F5E2E2F5F5F5F5F5F5F5F5F5E2F5F5F5F5E2F5F5F5F5F5F5F5F5E2F5F5F5F5F5F5F5F5F5F5F5F5F5F5F5F5F5F5F5F5F5F5F5F5F5F5F5F5F5F5F5F5F5F5F5F5F5F5F5F5F5F5F5F5F5F5E2F5F5F5F5F5F5F5F5F5F5F5F5F5F5F5DCDCDCDCDCDCDCF5F5DCDCDCDCDCDCDC
310
F5F5F5F5F5F5F5F5F5F5F5F5F5F5F5E2F5F5F5F5F5F5F5F5F5F5C3E2F5F5F5E2E2F5F5E2C3F5F5F5F5F5F5F5F5F5F5F5F5F5F5F5F5F52DF52D2D2D2DF5F5F5F5F5F5E2F5F5F5F5F5F5F5F5F5E2E2F5F5F5F5F5F5F5F5F5E2E2E2E2E2E2E2E2F5F5F5F5F5F5E2F5F5F5F5F5F5F5F5F5F5F5F5F5F5F5F5F5F5F5F5F5F5F5F5F5
310
F5F5F5F5F5F5F5F5F5F5F5F5F5F5F5F5F5F5F5F5F5E2DCDCDCDCDCDCDCDCDCDCDCF5DCDCF5DCDCDCDCDCDCDCDCF5DCDCDCF5F5DCDCDCF5F5F5F5F5F5F5F5F5F5F5F5F5F5E2F5F5F5F5F5F5F5F5F5F5C3E2F5F5F5E2E2F5F5E2C3F5F5F5F5F5F5F5F5F5F5F5F5F5F5F5F5F52D2D2D2D2D2DF5F5F5F5F5F5E2F5F5F5F5F5F5F5
310
F5F5E2E2F5F5F5F5F5F5F5F5F5E2F5F5F5F5E2E2E2F5F5F5F5F5F5E2F5F5F5F5F5F5F5F5F5F5F5F5F5F5F5F5F5F5F5F5F5F5F5F5F5F5F5F5F5F5F5F5F5F5F5F5F5F5F5F5F5F5F5F5F5F5E2DCDCDCDCDCDCDCDCDCDCDCF5DCDCF5DCDCDCDCDCDCDCF5F5DCDCDCDCDCDCDCF5F5F5F5F5F5F5F5F5F5F5F5F5F5F5E2F5F5F5F5F5
310
F5F5F5F5F5C3E2F5F5F5E2E2F5F5E2C3F5F5F5F5F5F5F5F5F5F5F5F5F5F5F5F5F52D2D2D2D2D2DF5F5F5F5F5F5E2F5F5E2E2E2E2E2E2F5E2E2F5F5F5F5F5F5F5F5F5E2E2E2E2E2E2E2E2F5F5F5F5F5F5E2F5F5F5F5F5F5F5F5F5F5F5F5F5F5F5F5F5F5F5F5F5F5F5F5F5F5F5F5F5F5F5F5F5F5F5F5F5F5F5F5F5F5F5F5F5F5
310
E2E2E2E2E2E2E2E2E2E2E2E2E2E2E2E2E2E2E2E2E2E2E2E2E2E2E2E2E2E2E2E2E2E2E2E2E2E2E2E2E2E2E2E2E2E2E2E2F5F5F5F5F5F5F5F5F5F5C3E2F5F5F5E2E2F5F5E2C3F5F5F5F5F5F5F5F5F5F5F5F5F5F5F5F5F5F5F52DF5F52DF5F5F5F5F5F5E2F5F5F5E2E2E2E2E2F5E2E2F5F5F5F5F5F5F5F5F5E2F5F5F5F5E2F5F5
310
F5F5F5F5F5F5E2F5F5F5F5F5F5F5F5F5F5F5F5F5F5F5F5F5F5F5F5F5F5F5F5F5F5F5F5F5F5F5F5F5F5F5F5F5F5F5F5F5F5F5F5F5F5E2DCDCDCDCDCDCDCF5F5DCF5F5DCDCDCDCDCDCDCDCDCDCDCDCF5DCDCDCDCDCF5F5F5F5F5F5F5F5F5F5F5F5F5F5F5F5E2F5F5F5F5F5F5F5F5F5F5C3E2F5F5F5E2E2F5F5E2C3F5F5F5F5F5
310
F5F5F5F5F5F5F5F5F5F5F5F5F5F52DF5F52DF5F5F5F5F5F5E2F5F5F5F5F5F5F5F5F5E2E2F5F5F5F5F5F5F5F5F5E2F5F5F5F5E2F5F5F5F5F5F5F5F5E2F5F5F5F5F5F5F5F5F5F5F5F5F5F5F5F5F5F5F5F5F5F5F5F5F5F5F5F5F5F5F5F5F5F5F5F5F5F5F5F5F5F5F5F5F5F5E2E2E2E2E2E2E2E2E2E2E2E2E2E2E2E2E2E2E2E2E2
310
E2E2E2E2E2E2E2E2E2E2E2E2E2E2E2E2E2E2E2E2E2E2E2E2E2E2E2F5F5F5F5F5F5F5F5F5F5C3E2F5F5F5E2E2F5F5E2C3F5F5F5F5F5F5F5F5F5F5F5F5F5F5F5F5F5F5F52DF5F52DF5F5F5F5F5F5E2E2E2E2E2E2E2E2E2E2E2E2F5F5F5F5F5F5F5F5F5E2F5F5F5F5E2F5F5F5F5F5F5F5F5E2E2E2F5F5F5F5F5F5F5F5F5F5F5F5
310
F5F5F5F5F5F5F5F5F5F5F5F5F5F5F5F5F5F5F5F5F5F5F5F5F5F5F5F5F5F5F5F5E2DCDCDCDCDCDCDCF5F5DCF5F5DCDCDCDCDCDCDCDCDCDCF5DCF5DCDCDCDCDCF5F5F5F5F5F5F5F5F5F5F5F5F5F5F5F5E2F5F5F5F5F5F5F5F5F5F5C3E2F5F5F5E2E2F5F5E2C3F5F5F5F5F5F5F5F5F5F5F5F5F5F5F5F5F5F5F52DF5F52DF5F5F5
310
F5F5F5E2E2E2E2E228E2E2E2E2E2E2F5F5F5F5F5F5F5F5F5E2F5F5F5F5E2F5F5F5F5F5F5F5F5F5F5E2F5F5F5F5F5F5F5F5F5F5F5F5F5F5F5F5F5F5F5F5F5F5F5F5F5F5F5F5F5F5F5F5F5F5F5F5F5F5F5F5F5F5F5F5E2DCDCDCDCDCDCDCF5F5DCF5F5DCDCDCDCF5DCDCDCDCDCDCDCDCDCDCDCDCDCF5F5F5F5F5F5F5F5F5F5F5
310
F5F5F5F5F5E2F5F5F5F5F5F5F5F5F5F5C3E2F5F5F5E2E2F5F5E2C3F5F5F5F5F5F5F5F5F5F5F5F5F5F5F5F5F5F5F52DF5F52DF5F5F5F5F5F5E228E228E228E228E228E2E2F5F5F5F5F5F5F5F5F5E2F5F5F5F5E2F5F5F5F5F5F5F5F5F5F5E2F5F5F5F5F5F5F5F5F5F5F5F5F5F5F5F5F5F5F5F5F5F5F5F5F5F5F5F5F5F5F5F5F5
310
F5F5F5F5F5F5F5F5F5F5F5E2E2E2E2E2E2E2E2E2E2E2E2E2E2E2E2E2E2E2E2E2E2E2E2E2E2E2E2E2E2E2E2E2E2E2E2E2E2E2E2E2E2E2E2E2E2E2E2F5F5F5F5F5F5F5F5F5F5C3E2F5F5F5E2E2F5F5E2C3F5F5F5F5F5F5F5F5F5F5F5F5F5F5F5F5F5F5F52D2DF52DF5F5F5F5F5F5E228E228E228E228E228E2E2F5F5F5F5F5F5
310
F5F5F5E2F5F5F5F5E2F5F5F5F5F5F5F5F5F5F5E2F5F5F5F5F5F5F5F5F5F5F5F5F5F5F5F5F5F5F5F5F5F5F5F5F5F5F5F5F5F5F5F5F5F5F5F5F5F5F5F5F5F5F5F5E2DCDCDCDCDCDCDCDCDCDCDCDCF5F5DCF5F5DCDCDCDCDCDCDCDCDCDCF5F5F5F5F5F5F5F5F5F5F5F5F5F5F5F5F5F5F5E2F5F5F5F5F5F5F5F5F5F5C3E2F5F5F5
310
E2E2F5F5F5C3F5F5F5F5F5F5F5F5F5F5F5F5F5F5F5F5F5F52D2D2D2D2D2D2D2D2D2DF5E2E2E2E2E2E2E2E2E2E2E2E2F5F5F5F5F5F5F5F5F5E2E2E2E2E2E2E2E2E2E2E2E2E2E2E2E2E2F5F5F5F5F5F5F5F5F5F5F5F5F5F5F5F5F5F5F5F5F5F5F5F5F5F5F5F5F5F5F5F5F5F5F5F5F5F5F5F5F5F5F5F5E2E2E2E2E2E2E2E2E2E2
310
E2E2E2E2E2E2E2E2E2E2E2E2E2E2E2E2E2E2E2E2E2E2E2E2E2E2E2E2E2E2E2E2E2E2E2E2E2E2F5F5F5F5F5F5F5F5F5F5C3F5F5F5F5E2E2F5F5F5C3F5F5F5F5F5F5F5F5F5F5F5F5F5F5F5F5F5F5F5F5F5F5F5F5F5F5F5F5F5F5F5F5F5F5F5F5F5F5F5F5F5F5F5F5F5F5F5F5F5F5F5F5F5F5F5F5F5F5F5F5F5F5F5F5F5F5F5F5
310
F5F5F5F5F5F5F5F5F5F5F5F5F5F5F5F5F5F5F5F5F5F5F5F5F5F5F5F5F5F5F5F5F5F5F5F5F5F5F5F5F5F5F5E2DCDCDCDCDCDCDCDCDCDCDCDCF5F5DCF5F5DCDCDCDCDCDCDCF5DCDCDCDCDCDCDCF5F5F5F5F5F5F5F5F5F5F5F5F5F5E2F5F5F5F5F5F5F5F5F5F5C3F5F5F5F5E2E2F5F5F5C3F5F5F5F5F5F5F5F5F5F5F5F5F5F5F5
310
F5F5F5F5F5F5F5F5F5F5F5F5F5F5F5F5F5F5F5F5F5F5F5F5F5F5F5F5F5F5F5F5F5F5F52DF5F5F5F5F5F5F5F5F5F5F5F5F5F5F5F5F5F5F5F5F5F5F5F5F5F5F5F5F5F5F5F5F5F5F5F5F5F5F5F5F5F5F5F5F5F5F5F5F5F5F5F5F5F5F5F5F5F5F5F5E2DCDCDCDCDCDCDCDCDCDCDCDCF5F5DCF5F5DCDCDCDCDCDCDCDCDCDCDCDCDC
310
DCDCF5F5F5F5F5F5F5F5F5F5F5F5F5F5E2F5F5F5F5F5F5F5F5F5F5C3F5F5F5F5E2E2F5F5F5C3F5F5F5F5F5F5F5F5F5F5F5F5F5F5F5F5F5F5F5F5F5F5F5F5F5F5F5F5F52DF5F5F5F5F5F5F5F5F5F52DF5F5F5F5F5F5F5F5F52DF5F5F5F5F5F5F5F5F5F5F5F5F5F5F52DF5F5F5F5F5F5F5F5F5F5F5F5F5F5F5F5F5F5F5F5F5F5
310
F5F5F5F5F5F5F5F5F5F5F5F5F5F5F5F5F5F5F5F5F5F5E2E2E2E2E2E2E2E2E2E2E2E2E2E2E2E2E2E2E2E2E2E2E2E2E2E2E2E2E2E2E2E2E2E2E2E2E2E2E2E2E2E2E2E2E2E2E2E2F5F5F5F5F5F5F5F5F5F5C3F5F5F5F5E2E2F5F5F5C3F5F5F5F5F5F5F5F5F5F5F5F5F5F5F5F5F5F5F5F5F5F5F5F5F5F5F5F5F52DF5F5F5F5F5F5
310
F5F5F5F52DF5F5F5F5F5F5F5F5F52DF5F5F5F5F5F5F5F5F5F5F5F5F5F5F52DF5F5F5F5F5F5F5F5F5F5F5F5F5F5F5F5F5F5F5F5F5F5F5F5F5F5F5F5F5F5F5F5F5F5F5F5F5F5F5F5F5F5F5F5E2DCDCDCDCDCDCF5DCF5F5DCDCDCDCDCDCDCDCDCDCF5F5F5F5F5F5F5F5F5F5F5F5F5F5F5F5F5F5F5F5F5F5F5F5F5F5E2F5F5F5F5
310
F5F5F5F5F5F5C3F5F5F5F5E2E2F5F5F5C3F5F5F5F5F5F5F5F5F5F5F5F5F5F5F5F5F5F5F5F5F5F5F5F5F5F5F5F5F52DF5F5F5F5F5F5F5F5F5F52DF5F5F5F5F5F5F5F5F52DF5F5F5F5F5F5F5F5F5F5F5F5F5F5F52DF5F5F5F5F5F5F5F5F5F5F5F5F5F5F5F5F5F5F5F5F5F5F5F5F5F5F5F5F5F5F5F5F5F5F5F5F5F5F5F5F5F5F5
310
F5E2E2E2E2E2E2E2E2E2E2E2E2E2E2E2E2E2E2E2E2E2E2E2E2E2E2E2E2E2E2E2E2E2E2E2E2E2E2E2E2E2E2E2E2E2E2E2E2F5F5F5F5F5F5F5F5F5F5C3F5F5F5F5E2E2F5F5F5C3F5F5F5F5F5F5F5F5F5F5F5F5F5F5F5F5F5F5F5F5F5F5F5F5F5F5F5F5F52DF5F5F5F5F5F5F5F5F5F52DF5F5F5F5F5F5F5F5F52DF5F5F5F5F5F5
310
F5F5F5F5F5F5F5F5F52DF5F5F5F5F5F5F5F5F5F5F5F5F5F5F5F5F5F5F5F5F5F5F5F5F5F5F5F5F5F5F5F5F5F5F5F5F5F5F5F5F5F5F5F5E2DCDCDCDCDCDCDCF5F5DCF5F5DCDCDCDCDCDCDCDCDCDCDCDCDCDCF5F5F5F5F5F5F5F5F5F5F5F5F5F5F5F5F5F5F5F5E2F5F5F5F5F5F5F5F5F5F5C3F5F5F5F5E2E2F5F5F5C3F5F5F5F5
310
F5F5F5F5F5F5F5F5F5F5F5F5F5F5F5F5F5F5F5F5F5F5F5F5F52DF5F5F5F5F5F5F5F5F5F52DF5F5F5F5F5F5F5F5F52DF5F5F5F5F5F5F5F5F5F5F5F5F5F5F52DF5F5F5F5F5F5F5F5F5F5F5F5F5F5F5F5F5F5F5F5F5F5F5F5F5F5F5F5F5F5F5F5F5F5F5F5F5F5F5F5F5F5F5F5E2E2E2E2E2E2E2E2E2E2E2E2E2E2E2E2E2E2E2E2
310
E2E2E2E2E2E2E2E2E2E2E2E2E2E2E2E2E2E2E2E2E2E2E2E2E2E2E2E2F5F5F5F5F5F5F5F5F5F5C3F5F5F5F5E2E2F5F5F5C3F5F5F5F5F5F5F5F5F5F5F5F5F5F5F5F5F5F5F5F5F5F5F5F5F5F5F5F5F52D2D2D2D2D2D2D2D2D2D2D2DF5F5F5F5F5F5F5F5F52D2D2D2D2D2D2D2D2D2D2D2D2D2D2D2D2DF5F5F5F5F5F5F5F5F5F5F5
310
F5F5F5F5F5F5F5F5F5F5F5F5F5F5F5F5F5F5F5F5F5F5F5F5F5F5F5F5F5F5F5F5F5E2DCDCDCDCDCDCDCDCDCDCDCF5DCDCF5F5DCF5F5F5F5F5F5F5F5F5F5F5F5F5F5F5F5F5F5F5F5F5F5F5F5F5F5F5F5F5E2F5F5F5F5F5F5F5F5F5F5C3F5F5F5F5E2E2F5F5E2C3F5F5F5F5F5F5F5F5F5F5F5F5F5F5F5F5F5F5F5F5F5F5F5F5F5
310
F5F5F5F52D2DF5F52D2D2DF5F52D2D2DF5F5F5F5F5F5F5F5F52D2D2DF5F5F5F52D2DF5F5F5F5F52D2D2DF5F5F5F5F5F5F5F5F5F5F5F5F5F5F5F5F5F5F5F5F5F5F5F5F5F5F5F5F5F5F5F5F5F5F5F5F5F5F5F5F5F5F5F5E2DCDCDCDCDCDCDCDCDCDCDCF5DCDCF5F5DCF5F5F5F5F5F5F5F5F5F5F5F5F5F5F5F5F5F5F5F5F5F5F5
310
F5F5F5F5F5F5E2F5F5F5F5F5F5F5F5F5F5C3E2F5F5F5E2E2F5F5E2C3F5F5F5F5F5F5F5F5F5F5F5F5F5F5F5F5F5F5F5F5F5F5F5F5F5F5F5F5F5F5F5F5F5F52D2DF5F5F5F5F5F5F5F5F5F5F5F5F5F5F5F5F5F5F5F5F52D2D2DF5F5F5F5F5F5F5F5F5F5F5F5F5F5F5F5F5F5F5F5F5F5F5F5F5F5F5F5F5F5F5F5F5F5F5F5F5F5F5
310
F5F5F5F5F5F5F5F5F5F5F5F5E2E2E2E2E2E2E2E2E2E2E2E2E2E2E2E2E2E2E2E2E2E2E2E2E2E2E2E2E2E2E2E2E2E2E2E2E2E2E2E2E2E2E2E2E2E2E2E2F5F5F5F5F5F5F5F5F5F5C3E2F5F5F5E2E2F5F5E2C3F5F5F5F5F5F5F5F5F5F5F5F5F5F5F5F5F5F5F5F5F5F5F5F5F5F5F5F5F5F5F5F5F5F5F5F5F5F5F5F5F5F5F5F5F5F5
310
F5F5F5F5F5F5F5F5F5F5F5F5F5F5F5F5F5F5F5F5F5F5F5F5F5F5F5F5F5F5F5F5F5F5F5F5F5F5F5F5F5F5F5F5F5F5F5F5F5F5F5F5F5F5F5F5F5F5F5F5F5F5F5F5F5E2DCDCDCDCF5F5DCF5F5DCDCDCDCDCDCDCDCDCDCDCDCDCF5F5F5F5F5F5F5F5F5F5F5F5F5F5F5F5F5F5F5F5F5F5F5F5E2F5F5F5F5F5F5F5F5F5F5C3E2F5F5
310
F5E2E2F5F5E2C3F5F5F5F5F5F5F5F5F5F5F5F5F5F5F5F5F5F5F5F5F5F5F5F5F5F5F5F5F5F5F5F5F5F5F5F5F5F5F5F5F5F5F5F5F5F5F5F5F5F5F5F5F5F5F5F5F5F5F5F5F5F5F5F5F5F5F5F5F5F5F5F5F5F5F5F5F5F5F5F5F5F5F5F5F5F5F5F5F5F5F5F5F5F5F5F5F5F5F5F5F5F5F5F5F5F5F5F5F5F5F5E2E2E2E2E2E2E2E2E2
310
E2E2E2E2E2E2E2E2E2DCDCE2E2E2E2E2E2E2E2DCDCE2E2E2E2E2E2E2E2E2E2E2E2E2E2E2E2E2E2F5F5F5F5F5F5F5F5F5F5C3E2F5F5F5E2E2F5F5E2C3F5F5F5F5F5F5F5F5F5F5F5F5F5F5F5F5F5F5F5F5F5F5F5F5F5F5F5F5F5F5F5F5F5F5F5F5F5F5F5F5F5F5F5F5F5F5F5F5F5F5F5F5F5F5F5F5F5F5F5F5F5F5F5F5F5F5F5
310
F5F5F5F5F5F5F5F5F5F5F5F5F5F5F5F5F5F5F5F5F5F5F5F5F5F5F5F5F5F5F5F5F5F5F5F5F5F5F5F5F5F5F5F5E2F5F5F5F5F5F5F5F5F5F5F5F5F5F5F5F5DCDCDCF5F5F5F5F5F5F5DCDCDCF5F5F5F5F5F5F5F5F5F5F5F5F5F5F5F5F5E2F5F5F5F5F5F5F5F5F5F5C3E2F5F5F5E2E2F5F5E2C3F5F5F5F5F5F5F5F5F5F5F5F5F5F5
310
F5F5F5F5F5F5F5F5F5F5F5F5F5F5F5F5F5F5F5F5F5F5F5F5F5F5F5F5F5F5F5F5F5F5F5F5F5F5F5F5F5F5F5F5F5F5F5F5F5F5F5F5F5F5F5F5F5F5F5F5F5F5F5F5F5F5F5F5F5F5F5F5F5F5F5F5F5F5F5F5F5F5F5F5F5F5F5F5F5F5F5F5F5F5F5F5F5E2E2E2E2E2E2E2E2E2E2E2E2E2E2E2E2E2E2DCE2E2E2E2E2E2E2E2E2DCDC
310
E2E2E2E2E2E2E2E2E2E2E2E2E2E2E2E2E2E2F5F5F5F5F5F5F5F5F5F5C3E2F5F5F5E2E2F5F5E2C3F5F5F5F5F5F5F5F5F5F5F5F5F5F5F5F5F5F5F5F5F5F5F5F5F5F5F5F5F5F5F5F5F5F5F5F5F5F5F5F5F5F5F5F5F5F5F5F5F5F5F5F5F5F5F5F5F5F5F5F5F5F5F5F5F5F5F5F5F5F5F5F5F5F5F5F5F5F5F5F5F5F5F5F5F5F5F5F5
310
F5F5F5F5F5F5F5F5F5F5F5F5F5F5F5F5F5F5F5F5F5F5F5F5F5F5F5F5F5F5F5F5F5F5F5F5F5F5F5F5F5F5F5F5F5F5F5F5F5F5F5F5F5F5F5F5F5F5F5F5F5F5F5F5F5F5F5F5F5F5F5F5F5F5F5F5F5F5F5F5F5C3E2F5F5F5E2E2F5F5E2C3F5F5F5F5F5F5F5F5F5F5F5F5F5F5F5F5F5F5F5F5F5F5F5F5F5F5F5F5F5F5F5F5F5F5F5
310
F5F5F5F5F5F5F5F5F5F5F5F5F5F5F5F5F5F5F5F5F5F5F5F5F5F5F5F5F5F5F5F5F5F5F5F5F5F5F5F5F5F5F5F5F5F5F5F5F5F5F5F5F5F5F5F5F5F5F5F5F5F5F5F5F5F5F5F5F5F5F5F5F5F5F5F5F5F5F5F5F5F5F5F5F5F5F5F5F5F5F5F5F5F5F5F5F5F5F5F5F5F5F5F5F5F5F5F5F5F5F5F5F5F5F5F5F5F5F5F5F5F5F5F5F5F5F5
310
F5F5F5F5F5F5F5C3E2F5F5F5E2E2F5F5E2C3F5F5F5F5F5F5F5F5F5F5F5F5F5F5F5F5F5F5F5F5F5F5F5F5F5F5F5F5F5F5F5F5F5F5F5F5F5F5F5F5F5F5F5F5F5F5F5F5F5F5F5F5F5F5F5F5F5F5F5F5F5F5F5F5F5F5F5F5F5F5F5F5F5F5F5F5F5F5F5F5F5F5F5F5F5F5F5F5F5F5F5F5F5F5F5F5F5F5F5F5F5F5F5F5F5F5F5F5F5
310
F5F5F5F5F5F5F5F5F5F5F5F5F5F5F5F5F5F5F5F5F5F5F5F5F5F5F5F5F5F5F5F5F5F5F5F5F5F5F5F5F5F5F5F5F5F5F5F5F5F5F5F5F5F5F5F5F5F5F5F5C3E2F5F5F5E2E2F5F5E2C3F5F5F5F5F5F5F5F5F5F5F5F5F5F5F5F5F5F5F5F5F5F5F5F5F5F5F5F5F5F5F5F5F5F5F5F5F5F5F5F5F5F5F5F5F5F5F5F5F5F5F5F5F5F5F5F5
310
F5F5F5F5F5F5F5F5F5F5F5F5F5F5F5F5F5F5F5F5F5F5F5F5F5F5F5F5F5F5F5F5F5F5F5F5F5F5F5F5F5F5F5F5F5F5F5F5F5F5F5F5F5F5F5F5F5F5F5F5F5F5F5F5F5F5F5F5F5F5F5F5F5F5F5F5F5F5F5F5F5F5F5F5F5F5F5F5F5F5F5F5F5F5F5F5F5F5F5F5F5F5F5F5F5F5F5F5F5F5F5F5F5C3E2F5F5F5E2E2F5F5E2C3F5F5F5
310
F5F5F5F5F5F5F5F5F5F5F5F5F5F5F5F5F5F5F5F5F5F5F5F5F5F5F5F5F5F5F5F5F5F5F5F5F5F5F5F5F5F5F5F5F5F5F5F5F5F5F5F5F5F5F5F5F5F5F5F5F5F5F5F5F5F5F5F5F5F5F5F5F5F5F5F5F5F5F5F5F5F5F5F5F5F5F5F5F5F5F5F5F5F5F5F5F5F5F5F5F5F5F5F5F5F5F5F5F5F5F5F5F5F5F5F5F5F5F5F5F5F5F5F5F5F5F5
310
F5F5F5F5F5F5F5F5F5F5F5F5F5F5F5F5F5F5F5F5F5F5F5F5F5F5F5F5F5F5F5F5F5F5F5F5F5F5F5C3E2F5F5F5E2E2F5F5E2C3F5F5F5F5F5F5F5F5F5F5F5F5F5F5F5F5F5F5F5F5F5F5F5F5F5F5F5F5F5F5F5F5F5F5F5F5F5F5F5F5F5F5F5F5F5F5F5F5F5F5F5F5F5F5F5F5F5F5F5F5F5F5F5F5F5F5F5F5F5F5F5F5F5F5F5F5F5
310
F5F5F5F5F5F5F5F5F5F5F5F5F5F5F5F5F5F5F5F5F5F5F5F5F5F5F5F5F5F5F5F5F5F5F5F5F5F5F5F5F5F5F5F5F5F5F5F5F5F5F5F5F5F5F5F5F5F5F5F5F5F5F5F5F5F5F5F5F5F5F5F5F5F5F5F5F5F5F5F5F5F5F5F5F5F5F5F5F5F5F5F5C3E2F5F5F5E2E2F5F5E2C3F5F5F5F5F5F5F5F5F5F5F5F5F5F5F5F5F5F5F5F5F5F5F5F5
310
F5F5F5F5F5F5F5F5F5F5F5F5F5F5F5F5F5F5F5F5F5F5F5F5F5F5F5F5F5F5F5F5F5F5F5F5F5F5F5F5F5F5F5F5F5F5F5F5F5F5F5F5F5F5F5F5F5F5F5F5F5F5F5F5F5F5F5F5F5F5F5F5F5F5F5F5F5F5F5F5F5F5F5F5F5F5F5F5F5F5F5F5F5F5F5F5F5F5F5F5F5F5F5F5F5F5F5F5F5F5F5F5F5F5F5F5F5F5F5F5F5F5F5F5F5F5F5
310
F5F5F5F5F5F5F5F5F5F5F5F5F5F5F5F5F5F5C3E2F5F5F5E2E2F5F5E2C3F5F5F5F5F5F5F5F5F5F5F5F5F5F5F5F5F5F5F5F5F5F5F5F5F5F5F5F5F5F5F5F5F5F5F5F5F5F5F5F5F5F5F5F5F5F5F5F5F5F5F5F5F5F5F5F5F5F5F5F5F5F5F5F5F5F5F5F5F5F5F5F5F5F5F5F5F5F5F5F5F5F5F5F5F5F5F5F5F5F5F5F5F5F5F5F5F5F5
310
F5F5F5F5F5F5F5F5F5F5F5F5F5F5F5F5F5F5F5F5F5F5F5F5F5F5F5F5F5F5F5F5F5F5F5F5F5F5F5F5F5F5F5F5F5F5F5F5F5F5F5F5F5F5F5F5F5F5F5F5F5F5F5F5F5F5F5F5F5F5F5C3E2F5F5F5E2E2F5F5E2C3F5F5F5F5F5F5F5F5F5F5F5F5F5F5F5F5F5F5F5F5F5F5F5F5F5F5F5F5F5F5F5F5F5F5F5F5F5F5F5F5F5F5F5F5F5
310
F5F5F5F5F5F5F5F5F5F5F5F5F5F5F5F5F5F5F5F5F5F5F5F5F5F5F5F5F5F5F5F5F5F5F5F5F5F5F5F5F5F5F5F5F5F5F5F5F5F5F5F5F5F5F5F5F5F5F5F5F5F5F5F5F5F5F5F5F5F5F5F5F5F5F5F5F5F5F5F5F5F5F5F5F5F5F5F5F5F5F5F5F5F5F5F5F5F5F5F5F5F5F5F5F5F5F5F5F5F5F5F5F5F5F5F5F5F5F5F5F5F5F5F5C3E2F5
310
F5F5E2E2F5F5F5C3F5F5F5F5F5F5F5F5F5F5F5F5F5F5F5F5F5F5F5F5F5F5F5F5F5F5F5F5F5F5F5F5F5F5F5F5F5F5F5F5F5F5F5F5F5F5F5F5F5F5F5F5F5F5F5F5F5F5F5F5F5F5F5F5F5F5F5F5F5F5F5F5F5F5F5F5F5F5F5F5F5F5F5F5F5F5F5F5F5F5F5F5F5F5F5F5F5F5F5F5F5F5F5F5F5F5F5F5F5F5F5F5F5F5F5F5F5F5F5
310
F5F5F5F5F5F5F5F5F5F5F5F5F5F5F5F5F5F5F5F5F5F5F5F5F5F5F5F5F5F5F5F5F5F5F5F5F5F5F5F5F5F5F5F5F5F5F5F5F5F5C3F5F5F5F5E2E2F5F5F5C3F5F5F5F5F5F5F5F5F5F5F5F5F5F5F5F5F5F5F5F5F5F5F5F5F5F5F5F5F5F5F5F5F5F5F5F5F5F5F5F5F5F5F5F5F5F5F5F5F5F5F5F5F5F5F5F5F5F5F5F5F5F5F5F5F5F5
310
F5F5F5F5F5F5F5F5F5F5F5F5F5F5F5F5F5F5F5F5F5F5F5F5F5F5F5F5F5F5F5F5F5F5F5F5F5F5F5F5F5F5F5F5F5F5F5F5F5F5F5F5F5F5F5F5F5F5F5F5F5F5F5F5F5F5F5F5F5F5F5F5F5F5F5F5F5F5F5F5F5F5F5F5F5F5F5F5F5F5F5F5F5F5F5F5F5F5F5F5F5F5F5C3F5F5F5F5E2E2F5F5F5C3F5F5F5F5F5F5F5F5F5F5F5F5F5
310
F5F5F5F5F5F5F5F5F5F5F5F5F5F5F5F5F5F5F5F5F5F5F5F5F5F5F5F5F5F5F5F5F5F5F5F5F5F5F5F5F5F5F5F5F5F5F5F5F5F5F5F5F5F5F5F5F5F5F5F5F5F5F5F5F5F5F5F5F5F5F5F5F5F5F5F5F5F5F5F5F5F5F5F5F5F5F5F5F5F5F5F5F5F5F5F5F5F5F5F5F5F5F5F5F5F5F5F5F5F5F5F5F5F5F5F5F5F5F5F5F5F5F5F5F5F5F5
310
F5F5F5F5F5F5F5F5F5F5F5F5F5F5F5F5F5F5F5F5F5F5F5F5F5F5F5F5F5C3F5F5F5F5E2E2F5F5F5C3F5F5F5F5F5F5F5F5F5F5F5F5F5F5F5F5F5F5F5F5F5F5F5F5F5F5F5F5F5F5F5F5F5F5F5F5F5F5F5F5F5F5F5F5F5F5F5F5F5F5F5F5F5F5F5F5F5F5F5F5F5F5F5F5F5F5F5F5F5F5F5F5F5F5F5F5F5F5F5F5F5F5F5F5F5F5F5
310
F5F5F5F5F5F5F5F5F5F5F5F5F5F5F5F5F5F5F5F5F5F5F5F5F5F5F5F5F5F5F5F5F5F5F5F5F5F5F5F5F5F5F5F5F5F5F5F5F5F5F5F5F5F5F5F5F5F5F5F5F5F5F5F5F5F5F5F5F5F5F5F5F5F5F5F5F5F5F5F5F5F5C3F5F5F5F5E2E2F5F5F5C3F5F5F5F5F5F5F5F5F5F5F5F5F5F5F5F5F5F5F5F5F5F5F5F5F5F5F5F5F5F5F5F5F5F5
310
F5F5F5F5F5F5F5F5F5F5F5F5F5F5F5F5F5F5F5F5F5F5F5F5F5F5F5F5F5F5F5F5F5F5F5F5F5F5F5F5F5F5F5F5F5F5F5F5F5F5F5F5F5F5F5F5F5F5F5F5F5F5F5F5F5F5F5F5F5F5F5F5F5F5F5F5F5F5F5F5F5F5F5F5F5F5F5F5F5F5F5F5F5F5F5F5F5F5F5F5F5F5F5F5F5F5F5F5F5F5F5F5F5F5F5F5F5F5F5F5F5F5F5F5F5F5F5
310
F5F5F5F5F5F5F5F5C3F5F5F5F5E2E2F5F5F5C3F5F5F5F5F5F5F5F5F5F5F5F5F5F5F5F5F5F5F5F5F5F5F5F5F5F5F5F5F5F5F5F5F5F5F5F5F5F5F5F5F5F5F5F5F5F5F5F5F5F5F5F5F5F5F5F5F5F5F5F5F5F5F5F5F5F5F5F5F5F5F5F5F5F5F5F5F5F5F5F5F5F5F5F5F5F5F5F5F5F5F5F5F5F5F5F5F5F5F5F5F5F5F5F5F5F5F5F5
310
F5F5F5F5F5F5F5F5F5F5F5F5F5F5F5F5F5F5F5F5F5F5F5F5F5F5F5F5F5F5F5F5F5F5F5F5F5F5F5F5F5F5F5F5F5F5F5F5F5F5F5F5F5F5F5F5F5F5F5F5F5C3F5F5F5F5E2E2F5F5F5C3F5F5F5F5F5F5F5F5F5F5F5F5F5F5F5F5F5F5F5F5F5F5F5F5F5F5F5F5F5F5F5F5F5F5F5F5F5F5F5F5F5F5F5F5F5F5F5F5F5F5F5F5F5F5F5
310
F5F5F5F5F5F5F5F5F5F5F5F5F5F5F5F5F5F5F5F5F5F5F5F5F5F5F5F5F5F5F5F5F5F5F5F5F5F5F5F5F5F5F5F5F5F5F5F5F5F5F5F5F5F5F5F5F5F5F5F5F5F5F5F5F5F5F5F5F5F5F5F5F5F5F5F5F5F5F5F5F5F5F5F5F5F5F5F5F5F5F5F5F5F5F5F5F5F5F5F5F5F5F5F5F5F5F5F5F5F5F5F5F5F5C3F5F5F5F5E2E2F5F5F5C3F5F5
310
F5F5F5F5F5F5F5F5F5F5F5F5F5F5F5F5F5F5F5F5F5F5F5F5F5F5F5F5F5F5F5F5F5F5F5F5F5F5F5F5F5F5F5F5F5F5F5F5F5F5F5F5F5F5F5F5F5F5F5F5F5F5F5F5F5F5F5F5F5F5F5F5F5F5F5F5F5F5F5F5F5F5F5F5F5F5F5F5F5F5F5F5F5F5F5F5F5F5F5F5F5F5F5F5F5F5F5F5F5F5F5F5F5F5F5F5F5F5F5F5F5F5F5F5F5F5F5
310
F5F5F5F5F5F5F5F5F5F5F5F5F5F5F5F5F5F5F5F5F5F5F5F5F5F5F5F5F5F5F5F5F5F5F5F5F5F5F5F5C3F5F5F5F5E2E2F5F5F5C3F5F5F5F5F5F5F5F5F5F5F5F5F5F5F5F5F5F5F5F5F5F5F5F5F5F5F5F5F5F5F5F5F5F5F5F5F5F5F5F5F5F5F5F5F5F5F5F5F5F5F5F5F5F5F5F5F5F5F5F5F5F5F5F5F5F5F5F5F5F5F5F5F5F5F5F5
310
F5F5F5F5F5F5F5F5F5F5F5F5F5F5F5F5F5F5F5F5F5F5F5F5F5F5F5F5F5F5F5F5F5F5F5F5F5F5F5F5F5F5F5F5F5F5F5F5F5F5F5F5F5F5F5F5F5F5F5F5F5F5F5F5F5F5F5F5F5F5F5F5F5F5F5F5F5F5F5F5F5F5F5F5F5F5F5F5F5F5F5F5F5C3F5F5F5F5E2E2F5F5E2C3F5F5F5F5F5F5F5F5F5F5F5F5F5F5F5F5F5F5F5F5F5F5F5
310
F5F5F5F5F5F5F5F5F5F5F5F5F5F5F5F5F5F5F5F5F5F5F5F5F5F5F5F5F5F5F5F5F5F5F5F5F5F5F5F5F5F5F5F5F5F5F5F5F5F5F5F5F5F5F5F5F5F5F5F5F5F5F5F5F5F5F5F5F5F5F5F5F5F5F5F5F5F5F5F5F5F5F5F5F5F5F5F5F5F5F5F5F5F5F5F5F5F5F5F5F5F5F5F5F5F5F5F5F5F5F5F5F5F5F5F5F5F5F5F5F5F5F5F5F5F5F5
310
F5F5F5F5F5F5F5F5F5F5F5F5F5F5F5F5F5F5F5C3E2F5F5F5E2E2F5F5E2C3F5F5F5F5F5F5F5F5F5F5F5F5F5F5F5F5F5F5F5F5F5F5F5F5F5F5F5F5F5F5F5F5F5F5F5F5F5F5F5F5F5F5F5F5F5F5F5F5F5F5F5F5F5F5F5F5F5F5F5F5F5F5F5F5F5F5F5F5F5F5F5F5F5F5F5F5F5F5F5F5F5F5F5F5F5F5F5F5F5F5F5F5F5F5F5F5F5
310
F5F5F5F5F5F5F5F5F5F5F5F5F5F5F5F5F5F5F5F5F5F5F5F5F5F5F5F5F5F5F5F5F5F5F5F5F5F5F5F5F5F5F5F5F5F5F5F5F5F5F5F5F5F5F5F5F5F5F5F5F5F5F5F5F5F5F5F5F5F5F5F5C3E2F5F5F5E2E2F5F5E2C3F5F5F5F5F5F5F5F5F5F5F5F5F5F5F5F5F5F5F5F5F5F5F5F5F5F5F5F5F5F5F5F5F5F5F5F5F5F5F5F5F5F5F5F5
310
F5F5F5F5F5F5F5F5F5F5F5F5F5F5F5F5F5F5F5F5F5F5F5F5F5F5F5F5F5F5F5F5F5F5F5F5F5F5F5F5F5F5F5F5F5F5F5F5F5F5F5F5F5F5F5F5F5F5F5F5F5F5F5F5F5F5F5F5F5F5F5F5F5F5F5F5F5F5F5F5F5F5F5F5F5F5F5F5F5F5F5F5F5F5F5F5F5F5F5F5F5F5F5F5F5F5F5F5F5F5F5F5F5F5F5F5F5F5F5F5F5F5F5F5F5C3E2
310
F5F5F5E2E2F5F5E2C3F5F5F5F5F5F5F5F5F5F5F5F5F5F5F5F5F5F5F5F5F5F5F5F5F5F5F5F5F5F5F5F5F5F5F5F5F5F5F5F5F5F5F5F5F5F5F5F5F5F5F5F5F5F5F5F5F5F5F5F5F5F5F5F5F5F5F5F5F5F5F5F5F5F5F5F5F5F5F5F5F5F5F5F5F5F5F5F5F5F5F5F5F5F5F5F5F5F5F5F5F5F5F5F5F5F5F5F5F5F5F5F5F5F5F5F5F5F5
310
F5F5F5F5F5F5F5F5F5F5F5F5F5F5F5F5F5F5F5F5F5F5F5F5F5F5F5F5F5F5F5F5F5F5F5F5F5F5F5F5F5F5F5F5F5F5F5F5F5F5F5C3E2F5F5F5E2E2F5F5E2C3F5F5F5F5F5F5F5F5F5F5F5F5F5F5F5F5F5F5F5F5F5F5F5F5F5F5F5F5F5F5F5F5F5F5F5F5F5F5F5F5F5F5F5F5F5F5F5F5F5F5F5F5F5F5F5F5F5F5F5F5F5F5F5F5F5
310
F5F5F5F5F5F5F5F5F5F5F5F5F5F5F5F5F5F5F5F5F5F5F5F5F5F5F5F5F5F5F5F5F5F5F5F5F5F5F5F5F5F5F5F5F5F5F5F5F5F5F5F5F5F5F5F5F5F5F5F5F5F5F5F5F5F5F5F5F5F5F5F5F5F5F5F5F5F5F5F5F5F5F5F5F5F5F5F5F5F5F5F5F5F5F5F5F5F5F5F5F5F5F5F5C3E2F5F5F5E2E2F5F5E2C3C3C3C3C3C3C3C3C3C3C3C3C3
310
C3C3C3C3C3C3C3C3C3C3C3C3C3C3C3C3C3C3C3C3C3C3C3C3C3C3C3C3C3C3C3C3C3C3C3C3C3C3C3C3C3C3C3C3C3C3C3C3C3C3C3C3C3C3C3C3C3C3C3C3C3C3C3C3C3C3C3C3C3C3C3C3C3C3C3C3C3C3C3C3C3C3C3C3C3C3C3C3C3C3C3C3C3C3C3C3C3C3C3C3C3C3C3C3C3C3C3C3C3C3C3C3C3C3C3C3C3C3C3C3C3C3C3C3C3C3C3
310
C3C3C3C3C3C3C3C3C3C3C3C3C3C3C3C3C3C3C3C3C3C3C3C3C3C3C3C3C3C3C3E2F5F5F5E2E2F5F5E2F5F5F5F5F5F5F5F5F5F5F5F5F5F5F5F5F5F5F5F5F5F5F5F5F5F5F5F5F5F5F5F5F5F5F5F5F5F5F5F5F5F5F5F5F5F5F5F5F5F5F5F5F5F5F5F5F5F5F5F5F5F5F5F5F5F5F5F5F5F5F5F5F5F5F5F5F5F5F5F5F5F5F5F5F5F5F5
310
F5F5F5F5F5F5F5F5F5F5F5F5F5F5F5F5F5F5F5F5F5F5F5F5F5F5F5F5F5F5F5F5F5F5F5F5F5F5F5F5F5F5F5F5F5F5F5F5F5F5F5F5F5F5F5F5F5F5F5F5F5F5F5F5F5F5F5F5F5F5F5F5F5F5F5F5F5F5F5F5F5F5F5F5E2F5F5F5E2E2F5F5E2E2E2E2E2E2E2E2F5F5F5F5F5F5F5F5F5E2E2E2E2E2E2E2E2E2E2E2E2E2E2E2E2F5F5
310
F5F5F5F5F5F5F5E2E2E2E2E2E2E2E2E2E2E2E2E2E2E2E2F5F5F5F5F5F5F5F5E2E2E2E2E2E2E2E2E2E2E2E2E2E2E2E2F5F5F5F5F5F5F5F5F5E2E2E2E2E2E2E2E2E2E2E2E2E2E2E2E2F5F5F5F5F5F5F5F5E2E2E2E2E2E2E2E2E2E2E2E2E2E2E2E2F5F5F5F5F5F5F5F5F5E2E2E2E2E2E2E2E2E2E2E2E2E2E2E2E2F5F5F5F5F5F5
310
F5F5F5E2E2E2E2E2E2E2E2F5F5F5E2E2F5F5F5F5F5F5F5F5F5F5F5F5F5F5F5F5F5F5F5F5F5F5F5F5F5F5F5F5F5F5F5F5F5F5F5F5F5F5F5F5F5F5F5F5F5F5F5F5F5F5F5F5F5F5F5F5F5F5F5F5F5F5F5F5F5F5F5F5F5F5F5F5F5F5F5F5F5F5F5F5F5F5F5F5F5F5F5F5F5F5F5F5F5F5F5F5F5F5F5F5F5F5F5F5F5F5F5F5F5F5F5
310
F5F5F5F5F5F5F5F5F5F5F5F5F5F5F5F5F5F5F5F5F5F5F5F5F5F5F5F5F5F5F5F5F5F5F5F5F5F5F5F5F5F5F5F5F5F5F5F5F5F5F5F5F5F5F5F5F5F5F5F5F5F5F5F5F5F5F5E2E2F5F5F5F5F5F5F5F5F5F5F5F5F5F5F5F5F5F5F5F5F5F5F5F5F5F5F5F5F5F5F5F5F5F5F5F5F5F5F5F5F5F5F5F5F5F5F5F5F5F5F5F5F5F5F5F5F5F5
310
F5F5F5F5F5F5F5F5F5F5F5F5F5F5F5F5F5F5F5F5F5F5F5F5F5F5F5F5F5F5F5F5F5F5F5F5F5F5F5F5F5F5F5F5F5F5F5F5F5F5F5F5F5F5F5F5F5F5F5F5F5F5F5F5F5F5F5F5F5F5F5F5F5F5F5F5F5F5F5F5F5F5F5F5F5F5F5F5F5F5F5F5F5F5F5F5F5F5F5F5F5F5F5F5F5F5F5F5F5F5F5F5F5F5F5F5F5F5F5F5E2EFE2E2E2E2E2
310
E2E2E2E2E2E2E2E2E2E2E2E2E2E2E2E2E2E2E2E2E2E2E2E2E2E2E2E2E2E2E2E2E2E2E2E2E2E2E2E2E2E2E2E2E2E2E2E2E2E2E2E2E2E2E2E2E2E2E2E2E2E2E2E2E2E2E2E2E2E2E2E2E2E2E2E2E2E2E2E2E2E2E2E2E2E2E2E2E2E2E2E2E2E2E2E2E2E2E2E2E2E2E2E2E2E2E2E2E2E2E2E2E2E2E2E2E2E2E2E2E2E2E2E2E2E2E2
310
E2E2E2E2E2E2E2E2E2E2E2E2E2E2E2E2E2E2E2E2E2E2E2E2E2E2E2E2E2E2E2E2E2E2E2E2E2E2E2E2E2E2E2E2E2E2E2EF
  0
XRECORD
  5
1DDF
102
{ACAD_REACTORS
330
1D73
102
}
330
1D73
100
AcDbXrecord
280
     1
102
MATERIAL
148
0.0
149
0.0
149
0.0
 93
        0
 94
      127
282
     0
 72
     0
 77
     0
171
     0
175
     0
179
     0
273
     0
  0
XRECORD
  5
1D75
102
{ACAD_REACTORS
330
1D73
102
}
330
1D73
100
AcDbXrecord
280
     1
270
     1
271
     1
  0
XRECORD
  5
1D74
102
{ACAD_REACTORS
330
1D73
102
}
330
1D73
100
AcDbXrecord
280
     1
270
     1
271
     1
  0
XRECORD
  5
1D78
102
{ACAD_REACTORS
330
1D73
102
}
330
1D73
100
AcDbXrecord
280
     1
270
     1
271
     1
  0
XRECORD
  5
1D77
102
{ACAD_REACTORS
330
1D73
102
}
330
1D73
100
AcDbXrecord
280
     1
270
     1
271
     1
  0
XRECORD
  5
1D79
102
{ACAD_REACTORS
330
1D73
102
}
330
1D73
100
AcDbXrecord
280
     1
270
     1
271
     1
  0
XRECORD
  5
1D76
102
{ACAD_REACTORS
330
1D73
102
}
330
1D73
100
AcDbXrecord
280
     1
270
     1
271
     1
  0
XRECORD
  5
1DDE
102
{ACAD_REACTORS
330
1D6B
102
}
330
1D6B
100
AcDbXrecord
280
     1
102
MATERIAL
148
0.0
149
0.0
149
0.0
 93
        0
 94
      127
282
     0
 72
     0
 77
     0
171
     0
175
     0
179
     0
273
     0
  0
XRECORD
  5
1D6D
102
{ACAD_REACTORS
330
1D6B
102
}
330
1D6B
100
AcDbXrecord
280
     1
270
     1
271
     1
  0
XRECORD
  5
1D6C
102
{ACAD_REACTORS
330
1D6B
102
}
330
1D6B
100
AcDbXrecord
280
     1
270
     1
271
     1
  0
XRECORD
  5
1D70
102
{ACAD_REACTORS
330
1D6B
102
}
330
1D6B
100
AcDbXrecord
280
     1
270
     1
271
     1
  0
XRECORD
  5
1D6F
102
{ACAD_REACTORS
330
1D6B
102
}
330
1D6B
100
AcDbXrecord
280
     1
270
     1
271
     1
  0
XRECORD
  5
1D71
102
{ACAD_REACTORS
330
1D6B
102
}
330
1D6B
100
AcDbXrecord
280
     1
270
     1
271
     1
  0
XRECORD
  5
1D6E
102
{ACAD_REACTORS
330
1D6B
102
}
330
1D6B
100
AcDbXrecord
280
     1
270
     1
271
     1
  0
XRECORD
  5
1DDD
102
{ACAD_REACTORS
330
56
102
}
330
56
100
AcDbXrecord
280
     1
102
MATERIAL
148
0.0
149
0.0
149
0.0
 93
        0
 94
       63
282
     0
 72
     1
 77
     1
171
     1
175
     1
179
     1
273
     0
  0
XRECORD
  5
58
102
{ACAD_REACTORS
330
56
102
}
330
56
100
AcDbXrecord
280
     1
270
     1
271
     1
  0
XRECORD
  5
59
102
{ACAD_REACTORS
330
56
102
}
330
56
100
AcDbXrecord
280
     1
270
     1
271
     1
  0
XRECORD
  5
5A
102
{ACAD_REACTORS
330
56
102
}
330
56
100
AcDbXrecord
280
     1
270
     1
271
     1
  0
XRECORD
  5
5B
102
{ACAD_REACTORS
330
56
102
}
330
56
100
AcDbXrecord
280
     1
270
     1
271
     1
  0
CELLSTYLEMAP
  5
1DDB
102
{ACAD_REACTORS
330
1DDA
102
}
330
1DDA
100
AcDbCellStyleMap
 90
        3
300
CELLSTYLE
  1
TABLEFORMAT_BEGIN
 90
        5
170
     1
 91
        0
 92
    32768
 62
   257
 93
        1
300
CONTENTFORMAT
  1
CONTENTFORMAT_BEGIN
 90
        0
 91
        0
 92
      512
 93
        0
300

 40
0.0
140
1.0
 94
        5
 62
     0
340
11
144
6.0
309
CONTENTFORMAT_END
171
     1
301
MARGIN
  1
CELLMARGIN_BEGIN
 40
1.5
 40
1.5
 40
1.5
 40
1.5
 40
4.5
 40
4.5
309
CELLMARGIN_END
 94
        6
 95
        1
302
GRIDFORMAT
  1
GRIDFORMAT_BEGIN
 90
        0
 91
        1
 62
     0
 92
       -2
340
0
 93
        0
 40
1.125
309
GRIDFORMAT_END
 95
        2
302
GRIDFORMAT
  1
GRIDFORMAT_BEGIN
 90
        0
 91
        1
 62
     0
 92
       -2
340
0
 93
        0
 40
1.125
309
GRIDFORMAT_END
 95
        4
302
GRIDFORMAT
  1
GRIDFORMAT_BEGIN
 90
        0
 91
        1
 62
     0
 92
       -2
340
0
 93
        0
 40
1.125
309
GRIDFORMAT_END
 95
        8
302
GRIDFORMAT
  1
GRIDFORMAT_BEGIN
 90
        0
 91
        1
 62
     0
 92
       -2
340
0
 93
        0
 40
1.125
309
GRIDFORMAT_END
 95
       16
302
GRIDFORMAT
  1
GRIDFORMAT_BEGIN
 90
        0
 91
        1
 62
     0
 92
       -2
340
0
 93
        0
 40
1.125
309
GRIDFORMAT_END
 95
       32
302
GRIDFORMAT
  1
GRIDFORMAT_BEGIN
 90
        0
 91
        1
 62
     0
 92
       -2
340
0
 93
        0
 40
1.125
309
GRIDFORMAT_END
309
TABLEFORMAT_END
  1
CELLSTYLE_BEGIN
 90
        1
 91
        1
300
_TITLE
309
CELLSTYLE_END
300
CELLSTYLE
  1
TABLEFORMAT_BEGIN
 90
        5
170
     1
 91
        0
 92
        0
 62
   257
 93
        1
300
CONTENTFORMAT
  1
CONTENTFORMAT_BEGIN
 90
        0
 91
        0
 92
      512
 93
        0
300

 40
0.0
140
1.0
 94
        5
 62
     0
340
11
144
4.5
309
CONTENTFORMAT_END
171
     1
301
MARGIN
  1
CELLMARGIN_BEGIN
 40
1.5
 40
1.5
 40
1.5
 40
1.5
 40
4.5
 40
4.5
309
CELLMARGIN_END
 94
        6
 95
        1
302
GRIDFORMAT
  1
GRIDFORMAT_BEGIN
 90
        0
 91
        1
 62
     0
 92
       -2
340
0
 93
        0
 40
1.125
309
GRIDFORMAT_END
 95
        2
302
GRIDFORMAT
  1
GRIDFORMAT_BEGIN
 90
        0
 91
        1
 62
     0
 92
       -2
340
0
 93
        0
 40
1.125
309
GRIDFORMAT_END
 95
        4
302
GRIDFORMAT
  1
GRIDFORMAT_BEGIN
 90
        0
 91
        1
 62
     0
 92
       -2
340
0
 93
        0
 40
1.125
309
GRIDFORMAT_END
 95
        8
302
GRIDFORMAT
  1
GRIDFORMAT_BEGIN
 90
        0
 91
        1
 62
     0
 92
       -2
340
0
 93
        0
 40
1.125
309
GRIDFORMAT_END
 95
       16
302
GRIDFORMAT
  1
GRIDFORMAT_BEGIN
 90
        0
 91
        1
 62
     0
 92
       -2
340
0
 93
        0
 40
1.125
309
GRIDFORMAT_END
 95
       32
302
GRIDFORMAT
  1
GRIDFORMAT_BEGIN
 90
        0
 91
        1
 62
     0
 92
       -2
340
0
 93
        0
 40
1.125
309
GRIDFORMAT_END
309
TABLEFORMAT_END
  1
CELLSTYLE_BEGIN
 90
        2
 91
        1
300
_HEADER
309
CELLSTYLE_END
300
CELLSTYLE
  1
TABLEFORMAT_BEGIN
 90
        5
170
     1
 91
        0
 92
        0
 62
   257
 93
        1
300
CONTENTFORMAT
  1
CONTENTFORMAT_BEGIN
 90
        0
 91
        0
 92
      512
 93
        0
300

 40
0.0
140
1.0
 94
        2
 62
     0
340
11
144
4.5
309
CONTENTFORMAT_END
171
     1
301
MARGIN
  1
CELLMARGIN_BEGIN
 40
1.5
 40
1.5
 40
1.5
 40
1.5
 40
4.5
 40
4.5
309
CELLMARGIN_END
 94
        6
 95
        1
302
GRIDFORMAT
  1
GRIDFORMAT_BEGIN
 90
        0
 91
        1
 62
     0
 92
       -2
340
0
 93
        0
 40
1.125
309
GRIDFORMAT_END
 95
        2
302
GRIDFORMAT
  1
GRIDFORMAT_BEGIN
 90
        0
 91
        1
 62
     0
 92
       -2
340
0
 93
        0
 40
1.125
309
GRIDFORMAT_END
 95
        4
302
GRIDFORMAT
  1
GRIDFORMAT_BEGIN
 90
        0
 91
        1
 62
     0
 92
       -2
340
0
 93
        0
 40
1.125
309
GRIDFORMAT_END
 95
        8
302
GRIDFORMAT
  1
GRIDFORMAT_BEGIN
 90
        0
 91
        1
 62
     0
 92
       -2
340
0
 93
        0
 40
1.125
309
GRIDFORMAT_END
 95
       16
302
GRIDFORMAT
  1
GRIDFORMAT_BEGIN
 90
        0
 91
        1
 62
     0
 92
       -2
340
0
 93
        0
 40
1.125
309
GRIDFORMAT_END
 95
       32
302
GRIDFORMAT
  1
GRIDFORMAT_BEGIN
 90
        0
 91
        1
 62
     0
 92
       -2
340
0
 93
        0
 40
1.125
309
GRIDFORMAT_END
309
TABLEFORMAT_END
  1
CELLSTYLE_BEGIN
 90
        3
 91
        2
300
_DATA
309
CELLSTYLE_END
  0
XRECORD
  5
1DE0
102
{ACAD_REACTORS
330
1DDA
102
}
330
1DDA
100
AcDbXrecord
280
     1
102
ACAD_ROUNDTRIP_PRE2007_TABLESTYLE
 90
      512
 91
        0
  1

 92
      512
 93
        0
  2

 94
      512
 95
        0
  3

  0
ENDSEC
  0
EOF
